#VERSION:0.83;
#TITLE:Take;
#SUBTITLE:;
#ARTIST:RISH feat. CHOKO;
#TITLETRANSLIT:Take;
#SUBTITLETRANSLIT:;
#ARTISTTRANSLIT:RISH feat. CHOKO;
#GENRE:;
#ORIGIN:;
#CREDIT:;
#BANNER:;
#BACKGROUND:Take.png;
#PREVIEWVID:;
#JACKET:;
#CDIMAGE:;
#DISCIMAGE:;
#LYRICSPATH:;
#CDTITLE:;
#MUSIC:Take.mp3;
#OFFSET:-0.085000;
#SAMPLESTART:56.188999;
#SAMPLELENGTH:10.237000;
#SELECTABLE:YES;
#DISPLAYBPM:69.000000:732.000000;
#BPMS:0.000=600.000,
14.000=150.000,
26.000=600.000,
30.000=150.000,
46.000=219.000,
53.500=438.000,
118.000=45.000,
120.000=22.500,
120.500=30.000,
121.000=130.000,
130.000=260.000,
131.000=142.000,
139.000=284.000,
140.000=155.000,
148.000=310.000,
149.000=165.000,
153.000=175.000,
157.000=350.000,
158.000=366.000,
173.000=390.000,
188.000=400.000,
196.000=410.000,
203.000=430.000,
211.000=438.000,
219.000=195.000,
224.000=219.000,
225.500=438.000,
286.000=876.000,
287.500=438.000,
352.000=434.000,
354.000=307.500,
355.500=195.000,
356.500=183.000,
357.500=102.938,
358.250=68.625,
358.750=34.312,
359.000=68.625,
365.000=91.500,
373.000=114.375,
383.000=137.250,
395.000=549.000,
401.000=183.000,
402.000=640.500,
458.000=732.000,
522.000=1464.000,
562.000=732.000,
564.500=183.000,
574.500=28.750,
575.000=115.000,
576.000=160.000,
578.000=195.000,
580.000=220.000,
582.000=235.000,
584.000=255.000,
585.500=668.222,
588.000=550.000,
643.000=600.000,
651.000=630.000,
711.000=550.000,
712.500=400.000,
714.000=260.000,
715.000=370.000,
719.000=430.000,
723.000=460.000,
727.000=500.000,
731.000=540.000,
735.000=570.000,
739.000=600.000,
743.000=630.000,
747.000=2560.000,
875.000=5.000;
#STOPS:12.000=0.200,
53.500=0.068,
130.000=0.231,
139.000=0.211,
148.000=0.194,
157.000=0.171,
172.000=0.164,
187.000=0.154,
202.000=0.146,
219.000=0.308,
225.500=0.068,
286.000=0.102,
286.500=0.102,
287.000=0.102,
287.500=0.068,
398.000=0.055,
398.500=0.055,
399.000=0.055,
399.500=0.055,
400.000=0.055,
400.500=0.055,
562.000=0.123,
562.500=0.123,
563.000=0.123,
563.500=0.123,
564.000=0.123,
564.500=0.164,
574.500=0.130;
#DELAYS:;
#WARPS:;
#TIMESIGNATURES:0.000=4=4;
#TICKCOUNTS:0.000=4;
#COMBOS:0.000=1;
#SPEEDS:0.000=1.000=0.000=0;
#SCROLLS:0.000=1.000;
#FAKES:;
#LABELS:0.000=Song Start;
#BGCHANGES:;
#KEYSOUNDS:;
#ATTACKS:
;

//---------------dance-single - ----------------
#NOTEDATA:;
#CHARTNAME:;
#STEPSTYPE:dance-single;
#DESCRIPTION:;
#CHARTSTYLE:;
#DIFFICULTY:Challenge;
#METER:19;
#RADARVALUES:1.039116,3.337008,0.596328,0.852887,0.450713,1049.000000,963.000000,86.000000,123.000000,32.000000,0.000000,0.000000,0.000000,0.000000,1.039116,3.337008,0.596328,0.852887,0.450713,1049.000000,963.000000,86.000000,123.000000,32.000000,0.000000,0.000000,0.000000,0.000000;
#CREDIT:;
#DISPLAYBPM:69.000000:732.000000;
#NOTES:
// measure 0
0000
0000
0000
0000
,  // measure 1
0000
0000
0000
0000
,  // measure 2
2000
0000
0000
0000
,  // measure 3
3001
0000
0000
0000
0000
0000
0000
0000
1001
0000
0100
0001
0100
0000
0001
0000
,  // measure 4
0101
0000
0010
1000
0010
0000
1000
0000
1010
0000
0100
0001
0100
0000
0001
0000
,  // measure 5
0100
0000
0000
0000
0010
0000
0000
0000
0100
0000
0000
0000
0001
0000
0000
0000
1000
0000
0000
0000
0001
0000
0000
0000
1010
0000
0000
0000
0000
0000
0100
0000
0000
0001
0000
0000
0100
0000
0000
0000
0001
0000
0000
0000
1000
0000
0000
0000
,  // measure 6
0101
0000
0000
0000
0000
0000
0010
0000
0000
1000
0000
0000
0010
0000
0000
0000
1000
0000
0000
0000
0001
0000
0000
0000
1001
0000
0000
0000
0000
0000
0000
0000
0000
0000
0000
0000
MMMM
0000
0000
0000
0000
0000
0000
0000
0000
0000
0000
0000
,  // measure 7
MMMM
0000
0000
0000
0000
0000
0000
0000
0000
0000
0000
0000
MMMM
0000
0000
0000
0000
0000
0000
0000
0000
0000
0000
0000
0101
0000
0000
0000
0000
0000
1000
0000
0000
0001
0000
0000
0010
0000
0000
0000
0001
0000
0000
0000
0100
0000
0000
0000
,  // measure 8
1010
0000
0000
0000
0000
0000
1000
0000
0000
0001
0000
0000
0100
0000
0000
0000
0001
0000
0000
0000
0100
0000
0000
0000
0101
0000
0000
0000
0000
0000
0001
0000
0000
1000
0000
0000
0010
0000
0000
0000
1000
0000
0000
0000
0100
0000
0000
0000
,  // measure 9
1100
0000
0000
0000
0000
0000
1000
0000
0000
0001
0000
0000
0100
0000
0000
0000
0001
0000
0000
0000
0010
0000
0000
0000
0011
0000
0000
0000
0000
0000
1000
0000
0000
0100
0000
0000
0010
0000
0000
0000
0001
0000
0000
0000
0100
0000
0000
0000
,  // measure 10
1001
0000
0000
0000
0000
0000
0001
0000
0000
0100
0000
0000
0010
0000
0000
0000
0000
0000
1000
0000
0000
0000
0000
0000
0100
0000
0000
0000
0010
0000
0000
0000
0001
0000
0000
0000
0010
0000
0000
0000
0100
0000
0000
0000
1000
0000
0000
0000
,  // measure 11
0100
1000
0001
0100
0001
0010
0002
0000
0000
0000
0000
0000
,  // measure 12
0000
1003
1000
1000
1000
0100
0100
0010
,  // measure 13
0010
0000
0001
0000
0001
0000
2200
0000
0000
0000
0000
3300
0100
0000
0000
0000
,  // measure 14
1000
0100
1000
0100
,  // measure 15
1000
0100
1000
0100
,  // measure 16
1000
0100
1000
1000
,  // measure 17
1000
2200
3300
1000
,  // measure 18
0001
0010
0100
1000
,  // measure 19
0001
0000
0010
0000
1000
0100
1000
0000
,  // measure 20
0001
0010
0022
0033
,  // measure 21
0001
0022
0033
0010
,  // measure 22
0002
0013
0001
0010
,  // measure 23
0002
0013
0001
0010
,  // measure 24
0001
0010
1000
0001
,  // measure 25
0002
0000
0023
0000
0030
0000
0001
1000
,  // measure 26
0001
0001
0100
1000
,  // measure 27
0001
0000
0010
0000
0010
1000
0001
1000
,  // measure 28
0100
1000
1001
0000
,  // measure 29
0000
0000
1001
0110
,  // measure 30
MMMM
0000
0000
0000
1000
0100
0010
0001
0020
0000
0000
0130
1000
0000
0001
0000
,  // measure 31
0010
0100
1000
0001
0020
0130
1000
0001
,  // measure 32
0020
0000
0031
0000
0001
0010
0100
1000
MMMM
0000
0000
0000
2000
0000
0000
3100
,  // measure 33
0010
0000
0001
0000
1000
0000
0100
0000
0010
0000
0001
0000
2000
0000
0000
3100
,  // measure 34
0020
0000
0031
0000
2000
3200
1300
0000
0001
1000
0100
0010
MMMM
0000
0000
0000
,  // measure 35
2000
3001
0010
0100
1000
0001
0020
0130
,  // measure 36
2000
0000
3001
0000
0010
0000
0100
0000
1000
0000
1000
0000
0100
1000
0001
0010
,  // measure 37
MMMM
0000
0020
0031
1000
0100
0020
0031
,  // measure 38
1000
0100
0020
0031
1000
0100
0010
0010
,  // measure 39
0100
0010
0001
1000
MMMM
0000
0000
0000
0001
0000
0010
0000
0001
0000
0000
0000
,  // measure 40
0010
0100
0010
0000
0100
1000
0100
0000
,  // measure 41
1000
0000
0001
1000
0001
0100
0001
0000
,  // measure 42
1000
0010
1000
0100
1000
0001
0100
0010
,  // measure 43
2000
3000
0000
0000
0010
0000
0100
0000
0010
0000
0000
0000
0010
0000
1000
0000
,  // measure 44
0010
0000
0001
1000
0001
0010
0001
0000
,  // measure 45
1000
0100
0010
0001
1000
0000
0010
0000
,  // measure 46
1000
0000
0010
0000
1000
0000
0100
0000
1000
0000
0001
0000
2000
3000
0000
0000
,  // measure 47
0001
1000
0100
0000
0010
0100
0010
0000
,  // measure 48
0010
0001
0010
0000
0002
0000
1003
0000
,  // measure 49
1000
0100
1000
0010
0100
0000
0010
0100
,  // measure 50
0001
0000
0100
0000
0001
0000
0010
0000
0002
0003
0000
0000
1000
0000
0100
0000
,  // measure 51
1000
0000
0000
0001
0000
0000
1000
0000
0000
0100
0000
0000
1000
0000
0000
0100
0000
0000
0010
0000
0000
0000
0001
0000
,  // measure 52
0000
0010
0000
0100
0000
0010
0000
0001
0000
2000
0000
0000
,  // measure 53
3020
0000
2030
0000
3020
0000
2030
3020
,  // measure 54
0230
0302
2003
3020
0230
0302
1003
0000
,  // measure 55
0010
0000
0010
0010
1000
0100
0010
0001
,  // measure 56
2000
3100
0010
2002
3003
0000
0100
0000
,  // measure 57
1000
0100
1000
0100
,  // measure 58
1000
0100
1000
0100
,  // measure 59
1000
0100
1000
1000
,  // measure 60
1000
2200
3300
1000
,  // measure 61
0001
0010
0100
1000
,  // measure 62
0001
0000
0010
0000
1000
0100
1000
0000
,  // measure 63
0001
0010
0022
0033
,  // measure 64
1000
0022
0033
0010
,  // measure 65
0001
0010
0001
0001
,  // measure 66
0001
0001
0020
0031
,  // measure 67
0010
0001
1000
0001
,  // measure 68
0001
0000
0020
0000
0030
0000
0100
0010
,  // measure 69
0100
0100
1000
1000
,  // measure 70
1000
0000
1000
0000
0001
0010
0001
0010
,  // measure 71
0001
0000
0001
0000
0100
0100
0100
2200
,  // measure 72
0000
0000
0000
3300
0100
0000
0000
0000
1000
0000
0000
0000
0100
0000
0000
0000
,  // measure 73
1000
0100
1000
0100
,  // measure 74
1000
0100
1000
0100
,  // measure 75
1000
1000
1000
2200
,  // measure 76
3300
1000
0001
0010
,  // measure 77
0100
1000
0001
0010
,  // measure 78
1000
0100
1000
0000
0001
0000
0010
0000
,  // measure 79
0022
0033
1000
0022
,  // measure 80
0033
0010
0002
0013
,  // measure 81
0001
0002
1003
0001
,  // measure 82
0010
0001
0010
0001
,  // measure 83
0200
2300
3001
0020
,  // measure 84
0030
0000
1000
0100
1000
0000
1000
0000
,  // measure 85
0001
0001
0001
0001
,  // measure 86
0010
0100
0001
1000
0200
0000
1300
0000
,  // measure 87
0110
0000
0000
0000
0001
0010
0100
1000
,  // measure 88
0100
0000
0000
0000
0100
0000
0000
0000
0100
0000
0000
0100
0000
0000
0100
0000
,  // measure 89
0100
0000
0100
0000
0100
0000
0110
0000
0000
0110
0000
0110
1100
0100
0010
2001
,  // measure 90
3020
0130
2010
3100
0010
0011
0010
0100
1002
0103
0010
0011
0010
0100
1001
0100
,  // measure 91
0010
1010
0010
0100
1010
0100
0010
0001
1001
0010
0100
0001
1001
0100
0010
0001
,  // measure 92
0011
0010
0100
1000
1010
0020
0130
0001
1001
0100
0010
0001
1001
0010
0100
0001
,  // measure 93
0101
0100
0010
1000
1100
0100
0010
0001
0010
0101
0100
0010
1000
0010
1010
0100
,  // measure 94
0010
0001
0010
0011
0010
0100
1000
0100
1100
0100
0010
0001
0010
0101
0100
0010
,  // measure 95
1000
0010
1010
0100
0010
0002
0023
0032
0013
0100
1000
0100
1100
0100
0010
0001
,  // measure 96
0010
0001
1001
0010
0100
0001
0010
0001
1001
0100
0010
0001
0010
0001
0011
0010
,  // measure 97
0100
1000
0100
1000
1100
0100
0010
0001
0010
0001
1001
0010
0100
0001
0010
0001
,  // measure 98
1001
1000
0100
0010
0001
0010
0011
0010
0100
1000
0100
1000
2002
0000
0000
0000
,  // measure 99
0000
0000
3003
0000
0100
0100
0100
0100
,  // measure 100
0100
0100
0100
0000
1000
0000
2000
0000
,  // measure 101
3010
1000
0001
0100
,  // measure 102
0001
1000
0010
2000
,  // measure 103
3010
1000
0001
0100
,  // measure 104
1000
0010
1000
1000
,  // measure 105
0001
0100
1000
0010
,  // measure 106
2000
3010
1000
0001
,  // measure 107
0100
0010
1000
0010
,  // measure 108
2000
3010
1000
0001
,  // measure 109
0100
1000
0010
1000
,  // measure 110
0020
1030
0001
0100
,  // measure 111
1000
0000
0010
0000
1000
0001
1000
0000
,  // measure 112
0001
1000
0100
1000
,  // measure 113
0010
0000
1000
0001
1000
0000
0001
0000
,  // measure 114
1000
0100
0010
1000
,  // measure 115
0010
1000
0001
0100
,  // measure 116
0001
0100
1000
0100
,  // measure 117
1000
0010
1000
0001
,  // measure 118
0100
0001
1000
0001
,  // measure 119
1000
0001
1000
0001
,  // measure 120
0100
0001
1000
0000
,  // measure 121
1000
0001
1000
0001
1000
0000
0001
0000
,  // measure 122
1000
0000
0100
0000
1000
0001
1000
0001
,  // measure 123
1000
0001
1000
0100
,  // measure 124
0002
0003
1000
0001
,  // measure 125
1000
0001
2000
3002
,  // measure 126
0103
0000
0100
0000
0001
1000
0001
1000
,  // measure 127
0001
0000
1000
0000
1000
0001
0100
0001
,  // measure 128
0100
0001
2000
3200
,  // measure 129
2300
0000
3200
0000
1300
0100
0010
0001
,  // measure 130
1000
0100
0010
0001
2000
0000
0000
0000
,  // measure 131
0000
0000
0000
0000
,  // measure 132
0000
0000
0000
0000
,  // measure 133
0000
0000
3001
0000
,  // measure 134
0000
0000
0020
0000
,  // measure 135
0000
0000
0000
0000
,  // measure 136
0000
0000
0032
0000
,  // measure 137
0000
0000
0000
0000
,  // measure 138
0000
0000
2003
0000
,  // measure 139
0000
0000
0000
0000
,  // measure 140
0000
0000
0000
0000
3001
0001
1001
1001
,  // measure 141
1001
0000
0000
0000
0000
0000
0000
0000
0000
0000
0000
0000
0000
0000
0000
0000
0000
0000
0000
0000
0000
0000
0000
0000
0002
0003
0000
0000
0000
0000
0000
0000
0000
0000
0000
0000
0000
0000
0000
0000
0000
0000
0000
0000
0000
0000
0000
0000
0100
0000
0000
0000
0000
0000
0000
0000
0000
0000
0000
0000
0000
0000
0000
0000
0000
0000
0000
0000
0000
0000
0000
0000
1000
0000
0000
0000
0000
0000
0000
0000
0000
0000
0000
0000
0000
0000
0000
0000
0000
0000
0000
0000
0000
0000
0000
0000
0100
0000
0000
0000
0000
0000
0000
0000
0000
0000
0000
0000
0000
0000
0000
0000
0000
0000
0000
0000
0000
0000
0000
0000
1000
0000
0000
0000
0000
0000
0000
0000
0000
0000
0000
0000
0000
0000
0000
0000
0000
0000
0000
0000
0000
0000
0000
0000
0100
0000
0000
0000
0000
0000
0000
0000
0000
0000
0000
0000
0000
0000
0000
0000
0000
0000
0000
0000
0000
0000
0000
0000
1000
0000
0000
0000
0000
0000
0000
0000
0000
0000
0000
0000
0000
0000
0000
0000
0000
0000
0000
0000
0000
0000
0000
0000
,  // measure 142
0100
1000
0100
1000
0100
0220
0330
1000
,  // measure 143
2002
3003
1000
0100
0010
1001
1000
0000
,  // measure 144
1000
1000
1000
1000
,  // measure 145
1000
0000
1000
0000
1000
0000
1000
1000
,  // measure 146
1000
0000
0000
1000
0000
0000
1000
0000
0000
2002
0000
0000
0000
0000
0000
0000
0000
3003
0000
0000
0000
0000
0000
0000
,  // measure 147
0100
1000
0100
1000
,  // measure 148
0100
1000
0100
1000
,  // measure 149
0100
1000
0100
1000
,  // measure 150
1000
1000
2002
3003
,  // measure 151
1000
0001
0010
0100
,  // measure 152
1000
0000
0001
0000
0010
0000
1000
0100
,  // measure 153
1000
0001
0010
0020
,  // measure 154
0030
0001
2002
3003
,  // measure 155
0010
0001
0010
0001
,  // measure 156
0010
0001
0001
0020
,  // measure 157
0031
0010
0001
0100
,  // measure 158
1000
0001
0020
0030
,  // measure 159
0001
0001
0001
0100
,  // measure 160
1000
1000
1000
0001
,  // measure 161
0001
0001
0001
1000
,  // measure 162
1000
1000
2002
3003
,  // measure 163
0100
1000
0100
1000
,  // measure 164
0100
1000
0100
1000
,  // measure 165
0100
1000
0100
1000
,  // measure 166
1000
1000
2002
3003
,  // measure 167
1000
0001
1000
0000
0010
0000
0100
0000
,  // measure 168
0001
1000
0001
0000
0010
0000
0100
0000
,  // measure 169
1000
0001
1000
0000
0010
0000
0020
0000
,  // measure 170
0030
0001
2002
3003
,  // measure 171
0020
0032
0023
0031
,  // measure 172
0001
0001
0001
0010
,  // measure 173
0001
0010
0001
0000
0010
0000
0100
0010
,  // measure 174
1000
0001
1000
0000
0020
0000
0030
0000
,  // measure 175
1000
0001
1000
0000
1000
0000
0001
1000
,  // measure 176
0001
1000
0001
1000
0001
1000
0001
0000
,  // measure 177
1000
0200
1300
0011
,  // measure 178
0000
1000
0000
0000
0100
0000
1001
0000
,  // measure 179
0000
0100
0000
0000
1000
0000
1010
0000
,  // measure 180
0000
1000
0000
0000
0010
0000
0101
0000
,  // measure 181
0000
1000
0000
0000
0100
0000
1010
0000
,  // measure 182
0000
0010
0000
0000
0001
0000
0110
0000
,  // measure 183
0000
0100
0000
0000
1000
0000
0110
0000
,  // measure 184
0000
0010
0000
0000
1000
0000
0101
0000
,  // measure 185
0000
1000
0000
0000
0100
0000
0110
0000
,  // measure 186
0000
0001
0000
0000
0100
0000
0220
0000
,  // measure 187
0000
0000
0000
0000
,  // measure 188
0000
0000
0000
0000
,  // measure 189
0000
0000
0000
0000
,  // measure 190
0000
0000
0000
0000
,  // measure 191
0000
0000
0000
0000
,  // measure 192
0000
0000
0000
0000
,  // measure 193
0000
0000
0000
0000
,  // measure 194
0000
0000
0000
0000
,  // measure 195
0000
0000
0000
0000
,  // measure 196
0000
0000
0000
0000
,  // measure 197
0000
0000
0000
0000
,  // measure 198
0000
0000
0000
0000
,  // measure 199
0000
0000
0000
0000
,  // measure 200
0000
0000
0000
0000
,  // measure 201
0000
0000
0000
0000
,  // measure 202
0000
0000
0000
0000
,  // measure 203
0000
0000
0000
0000
,  // measure 204
0000
0000
0000
0000
,  // measure 205
0000
0000
0000
0000
,  // measure 206
0000
0000
0000
0000
,  // measure 207
0000
0000
0000
0000
,  // measure 208
0000
0000
0000
0000
,  // measure 209
0000
0000
0000
0000
,  // measure 210
0000
0000
0000
0000
,  // measure 211
0000
0000
0000
0000
,  // measure 212
0000
0000
0000
0000
,  // measure 213
0000
0000
0000
0000
,  // measure 214
0000
0000
0000
0000
,  // measure 215
0000
0000
0000
0000
,  // measure 216
0000
0000
0000
0000
,  // measure 217
0000
0000
0000
0000
,  // measure 218
0000
0000
0330
1001
;
