#TITLE:Seven 8 Nine;
#SUBTITLE:;
#ARTIST:Karl w/ a K;
#TITLETRANSLIT:;
#SUBTITLETRANSLIT:;
#ARTISTTRANSLIT:;
#GENRE:;
#CREDIT:;
#BANNER:;
#BACKGROUND:;
#LYRICSPATH:;
#CDTITLE:;
#MUSIC:Seven 8 Nine FINAL MIX.mp3;
#OFFSET:0.000000;
#SAMPLESTART:23.836823;
#SAMPLELENGTH:12.000000;
#SELECTABLE:YES;
#BPMS:0.000000=251.999985
,4.000000=220.500000
,7.500000=251.999985
,11.500000=283.500000
,16.000000=251.999985
,20.000000=220.500000
,23.500000=251.999985
,27.500000=283.500000
,32.000000=251.999985
,36.000000=220.500000
,39.500000=251.999985
,43.500000=283.500000
,48.000000=251.999985
,52.000000=220.500000
,55.500000=251.999985
,59.500000=283.500000
,64.000000=220.500000
,66.000000=248.062988
,67.750000=283.000000
,69.250000=220.500000
,69.750000=257.250000
,71.500000=251.999985
,81.000000=503.999969
,102.000000=441.001007
,110.000000=503.999969
,118.000000=567.000977
,122.000000=496.125977
,125.500000=504.001007
,133.500000=441.001007
,141.500000=504.001007
,149.500000=567.000977
,153.500000=496.125977
,157.000000=504.001007
,165.000000=441.001007
,173.000000=504.001007
,181.000000=567.000977
,189.000000=504.001007
,197.000000=441.001007
,205.000000=504.001007
,213.000000=567.000977
,285.000000=251.999985
,292.000000=220.501007
,294.000000=251.999985
,310.000000=283.500000
,312.000000=251.999985
,328.000000=220.501007
,330.000000=251.999985
,346.000000=283.500000
,348.000000=251.999985
,357.000000=55.125000
,358.000000=62.999996
,359.000000=55.125000
,360.000000=49.000000
,361.000000=55.125000
,362.000000=48.235001
,362.875000=55.125000
,363.875000=62.015999
,365.000000=110.250000
,379.000000=55.125000
,380.000000=251.999985
,384.000000=220.501007
,387.500000=251.999985
,391.500000=283.500000
,396.000000=220.501007
,398.000000=248.062988
,399.750000=283.500000
,401.250000=220.501007
,401.750000=257.251007
,403.500000=251.999985
,416.500000=378.000000
,421.000000=283.500000
,425.000000=567.000000
,428.000000=283.500000
,432.000000=567.000000
,435.000000=283.500000
,439.000000=567.000000
,442.000000=283.500000
,446.000000=567.000000
,449.000000=251.999985
,457.000000=283.500000
,460.500000=567.000977
,467.500000=504.001007
,468.500000=251.999985
,476.000000=504.001007
,484.000000=441.001007
,492.000000=504.001007
,500.000000=567.000977
,508.000000=504.001007
,516.000000=441.001007
,524.000000=504.001007
,532.000000=567.000977
,540.000000=441.001007
,568.000000=567.000977
,590.000000=141.750000
,592.000000=504.001007
,656.000000=567.000977
,684.000000=850.500977
,738.000000=220.501007
,738.500000=110.250000
,739.000000=220.501007
,739.500000=110.250000
,740.000000=220.501007
,740.500000=110.250000
,741.000000=220.501007
,745.000000=110.250000
,745.500000=220.501007
,746.000000=110.250000
,746.500000=220.501007
,747.000000=110.250000
,747.500000=220.501007
,751.000000=165.376007
,754.000000=220.501007
,757.000000=165.376007
,760.000000=220.501007
,763.000000=110.250000
,764.000000=1134.000977
,828.000000=567.000977
;
#STOPS:425.000000=0.106000,
426.000000=0.106000,
427.000000=0.106000,
432.000000=0.106000,
433.000000=0.106000,
434.000000=0.106000,
439.000000=0.106000,
440.000000=0.106000,
441.000000=0.106000,
446.000000=0.106000,
447.000000=0.106000,
448.000000=0.106000,
548.000000=0.272000,
558.000000=0.272000,
568.000000=0.212000
;
#BGCHANGES:;
#KEYSOUNDS:;
#ATTACKS:;

//---------------dance-single - ----------------
#NOTES:
     dance-single:
     :
     Challenge:
     20:
     1.491120,4.823208,0.336478,0.504718,0.722027,1489.000000,1441.000000,48.000000,72.000000,132.000000,0.000000,1.491120,4.823208,0.336478,0.504718,0.722027,1489.000000,1441.000000,48.000000,72.000000,132.000000,0.000000:
// measure 0
0000
0000
0000
0000
,  // measure 1
0000
0000
0000
0000
,  // measure 2
0000
0000
0000
0000
,  // measure 3
0000
0000
0000
0000
,  // measure 4
1000
1000
1000
1000
,  // measure 5
1000
0010
1000
0010
1000
0010
1000
0001
,  // measure 6
0000
0001
0000
0001
0000
0001
0000
0001
,  // measure 7
0100
0001
0100
0001
0100
0001
0100
0001
,  // measure 8
0100
1000
0100
1000
0100
1000
0100
1000
,  // measure 9
0100
1000
0100
1000
0010
1000
0001
0010
,  // measure 10
0001
0010
0001
0010
0001
0010
0001
0010
,  // measure 11
0001
0010
0100
0010
0001
1000
0001
0010
,  // measure 12
1000
0010
1000
0010
1000
0010
1000
0010
,  // measure 13
1000
0010
1000
0010
0001
0010
0100
0001
,  // measure 14
0100
0001
0100
0001
0100
0001
0100
0001
,  // measure 15
0100
0001
1000
0001
0100
0010
0100
0001
,  // measure 16
0100
0000
1000
0000
0100
0000
0001
0000
0100
0001
0100
0010
1000
0010
1000
0010
,  // measure 17
0000
0100
0000
1000
0000
0100
0000
0100
0010
0100
1000
0100
1000
0100
1000
0000
,  // measure 18
0010
0001
0010
1000
0010
0001
0100
1000
,  // measure 19
0100
0001
0100
1000
0010
0001
0010
1000
,  // measure 20
0100
2002
0000
0000
0000
0000
0000
0000
,  // measure 21
0000
0000
0000
3003
,  // measure 22
1000
0000
0001
0000
1000
0000
0001
0000
1000
0000
0001
0000
,  // measure 23
1001
0000
2002
3000
,  // measure 24
1003
1000
1000
1000
,  // measure 25
1000
0000
1000
0000
0100
0010
0001
0010
,  // measure 26
0100
0000
1000
0010
0100
0010
0001
0000
,  // measure 27
0100
0010
1000
0001
2000
0000
0000
0000
,  // measure 28
3001
0001
0001
0001
,  // measure 29
0001
0000
0001
0000
0010
0100
0010
0100
,  // measure 30
0010
0000
1000
0001
1000
0100
0010
0001
,  // measure 31
1000
0100
0010
0002
0000
0000
0000
0013
,  // measure 32
0000
0010
0000
0010
0000
0010
0000
0010
,  // measure 33
0000
0010
0000
0100
0001
1000
0001
0100
,  // measure 34
0000
0001
0010
0100
0010
1000
0000
0100
,  // measure 35
0001
1000
0001
2000
0000
0000
0000
3010
,  // measure 36
0000
0010
0000
0010
0000
0010
0000
0010
,  // measure 37
0000
0010
0000
0001
1000
0001
1000
0001
,  // measure 38
0000
0100
0010
1000
0010
0100
0001
1000
,  // measure 39
0010
0100
0002
0000
2003
0000
3100
0000
,  // measure 40
0100
0100
0100
0100
,  // measure 41
1000
0000
0010
1000
0010
1000
0010
0000
,  // measure 42
0010
1000
0001
1000
0001
0000
0001
0100
,  // measure 43
0001
0100
2000
0000
3002
0000
0103
0000
,  // measure 44
0100
0100
0100
0100
,  // measure 45
1000
0000
0100
1000
0100
1000
0100
0000
,  // measure 46
0010
0001
0010
0001
0010
0000
0010
0000
,  // measure 47
0001
2000
3002
0103
,  // measure 48
0100
0100
0100
0100
,  // measure 49
1000
0000
0010
0001
0010
0001
0010
0000
,  // measure 50
0010
1000
0001
1000
0001
0000
0001
1000
,  // measure 51
0001
1000
0002
0000
2003
0000
3100
0000
,  // measure 52
0100
0100
0100
0100
,  // measure 53
1000
0000
0100
0001
0100
0001
0100
0000
,  // measure 54
0010
1000
0010
1000
0010
0000
0010
0000
,  // measure 55
0001
0000
0200
0301
0100
0000
0001
0000
,  // measure 56
0002
1003
0001
0000
1000
0000
2000
3010
,  // measure 57
1000
0000
0010
0000
0002
0103
0001
0000
,  // measure 58
0100
0000
2000
3100
1000
0000
0100
0000
,  // measure 59
0002
0103
0001
0000
0100
0000
2000
3100
,  // measure 60
1000
0000
0100
0000
0002
1003
0001
0000
,  // measure 61
1000
0000
2000
3010
1000
0000
0010
0000
,  // measure 62
0002
0103
0001
0000
0100
0000
2000
3001
,  // measure 63
1000
0000
0001
0000
0002
0103
0001
0000
,  // measure 64
0100
0000
2000
3100
1000
0000
0100
0000
,  // measure 65
0020
0031
0010
0000
0001
0000
0200
0310
,  // measure 66
0100
0000
0010
0000
0020
0130
0010
0000
,  // measure 67
0010
0000
0200
1300
0100
1000
0100
1000
,  // measure 68
0200
0310
0100
0010
0100
0010
2000
3001
,  // measure 69
1000
0001
1000
0001
2000
3100
1000
0100
,  // measure 70
1000
0100
0020
0031
0010
0001
0010
0001
,  // measure 71
1000
0000
0001
0000
1000
0001
1000
0000
MMMM
0000
0001
1000
0001
0000
0100
0000
,  // measure 72
0100
0000
0100
0000
0100
0010
0100
0000
MMMM
0000
0010
0100
0010
0000
1000
0000
,  // measure 73
1000
0000
1000
0000
1000
0000
MMMM
0000
0001
1000
0001
0000
MMMM
0000
1000
0001
,  // measure 74
2000
0000
0000
0000
3010
0100
0010
0000
MMMM
0000
0100
0010
0200
0000
0000
0000
,  // measure 75
0301
1000
0001
0000
MMMM
0000
2002
0000
0000
0000
3003
0000
1000
0001
1000
0000
,  // measure 76
MMMM
0000
0001
1000
0001
0000
0010
0000
0010
0000
0010
0000
0010
0100
0010
0000
,  // measure 77
MMMM
0000
0100
0010
0100
0000
0001
0000
0001
0000
0001
0000
0001
0000
MMMM
0000
,  // measure 78
0001
1000
0001
0000
MMMM
0000
1000
0001
2000
0000
0000
0000
3010
0100
0010
0000
,  // measure 79
MMMM
0000
0100
0010
0200
0000
0000
0000
0301
1000
0001
0000
MMMM
0000
2002
0000
,  // measure 80
0000
0000
3003
0000
0010
1000
0010
0000
MMMM
0000
0100
0001
0100
0000
1000
0000
,  // measure 81
1000
0000
1000
0000
0010
0001
0010
0000
MMMM
0000
0100
1000
0100
0000
0001
0000
,  // measure 82
0001
0000
0001
0000
0001
0000
MMMM
0000
0010
1000
0010
0000
MMMM
0000
0100
0001
,  // measure 83
0200
0000
0000
0000
0310
1000
0010
0000
MMMM
0000
0100
0001
0200
0000
0000
0000
,  // measure 84
0301
0100
0001
0000
MMMM
0000
2020
0000
0000
0000
3030
0000
0100
1000
0100
0000
,  // measure 85
MMMM
0000
0010
0001
0010
0000
0100
0000
0100
0000
0100
0000
0010
1000
0010
0000
,  // measure 86
MMMM
0000
0100
0001
0100
0000
0010
0000
0010
0000
0010
0000
0010
0000
MMMM
0000
,  // measure 87
0100
1000
0100
0000
MMMM
0000
0010
0001
0020
0000
0000
0000
0130
0001
0100
0000
,  // measure 88
MMMM
0000
0010
1000
0020
0000
0000
0000
1030
0001
1000
0000
MMMM
0000
2002
0000
,  // measure 89
0000
0000
0000
0000
3003
0000
0000
0000
1000
0010
1000
0100
0010
0001
1000
0010
0100
0010
0001
1000
0100
0010
0100
1000
0010
1000
0001
0100
0001
1000
0100
0010
,  // measure 90
1000
0010
0001
1000
0010
0100
1000
0010
1000
0100
0001
0100
0010
1000
0010
1000
0100
0001
0100
1000
0010
0001
0100
1000
0100
1000
0010
0001
0100
1000
0100
1000
,  // measure 91
0010
1000
0100
0001
1000
0100
0010
0001
1001
0000
0000
0000
1000
0000
0000
0000
0100
0000
0000
0000
1000
0000
0010
0000
0100
0000
1000
0000
0100
0000
0010
0000
,  // measure 92
0100
0000
0010
1000
0001
0000
1000
0000
0100
0000
1000
0010
1000
0001
1000
0100
,  // measure 93
1000
0000
0001
0100
0001
0000
1000
0000
1000
0000
1000
0001
0100
0010
1000
0100
,  // measure 94
1000
0000
0000
0000
1000
0000
0100
0000
0010
0000
0000
0000
0010
0000
0000
0000
1000
0000
0000
0000
1000
0000
0010
0000
0001
0100
1000
0010
0100
0000
0001
1000
,  // measure 95
0001
0100
0001
0100
0001
0100
0001
0100
,  // measure 96
0001
0100
0001
0100
0010
0100
1000
0010
,  // measure 97
1000
0010
1000
0010
1000
0010
1000
0010
,  // measure 98
1000
0010
0001
0010
1000
0100
1000
0010
,  // measure 99
1000
0000
0100
0000
0001
0000
0100
0000
0001
1000
0001
1000
0001
1000
0001
1000
,  // measure 100
0000
0100
0000
1000
0000
0001
0000
0100
0010
0100
0010
0100
0010
0100
0001
0000
,  // measure 101
1000
0001
1000
0001
1000
0001
1000
0100
,  // measure 102
1000
0100
1000
0001
0010
0001
0010
0100
,  // measure 103
1000
1100
0000
0110
0000
0101
0000
0011
,  // measure 104
0000
0100
1000
0100
1000
0100
1000
0100
,  // measure 105
1000
0000
0000
0100
0000
0000
1000
0000
0000
0100
0000
0000
1000
0000
0010
0100
0000
0000
0001
0000
0000
0100
0010
0000
,  // measure 106
1000
0100
0110
0000
1001
0000
1010
0000
,  // measure 107
0100
0000
0000
0001
0000
0000
0100
0000
0010
1000
0000
0000
0001
0000
0000
1000
0010
0000
0100
0000
0000
0001
0000
0000
,  // measure 108
1010
0000
0110
0000
0101
0000
0001
1000
,  // measure 109
0001
0000
0010
0001
0000
0000
0100
0000
0000
0001
0010
0000
0001
0000
0000
1000
0000
0000
0110
0000
0000
0000
0000
0000
,  // measure 110
1100
0000
0000
0000
0000
0000
0110
0000
0000
0000
0000
0000
0100
0000
0000
1000
0000
0000
0100
0000
1000
0001
0000
0000
,  // measure 111
0010
0000
0000
0100
0010
0000
0001
0000
0000
0100
0000
0000
0101
0000
0000
0000
0000
0000
1100
0000
0000
0000
0000
0000
,  // measure 112
1010
1001
0101
1010
,  // measure 113
0011
0000
1000
0010
1000
0010
0100
0010
,  // measure 114
0100
0010
0100
0001
0100
0001
0010
0001
,  // measure 115
0010
0001
1000
0001
1000
0001
1000
0001
,  // measure 116
1000
0001
1000
0001
1000
0001
1000
2002
,  // measure 117
0000
0000
0000
0000
0000
0000
3003
MMMM
,  // measure 118
1001
1001
1001
1001
,  // measure 119
0002
2003
3100
0100
,  // measure 120
0100
0100
0100
1000
,  // measure 121
0001
1000
0001
1000
0100
0000
1000
0001
,  // measure 122
1000
0001
0100
0000
0010
0100
0010
0100
,  // measure 123
2000
3002
0013
0010
,  // measure 124
0010
0010
0010
0100
,  // measure 125
1000
0010
1000
0010
1000
0000
1000
0100
,  // measure 126
1000
0100
1000
0000
0001
0000
0001
0000
,  // measure 127
2000
3002
0013
0010
,  // measure 128
0010
0010
0010
0010
,  // measure 129
0100
1000
0100
1000
0010
0000
0010
1000
,  // measure 130
0010
1000
0010
0000
0100
1000
0001
1000
,  // measure 131
0002
2003
3010
0010
,  // measure 132
0010
0010
0010
1000
,  // measure 133
1000
0010
1000
0010
1000
0000
1000
0001
,  // measure 134
1000
0001
1000
0000
0001
1000
0001
0000
,  // measure 135
0100
0100
1000
1000
,  // measure 136
0001
0001
0010
0010
,  // measure 137
0220
0330
0100
0100
,  // measure 138
1000
1000
0100
0100
,  // measure 139
0010
0010
2002
3003
,  // measure 140
0100
0100
1000
1000
,  // measure 141
0010
0010
0001
0001
,  // measure 142
0220
0000
0330
0000
0001
0010
0001
0010
,  // measure 143
1000
0010
1000
0010
0001
0010
0001
0010
,  // measure 144
0100
1000
0100
1000
0010
0100
0010
0100
,  // measure 145
0001
0100
0001
0100
0010
1000
0010
1000
,  // measure 146
0001
0100
0010
0100
2002
0000
0000
0000
,  // measure 147
0000
0000
3003
0000
1100
0101
1001
0011
,  // measure 148
0100
0010
0100
0010
0100
0010
0100
0010
,  // measure 149
0100
0010
0100
0010
0100
0010
0100
0010
,  // measure 150
0100
0010
0100
0010
0100
0010
0100
0010
,  // measure 151
0100
0010
0100
0010
0100
0010
0100
0010
,  // measure 152
0100
0010
0100
0010
0100
0010
0100
0010
,  // measure 153
0100
0010
0100
0010
0100
0010
0100
0010
,  // measure 154
0100
0010
0100
0010
0100
0010
0100
0010
,  // measure 155
0100
0010
0100
0010
0100
0010
0100
0010
,  // measure 156
0100
0010
0100
0010
0100
0010
0100
0010
,  // measure 157
0100
0010
0100
0010
0100
0010
0100
0010
,  // measure 158
0100
0010
0100
0010
0100
0010
0100
0010
,  // measure 159
0100
0010
0100
0010
0100
0010
0100
0010
,  // measure 160
0100
0010
0100
0010
0100
0010
0100
0010
,  // measure 161
0100
0010
0100
0010
0100
0010
0100
0010
,  // measure 162
0100
0010
0100
0010
0100
0010
0100
0010
,  // measure 163
0100
0010
0100
0010
0100
0010
0100
0010
,  // measure 164
0100
0000
0001
0000
0100
0000
0001
0000
0000
0100
0000
0000
0001
0000
0000
0100
0000
0000
0010
0000
0100
0000
0010
0000
,  // measure 165
0100
0000
0000
0010
0000
0000
0100
0000
0000
0010
0000
0000
0100
0000
1000
0000
0100
0000
1000
0000
0000
0100
0000
0000
,  // measure 166
1000
0000
0000
0100
0000
0000
0010
0000
0100
0000
0010
0000
0100
0000
0000
0010
0000
0000
0100
0000
0000
0010
0000
0000
,  // measure 167
1000
0000
0100
0000
1000
0000
0100
0000
0000
1000
0000
0000
0100
0000
0000
1000
0000
0000
0001
0000
1000
0000
0001
0000
,  // measure 168
1000
0000
0000
0001
0000
0000
1000
0000
0000
0001
0000
0000
0100
0000
0010
0000
0100
0000
0010
0000
0000
0100
0000
0000
,  // measure 169
0010
0000
0000
0100
0000
0000
0100
0000
0001
0000
0100
0000
0001
0000
0000
0100
0000
0000
0001
0000
0000
0100
0000
0000
,  // measure 170
0010
0000
1000
0000
0010
0000
1000
0000
0000
0010
0000
0000
1000
0000
0000
0010
0000
0000
1000
0000
0001
0000
1000
0000
,  // measure 171
0001
1000
0001
1000
0001
1000
0001
1000
,  // measure 172
0001
1000
0001
1000
0001
1000
0001
1000
,  // measure 173
0001
1000
0001
1000
0001
1000
0001
1000
,  // measure 174
0001
1000
0001
1000
0001
1000
0001
1000
,  // measure 175
0001
1000
0001
1000
0001
1000
0001
1000
,  // measure 176
0001
1000
0001
1000
0001
1000
0001
1000
,  // measure 177
0001
1000
0001
1000
0001
1000
0001
1000
,  // measure 178
0001
1000
0001
1000
0001
1000
0001
1000
,  // measure 179
0001
1000
0001
1000
0001
1000
0001
1000
,  // measure 180
0001
1000
0001
1000
0001
1000
0001
1000
,  // measure 181
0001
1000
0001
1000
0001
1000
0001
1000
,  // measure 182
0001
1000
0001
1000
0001
1000
0001
1000
,  // measure 183
0001
1000
0001
1000
0001
1000
0001
1000
,  // measure 184
0001
0000
1000
0000
0001
0000
1000
0000
0001
0000
1000
MMMM
1000
0000
0001
MMMM
,  // measure 185
0001
0000
1000
MMMM
0001
0000
0010
0000
0100
0000
1000
0000
0001
0000
0100
0000
,  // measure 186
0001
0000
0010
0000
0100
MMMM
0100
0000
0010
MMMM
0010
0000
0100
MMMM
0100
0000
,  // measure 187
0010
0000
0000
0001
0000
0000
0010
0000
0000
0100
0000
0000
1000
0000
0000
0010
0000
0000
0100
0000
1000
0000
0100
0000
,  // measure 188
1000
0100
1000
0100
1000
0100
0011
0000
0000
1001
0000
0000
,  // measure 189
0110
0000
0000
0001
0010
0001
0010
0001
0010
0001
0010
0001
,  // measure 190
1010
1100
0101
MMMM
,  // measure 191
0010
0100
0010
0100
0010
0100
0010
0100
,  // measure 192
0010
0000
0100
0000
0010
0000
0100
0000
0010
0000
0100
0000
,  // measure 193
0001
1000
0001
1000
0001
1000
0001
1000
,  // measure 194
0001
0000
1000
0000
0001
0000
1000
0000
0001
0000
1000
0000
,  // measure 195
0100
0010
0100
0010
0100
0010
0100
0010
,  // measure 196
0100
0000
0010
0000
0100
0000
0010
0000
0100
0000
0010
0000
,  // measure 197
1000
0001
1000
0001
1000
0001
1000
0001
,  // measure 198
1000
0000
0001
0000
1000
0000
0001
0000
1000
0000
0001
0000
,  // measure 199
0010
0001
0010
0001
0010
0001
0010
0001
,  // measure 200
0010
0000
0001
0000
0010
0000
0001
0000
0010
0000
0001
0000
,  // measure 201
0010
1000
0010
1000
0010
1000
0010
1000
,  // measure 202
0010
0000
1000
0000
0010
0000
1000
0000
0010
0000
1000
0000
,  // measure 203
0001
1000
0001
1000
0001
1000
0001
1000
,  // measure 204
0001
0000
1000
0000
0001
0000
1000
0000
0001
0000
1000
0000
,  // measure 205
0100
0010
0100
0010
0100
0010
0100
0010
,  // measure 206
0100
0000
0010
0000
0100
0000
0010
0000
0100
0000
0010
0000
,  // measure 207
2002
0000
0000
0000
,  // measure 208
0000
3003
MMMM
0000
;

//---------------dance-single - ----------------
#NOTES:
     dance-single:
     :
     Hard:
     19:
     1.043484,2.262730,0.385548,0.427608,0.371528,1042.000000,987.000000,55.000000,61.000000,0.000000,0.000000,1.043484,2.262730,0.385548,0.427608,0.371528,1042.000000,987.000000,55.000000,61.000000,0.000000,0.000000:
0000
0000
0000
0000
,
0000
0000
0000
0000
,
0000
0000
0000
0000
,
0000
0000
0000
0000
,
0200
0000
0301
0100
,
0001
0100
0001
0100
0001
0100
0001
0020
,
0000
0000
0000
1030
0000
0010
0000
1000
,
0010
1000
0010
1000
0010
1000
0010
1000
,
0002
0000
0013
0001
,
0010
0001
0010
0001
0100
0001
1000
0020
,
0000
0000
0000
0130
0000
1000
0000
0100
,
1000
0100
0010
0100
1000
0001
1000
0100
,
1000
0100
0001
0100
,
0001
0100
0001
0100
1000
0100
0010
1000
,
0000
0010
0000
1000
0000
0010
0000
1000
,
0010
1000
0001
1000
0010
0100
0010
1000
,
0010
0000
0001
0000
0010
0000
1000
0000
0020
0000
0000
0230
0000
0000
0302
0100
,
0003
0010
0000
0001
0000
0010
0000
0020
0000
0000
0230
0000
0302
0000
0013
0000
,
0100
1000
0000
0001
0100
1000
0000
0001
,
0010
1000
0000
0001
0100
1000
0000
0001
,
0010
2002
0000
0000
0000
0000
0000
0000
,
0000
0000
0000
3003
,
0001
0000
1000
0000
0001
0000
1000
0000
0001
0000
1000
0000
,
0001
0000
2002
0003
,
3001
1000
0001
1000
,
0001
0000
1000
0000
0010
0100
1000
0000
,
0000
0000
0001
0100
0010
0000
0000
0000
,
0010
0100
0001
1000
0002
0000
0000
0000
,
1003
0001
1000
0001
,
1000
0000
0001
0000
0100
0010
0100
0000
,
0000
0000
1000
0001
2000
0000
0000
0000
,
3002
0000
0000
2003
0000
0000
0000
3100
,
0000
0010
0000
0100
0000
0010
0000
0100
,
0000
0010
0000
0100
1000
0001
0000
0000
,
0000
1000
0100
0010
0000
0000
0000
0010
,
1000
0001
1000
0002
0000
0000
0000
0103
,
0000
0010
0000
0100
0000
0010
0000
0100
,
0000
0010
0000
1000
0001
1000
0000
0000
,
0000
0010
0100
0002
0000
0000
0000
2003
,
0000
3002
0000
0013
,
0100
0010
0100
0010
,
0100
0000
0010
0001
0010
0000
0000
0000
,
0100
0001
1000
0000
0000
0000
1000
0010
,
1000
0010
0002
0000
0000
0000
0013
0000
,
0100
0010
0100
0010
,
0100
0000
0010
0001
0010
0000
0000
0000
,
0100
1000
0100
0000
0000
0000
0100
0000
,
1000
0002
0000
0013
,
0100
0010
0100
0010
,
0100
0000
0010
1000
0010
0000
0000
0000
,
0100
0001
1000
0000
0000
0000
1000
0001
,
1000
0001
2000
0000
0000
0000
3010
0000
,
0100
0010
0100
0010
,
0100
0000
0010
1000
0010
0000
0000
0000
,
0100
0001
0100
0000
0000
0000
0100
0000
,
1000
0010
0010
0000
,
0100
0100
0000
0001
,
0001
0000
1000
1000
,
0000
0100
0100
0010
,
1000
1000
0010
0100
,
0100
0010
1000
1000
,
0010
0100
0100
0001
,
1000
1000
0010
0100
,
0100
1000
0001
0001
,
0010
0100
0100
0010
,
0001
0001
1000
0010
,
0010
0001
0100
0100
,
0001
0000
0010
0100
0010
0000
0100
0000
,
0010
0001
0010
0000
0001
0000
0100
1000
,
0100
0000
1000
0000
0100
0010
0100
0000
,
0010
0000
0001
1000
0001
0000
1000
0000
,
0100
0000
0000
0000
0001
1000
0001
0000
0000
0000
1000
0001
1000
0000
0010
0000
,
0100
0000
0010
0000
0100
0010
0100
0000
0000
0000
0010
0100
0010
0000
0001
0000
,
1000
0000
0001
0000
1000
0000
0000
0000
0001
1000
0001
0000
0000
0000
1000
0001
,
1000
0000
0000
0000
0100
0010
0100
0000
0000
0000
0010
0100
0010
0000
0000
0000
,
1000
0001
1000
0000
0000
0000
2002
0000
0000
0000
3003
0000
0001
1000
0001
0000
,
0000
0000
1000
0001
1000
0000
0100
0000
0010
0000
0100
0000
0010
0100
0010
0000
,
0000
0000
0100
0010
0100
0000
1000
0000
0001
0000
1000
0000
0001
0000
0000
0000
,
1000
0001
1000
0000
0000
0000
0001
1000
0001
0000
0000
0000
0100
0010
0100
0000
,
0000
0000
0010
0100
0010
0000
0000
0000
1000
0001
1000
0000
0000
0000
2002
0000
,
0000
0000
3003
0000
0100
0001
0100
0000
0000
0000
0010
1000
0010
0000
0001
0000
,
1000
0000
0001
0000
0100
1000
0100
0000
0000
0000
0010
0001
0010
0000
1000
0000
,
0001
0000
1000
0000
0001
0000
0000
0000
0100
0001
0100
0000
0000
0000
0010
1000
,
0010
0000
0000
0000
0100
0001
0100
0000
0000
0000
0010
1000
0010
0000
0000
0000
,
1000
0010
1000
0000
0000
0000
0202
0000
0000
0000
0303
0000
0010
0001
0010
0000
,
0000
0000
0100
1000
0100
0000
0010
0000
0100
0000
0010
0000
0100
1000
0100
0000
,
0000
0000
0010
0001
0010
0000
0100
0000
0010
0000
0100
0000
0010
0000
0000
0000
,
0010
0001
0010
0000
0000
0000
0100
1000
0100
0000
0000
0000
0010
1000
0010
0000
,
0000
0000
0100
0001
0100
0000
0000
0000
0001
1000
0001
0000
0000
0000
2002
0000
,
0000
0000
3003
0000
0001
0100
0001
0100
0010
1000
0010
1000
0100
1000
0100
0010
,
0001
0000
1000
0000
0100
0000
0010
0000
0100
0000
1000
0000
0100
0000
1000
0000
0010
0000
1000
0000
0100
0000
0000
0001
0000
1000
0000
0001
0000
1000
0000
0001
,
0000
0000
0010
0000
0000
0100
0000
0000
1000
0000
0000
0000
0001
0000
0000
0000
0010
0000
0000
0000
0000
0000
0100
0000
0000
0000
0001
0000
0000
0000
0100
0000
,
0010
0000
0000
0001
1000
0000
0001
0000
0010
0000
0000
0100
0000
1000
0000
0010
,
0001
0000
0000
0010
1000
0000
0001
0000
0001
0000
0000
1000
0000
0100
0000
0010
,
0001
0000
0000
0000
0000
0000
0010
0000
0100
0000
0000
0000
0100
0000
0000
0000
0001
0000
0000
0000
0000
0000
0100
0000
0000
0010
0000
0100
0010
0000
0000
0001
,
1000
0010
1000
0010
,
1000
0010
1000
0010
0100
0010
0001
0100
,
0000
0001
0000
0100
0000
0001
0000
0100
,
0001
0100
1000
0100
0001
0010
0001
0100
,
0001
0000
0010
0000
1000
0000
0010
0000
2000
0002
0000
0000
0000
0000
3003
0001
,
0000
0010
0000
0001
0000
1000
0000
0020
0200
0000
0000
0000
0000
0330
1000
0000
,
0001
1000
0001
1000
0001
1000
0001
0010
,
0001
0010
0001
1000
0100
1000
0100
0010
,
0001
0011
0000
0110
0000
1010
0000
1100
,
0000
0010
0001
0010
0001
0010
0001
0010
,
0001
0010
0001
0010
0001
0010
0001
0020
,
0000
0030
0110
0000
1001
0000
0101
0000
,
0010
1000
0010
0001
1000
0002
0000
0003
,
0101
0000
0110
0000
1010
0000
1000
0001
,
1000
0001
0010
2000
0000
3000
0110
0000
,
0011
0000
0110
0000
0010
0001
0010
1000
,
0100
0020
0000
0030
1010
0000
0011
0000
,
0101
1001
1010
0101
,
1100
0000
0001
0100
0001
0100
0010
0100
,
0010
0100
0010
1000
0010
1000
0100
1000
,
0100
1000
0000
0001
0000
1000
0000
0001
,
0000
1000
0001
1000
0001
1000
0001
2002
,
0000
0000
0000
3003
,
1001
1001
1001
1001
,
2000
0000
3010
0100
,
0010
0100
0010
0100
,
1000
0001
1000
0000
0000
0000
0001
1000
,
0001
0000
0000
0000
0100
0010
0100
0010
,
0002
0000
0103
0010
,
0100
0010
0100
0010
,
0001
0100
0001
0000
0000
0000
0001
0010
,
0001
0000
1000
1000
,
0002
0000
0103
0010
,
0100
0010
0100
0010
,
0100
0001
0100
0000
0000
0000
0100
0010
,
0100
0000
0000
0000
0010
0001
1000
0001
,
2000
0000
3100
0010
,
0100
0010
0100
0010
,
0001
0100
0001
0000
0000
0000
0001
1000
,
0001
0000
0000
0000
1000
0001
1000
0000
,
0010
0001
0010
0001
,
1000
0100
1000
0000
,
0220
0330
0010
0001
,
0010
0001
0010
0100
,
0010
0000
2002
3003
,
0010
0001
0010
0001
,
0100
1000
0100
0000
,
0220
0000
0330
0000
1000
0100
1000
0000
,
0000
0000
0100
0010
0100
0000
0000
0000
,
0001
0010
0001
0000
0000
0000
0010
0100
,
0010
0000
0100
0000
0001
1000
0001
0000
,
1000
0000
0100
0010
2002
0000
0000
0000
,
0000
0000
3003
0000
0001
1000
0001
1001
,
0100
1000
1000
0100
,
1000
0100
0010
0100
,
1000
0100
0100
0010
,
1000
0010
0001
0001
,
0010
0001
0100
1000
,
0100
0001
1000
1000
,
0001
0010
0100
0010
,
0001
0100
0010
0100
,
0100
0010
0100
0001
,
0010
1000
0010
0010
,
1000
0001
1000
0010
,
0100
0100
1000
0010
,
1000
0001
1000
0001
1000
0001
1000
0001
,
1000
0001
1000
0001
1000
0001
1000
0001
,
1000
0001
1000
0001
1000
0001
1000
0001
,
1000
0001
1000
0001
1000
0001
1000
0001
,
1000
0100
1000
0100
0000
0000
0000
0000
0000
0100
0010
0100
,
0010
0000
0000
0000
0000
0000
0010
0001
0010
0001
0000
0000
,
0000
0000
0000
0100
0010
0100
0010
0000
0000
0000
0000
0000
,
0001
0010
0001
0010
0000
0000
0000
0000
0000
1000
0001
1000
,
0001
0000
0000
0000
0000
0000
0010
0100
0010
0100
0000
0000
,
0000
0000
0000
0010
1000
0010
1000
0000
0000
0000
0000
0000
,
0100
0001
0100
0001
0000
0000
0000
0000
0000
0001
1000
0001
,
1000
0001
1000
0100
,
1000
0001
1000
0001
,
0010
0100
0010
0100
,
1000
0100
1000
0001
,
0100
0001
1000
0001
,
1000
0001
0010
0001
,
1000
0100
0010
0001
,
0010
0001
1000
0010
,
0100
0001
1000
0001
,
1000
0010
1000
0001
,
0010
0100
0010
0100
,
0010
0100
0010
0001
,
1000
0001
0100
0001
,
1000
0001
1001
1001
,
1001
0000
1000
0100
0010
0001
1000
0010
,
1000
0110
0000
0110
0000
0110
0000
0010
,
0100
1000
0100
0010
0001
0100
1010
0000
,
1100
0110
1010
0101
,
0110
0101
0011
1010
,
1100
1010
0011
0000
,
0200
0000
0000
0000
,
0000
0000
0310
0000
,
2000
0000
0000
0000
,
0000
0000
3001
0000
,
0020
0000
0000
0000
,
0000
0000
0130
0000
,
0002
0000
0000
0000
,
0000
0000
1003
0000
,
0100
1000
0100
1000
,
0100
0000
1000
0000
,
0100
0001
0100
0001
,
0100
0000
0001
0000
,
1000
0001
1000
0001
,
1000
0000
0001
0000
,
0010
0100
0010
0100
,
0010
0100
0010
0100
,
2002
0000
0000
0000
,
0000
3003
0000
0000
;

//---------------dance-single - ----------------
#NOTES:
     dance-single:
     :
     Medium:
     16:
     0.858220,1.897774,0.476678,0.581827,0.143704,857.000000,789.000000,68.000000,83.000000,0.000000,0.000000,0.858220,1.897774,0.476678,0.581827,0.143704,857.000000,789.000000,68.000000,83.000000,0.000000,0.000000:
0000
0000
0000
0000
,
0000
0000
0000
0000
,
0000
0000
0000
0000
,
0000
0000
0000
0000
,
0200
0000
0301
0100
,
0001
0000
0100
0000
0001
0000
0000
0020
,
0000
0000
0000
1030
0000
0010
0000
2000
,
0000
0000
3020
0000
0000
2030
0000
0000
,
3002
0000
0013
0001
,
0010
0000
0001
0000
0100
0000
0000
0020
,
0000
0000
0000
0130
0000
1000
0000
0200
,
0000
0000
0320
0000
0000
2030
0000
0000
,
3001
0100
0001
0100
,
0001
0000
0100
0000
1000
0000
0000
1000
,
0000
0010
0000
1000
0000
0010
0000
2000
,
0000
0000
3002
0000
0000
0203
0000
0000
,
0310
0000
0001
0000
0010
0000
1000
0000
0020
0000
0000
0000
0000
0000
0000
0130
,
0000
0010
0000
0001
0000
0010
0000
0200
0000
0000
0000
0000
0000
0000
0310
0000
,
0100
0010
0000
1000
0100
1000
0000
0001
,
0010
0001
0000
1000
0100
1000
0000
0001
,
0010
2002
0000
0000
0000
0000
0000
0000
,
0000
0000
0000
3003
,
0001
0000
1000
0000
0001
0000
1000
0000
0001
0000
1000
0000
,
0001
0000
2002
0003
,
3001
1000
0001
1000
,
0001
0000
1000
0000
0010
0100
1000
0000
,
0000
0000
0001
0100
0010
0000
0000
0000
,
0010
0100
0001
1000
0002
0000
0000
0000
,
1003
0001
1000
0001
,
1000
0000
0001
0000
0100
0010
0100
0000
,
0000
0000
1000
0001
2000
0000
0000
0000
,
3002
0000
0000
2003
0000
0000
0000
3100
,
0000
0010
0000
0100
0000
0010
0000
0100
,
0000
0010
0000
0100
1000
0001
0000
0000
,
0000
1000
0100
0010
0000
0000
0000
0010
,
1000
0001
1000
0002
0000
0000
0000
0103
,
0000
0010
0000
0100
0000
0010
0000
0100
,
0000
0010
0000
1000
0001
1000
0000
0000
,
0000
0010
0100
0002
0000
0000
0000
2003
,
0000
3002
0000
0013
,
0100
0010
0100
0010
,
0100
0000
0010
0001
0010
0000
0000
0000
,
0100
0001
1000
0000
0000
0000
1000
0010
,
1000
0010
2000
0000
0000
0000
3010
0000
,
0100
0010
0100
0010
,
0100
0000
0010
0001
0010
0000
0000
0000
,
0100
1000
0100
0000
0000
0000
0100
0000
,
1000
0002
0000
0013
,
0100
0010
0100
0010
,
0100
0000
0010
1000
0010
0000
0000
0000
,
0100
0001
1000
0000
0000
0000
1000
0001
,
1000
0001
2000
0000
0000
0000
3010
0000
,
0100
0010
0100
0010
,
0100
0000
0010
1000
0010
0000
0000
0000
,
0100
0001
0100
0000
0000
0000
0100
0000
,
1000
0020
0031
0000
,
0002
0103
0000
0200
,
1300
0000
2000
3001
,
0000
0002
0013
0000
,
2000
3010
0000
0002
,
0013
0000
2000
3010
,
0000
0002
0103
0000
,
2000
3010
0000
0002
,
1003
0000
0200
0310
,
0000
0002
0013
0000
,
0200
1300
0000
0020
,
0130
0000
0002
0103
,
0000
0010
0010
0001
,
0010
0010
0100
0001
,
0001
1000
0001
0001
,
0010
0100
0100
1000
,
0001
0000
0001
0001
0000
1000
1000
0000
,
0100
0010
0100
0100
0000
0010
0010
0000
,
1000
0001
1000
0000
0001
0001
0000
1000
,
1000
0000
0100
0100
0000
0010
0010
0000
,
1000
1000
0000
2002
0000
3003
0001
0001
,
0000
1000
1000
0000
0010
0100
0010
0010
,
0000
0100
0100
0000
0001
1000
0001
0000
,
1000
1000
0000
0001
0001
0000
0100
0100
,
0000
0010
0010
0000
1000
1000
0000
2002
,
0000
3003
0101
0100
0000
1010
0010
0001
,
1000
0001
1100
0100
0000
0011
0010
1000
,
0001
1000
0001
0000
0101
0100
0000
1010
,
0010
0000
0101
0100
0000
1010
0010
0000
,
1010
1000
0000
0202
0000
0303
0011
0010
,
0000
1100
0100
0010
0100
0010
1100
0100
,
0000
0011
0010
0100
0010
0100
0010
0000
,
0011
0010
0000
1100
0100
0000
1010
0010
,
0000
0000
0100
0001
0100
0000
0000
0000
0001
1000
0001
0000
0000
0000
2002
0000
,
0000
0000
3003
0000
0001
0100
0001
0100
0010
0000
0010
0000
0100
1000
0100
0010
,
0001
0000
0000
0000
0100
0000
0000
0000
0100
0000
1000
0000
0100
0000
1000
0000
0010
0000
0000
0000
0100
0000
0000
0001
0000
1000
0000
0001
0000
1000
0000
0001
,
0000
0000
0010
0000
0000
0100
0000
0000
1000
0000
0000
0000
0001
0000
0000
0000
0010
0000
0000
0000
0000
0000
0100
0000
0000
0000
0001
0000
0000
0000
0000
0000
,
0010
0000
0000
0010
1000
0000
0001
0000
0010
0000
0000
0100
0000
1000
0000
0000
,
0001
0000
0000
0001
1000
0000
0001
0000
0001
0000
0000
1000
0000
0100
0000
0000
,
0001
0000
0000
0000
0000
0000
0001
0000
0100
0000
0000
0000
0100
0000
0000
0000
0001
0000
0000
0000
0000
0000
0100
0000
0000
0010
0000
0000
0010
0000
0000
0010
,
1000
0010
1000
0010
,
1000
0000
0010
0000
0100
0000
0000
0001
,
0000
0100
0000
0001
0000
0100
0000
0002
,
0000
0000
2003
0000
0000
3020
0000
0000
,
0031
0000
0010
0000
1000
0000
0010
0000
0002
0000
0000
0000
0000
0000
0000
1003
,
0000
0010
0000
1000
0000
0001
0000
0020
0000
0000
0000
0000
0000
0030
1000
0000
,
0000
0001
0000
1000
0000
0001
0000
0010
,
0001
0010
0001
1000
0100
1000
0100
0010
,
0001
0010
0000
1100
0000
1001
0000
1100
,
0000
0100
1000
0100
1000
0100
1000
0100
,
1000
0100
1000
0100
1000
0100
1000
0200
,
0000
0310
1001
0101
,
0010
1000
0010
0001
1000
0002
0000
0000
,
0103
0000
0110
0000
1010
0000
1000
0001
,
1000
0001
0010
2000
0000
0000
3100
0000
,
0011
0000
0110
0000
0010
0001
0010
1000
,
0100
0020
0000
0000
1030
0000
0011
0000
,
0101
1001
1010
0101
,
1100
0000
0001
0100
0001
0100
0010
0100
,
0010
0100
0010
1000
0010
1000
0100
1000
,
0100
1000
0000
0001
0000
1000
0000
0001
,
0000
1000
0000
0001
0000
1000
0000
2002
,
0000
0000
0000
3003
,
1001
1001
1001
1001
,
2000
0000
3010
0100
,
0010
0100
0010
0100
,
1000
0001
1000
0000
0000
0000
0001
1000
,
0001
0000
0000
0000
0100
0010
0100
0010
,
0002
0000
0103
0010
,
0100
0010
0100
0010
,
0001
0100
0001
0000
0000
0000
0001
0010
,
0001
0000
1000
1000
,
0002
0000
0103
0010
,
0100
0010
0100
0010
,
0100
0001
0100
0000
0000
0000
0100
0010
,
0100
0000
0000
0000
0010
0001
1000
0001
,
2000
0000
3100
0010
,
0100
0010
0100
0010
,
0001
0100
0001
0000
0000
0000
0001
1000
,
0001
0000
0000
0000
1000
0001
1000
0000
,
0010
0001
0010
0001
,
1000
0100
1000
0000
,
0020
0030
0010
0001
,
0010
0001
0010
0100
,
0010
0000
2000
3000
,
0010
0001
0010
0001
,
0100
1000
0100
0000
,
0020
0030
1100
1000
,
0000
0110
1000
0000
,
0110
0001
0000
0110
,
0001
0000
1100
0001
,
0000
0110
2002
0000
,
0000
0000
3003
0000
0001
0010
0001
1000
,
0100
1000
0100
1000
,
1000
0100
0010
0100
,
1000
0100
1000
0100
,
1000
0010
1000
0010
,
1000
0001
0100
1000
,
0100
0001
1000
0100
,
1000
0100
1000
0001
,
1000
0100
0010
0100
,
0010
0100
1000
0100
,
0010
0001
0100
0010
,
1000
0001
0100
0001
,
1000
0010
0100
0001
,
0001
0001
0010
1000
,
1000
1000
1000
0001
,
0100
1000
0001
1000
,
1000
1000
1000
0010
,
1000
0100
0000
0100
,
0010
0000
0010
0001
,
0000
0100
0010
0000
,
0001
0010
0000
1000
,
0001
0000
0010
0100
,
0000
0010
1000
0000
,
0100
0001
0000
0001
,
1000
0000
0001
0000
,
1000
0000
0001
0000
,
0010
0000
0100
0000
,
0010
0000
1000
0000
,
0100
0000
1000
0000
,
0001
0000
0010
0000
,
1000
0000
0010
0000
,
0001
0000
1000
0001
,
1000
0001
1000
0001
,
1000
0001
1000
0001
,
1000
0001
1000
0001
,
1000
0001
1000
0001
,
1000
0001
1000
0001
,
1000
0001
1001
1001
,
1001
0000
1000
0100
0010
0001
1000
0010
,
0000
0110
0000
0110
0000
0110
0000
0010
,
0100
1000
0100
0010
0001
0000
1100
0000
,
1001
0101
1001
1100
,
1010
0011
1010
0101
,
1100
1010
0101
0000
,
2000
0000
0000
0000
,
0000
0000
0000
0000
,
3020
0000
0000
0000
,
0000
0000
0000
0000
,
0032
0000
0000
0000
,
0000
0000
0000
0000
,
0203
0000
0000
0000
,
0000
0000
0000
0000
,
2300
0000
0000
0000
,
0000
0000
3010
0000
,
2000
0000
0000
0000
,
0000
0000
3001
0000
,
0020
0000
0000
0000
,
0000
0000
0130
0000
,
0010
0000
0100
0000
,
0010
0000
0100
0000
,
2002
0000
0000
0000
,
0000
3003
0000
0000
;

//---------------dance-single - ----------------
#NOTES:
     dance-single:
     :
     Easy:
     14:
     0.640911,1.313843,0.462658,0.476678,0.108654,640.000000,574.000000,66.000000,68.000000,0.000000,0.000000,0.640911,1.313843,0.462658,0.476678,0.108654,640.000000,574.000000,66.000000,68.000000,0.000000,0.000000:
0000
0000
0000
0000
,
0000
0000
0000
0000
,
0000
0000
0000
0000
,
0000
0000
0000
0000
,
0200
0000
0000
0000
,
0301
0000
0000
0000
0001
0000
0000
0020
,
0000
0000
0000
0000
0000
0000
0000
1030
,
0000
0000
0010
0000
0000
1000
0000
0000
,
0002
0000
0000
0000
,
0013
0000
0000
0000
0100
0000
0000
0020
,
0000
0000
0000
0000
0000
0000
0000
0130
,
0000
0000
0010
0000
0000
1000
0000
0000
,
0001
0100
0001
0000
,
0001
0000
0000
0000
1000
0000
0000
1000
,
0000
0010
0000
1000
0000
0000
0000
1000
,
0000
0000
0001
0000
0000
0100
0000
0000
,
0010
0000
0000
0000
0001
0000
0000
0000
0020
0000
0000
0000
0000
0000
0000
0130
,
0000
0000
0000
0001
0000
0000
0000
0200
0000
0000
0000
0000
0000
0000
0310
0000
,
0000
1000
0000
0001
0000
1000
0000
0001
,
0000
1000
0000
0001
0000
1000
0000
0001
,
0000
2002
0000
0000
0000
0000
0000
0000
,
0000
0000
0000
3003
,
0001
0000
1000
0000
0001
0000
1000
0000
0001
0000
1000
0000
,
0001
0000
2002
3003
,
0001
0000
0001
0000
,
0001
0000
0010
1000
,
0000
0001
0010
0000
,
0001
0010
0002
0000
,
1003
0000
1000
0000
,
1000
0000
0100
0010
,
0000
0001
1000
0000
,
0001
0000
0000
1000
0000
0000
0000
0100
,
0000
0000
0000
0100
0000
0000
0000
0100
,
0000
0000
0000
0100
0000
0001
0000
0000
,
0000
1000
0000
0010
0000
0000
0000
0001
,
0000
0010
0000
0002
0000
0000
0000
0103
,
0000
0000
0000
0100
0000
0000
0000
0100
,
0000
0000
0000
1000
0000
0001
0000
0000
,
0000
0010
0000
0001
0000
0000
0000
1000
,
0000
0002
0000
0013
,
0000
0010
0000
0010
,
0000
0010
0001
0000
,
0100
1000
0000
1000
,
0010
0002
0000
0013
,
0000
0010
0000
0010
,
0000
0010
0001
0000
,
0100
1000
0000
0100
,
1000
0002
0000
0013
,
0000
0010
0000
0010
,
0000
0010
1000
0000
,
0100
1000
0000
1000
,
0001
2000
0000
3010
,
0000
0010
0000
0010
,
0000
0010
1000
0000
,
0100
0001
0000
0100
,
1000
0011
0000
0000
,
0101
0000
0000
1100
,
0000
0000
1001
0000
,
0000
0011
0000
0000
,
1010
0000
0000
0011
,
0000
0000
1010
0000
,
0000
0101
0000
0000
,
1010
0000
0000
1001
,
0000
0000
0110
0000
,
0000
0011
0000
0000
,
1100
0000
0000
0110
,
0000
0000
0101
0000
,
0000
0010
0001
0010
,
0100
1000
0100
0010
,
0001
0010
0100
1000
,
0100
0010
0001
0010
,
0000
0000
0001
0001
0000
1000
1000
0000
,
0000
0000
0100
0100
0000
0010
0010
0000
,
1000
0001
1000
0000
0001
0001
0000
1000
,
1000
0000
0100
0100
0000
0010
0010
0000
,
1000
1000
0000
2002
0000
3003
0001
0001
,
0000
1000
1000
0000
0000
0000
0010
0010
,
0000
0100
0100
0000
0001
1000
0001
0000
,
1000
1000
0000
0001
0001
0000
0100
0100
,
0000
0010
0010
0000
1000
1000
0000
2002
,
0000
3003
0001
0100
0000
1000
0010
0000
,
0000
0000
1000
0100
0000
0001
0010
0000
,
0001
1000
0001
0000
0001
0100
0000
1000
,
0010
0000
0001
0100
0000
1000
0010
0000
,
0010
1000
0000
0202
0000
0303
0001
0010
,
0000
1000
0100
0000
0000
0000
1000
0100
,
0000
0001
0010
0000
0010
0100
0010
0000
,
0001
0010
0000
1000
0100
0000
1000
0010
,
0000
0001
0100
0000
1000
0001
0000
2002
,
0000
3003
0001
0001
0010
0010
0100
0100
,
1000
0000
0000
0000
1000
0000
0000
0000
0100
0000
0000
0000
0100
0000
0000
0000
0010
0000
0000
0000
0010
0000
0000
0001
0000
0000
0000
0001
0000
0000
0000
1000
,
0000
0000
1000
0000
0000
1000
0000
0000
1000
0000
0000
0000
0000
0000
0000
0000
0010
0000
0000
0000
0000
0000
0100
0000
0000
0000
0001
0000
0000
0000
0000
0000
,
0010
0000
0000
0000
1000
0000
0000
0000
0010
0000
0000
0100
0000
1000
0000
0000
,
0001
0000
0000
0000
1000
0000
0000
0000
0001
0000
0000
1000
0000
0100
0000
0000
,
0001
0000
0000
0000
0000
0000
0000
0000
0100
0000
0000
0000
0000
0000
0000
0000
0001
0000
0000
0000
0000
0000
0100
0000
0000
0010
0000
0000
0010
0000
0000
0000
,
1000
0010
1000
0000
,
1000
0000
0000
0000
0100
0000
0000
0001
,
0000
0100
0000
0001
0000
0000
0000
0002
,
0000
0000
2003
0000
0000
3020
0000
0000
,
0031
0000
0000
0000
1000
0000
0000
0000
0002
0000
0000
0000
0000
0000
0000
1003
,
0000
0000
0000
0001
0000
0000
0000
0020
0000
0000
0000
0000
0000
0030
1000
0000
,
0000
0001
0000
1000
0000
0000
0000
0010
,
0000
0001
0000
0010
0000
0100
0000
0010
,
0000
0100
0000
0110
0000
1010
0000
1100
,
0000
0010
0000
0000
0001
0000
0000
0010
,
0000
0000
0000
0001
0000
0000
0000
0001
0000
0000
0000
0001
,
0000
0110
1001
0101
,
0010
0000
0000
0000
0010
0000
0000
0000
0010
0000
0000
0000
,
0101
0110
1010
1000
,
0000
1000
0000
0000
0000
1000
0000
0000
0000
1100
0000
0000
,
0011
0000
0000
0110
0000
0000
0010
0000
0000
0000
0010
0000
,
0000
0000
0010
0000
0000
0000
1010
0000
0000
0011
0000
0000
,
0101
0001
0010
0100
,
1000
0001
0001
0010
,
0010
0100
0100
1000
,
1000
0001
0000
1000
0000
0001
0000
1000
,
0000
0001
0000
1000
0000
0001
0000
2002
,
0000
0000
0000
3003
,
0001
0001
0001
0001
,
2000
0000
3010
0000
,
0010
0000
0010
0000
,
1000
0001
0000
0001
,
1000
0000
0010
0100
,
0002
0000
0103
0000
,
0100
0000
0100
0000
,
0001
0100
0000
0001
,
0010
0000
0001
1000
,
0002
0000
0103
0000
,
0100
0000
0100
0000
,
0100
0001
0000
0100
,
0010
0000
0010
0001
,
2000
0000
3100
0000
,
0100
0000
0100
0000
,
0001
0100
0000
0001
,
1000
0000
1000
0001
,
0010
0000
0010
0000
,
1000
0000
1000
0000
,
0020
0030
0010
0000
,
0010
0000
0001
0000
,
0001
0000
2000
3000
,
0010
0000
0010
0000
,
0100
0000
0100
0000
,
0020
0030
0100
1000
,
0000
0100
1000
0000
,
0010
0001
0000
0010
,
0001
0000
1000
0001
,
0000
0100
0020
0000
,
0000
0030
0000
0000
,
1000
0100
1000
0100
,
0010
0100
0010
0100
,
1000
0100
1000
0100
,
1000
0010
1000
0010
,
1000
0001
1000
0001
,
0100
0001
0100
0001
,
1000
0100
1000
0100
,
0010
0100
0010
0100
,
0010
1000
0100
1000
,
0100
1000
0100
1000
,
0100
0010
1000
0001
,
1000
0010
1000
0100
,
0001
0100
0010
0001
,
0010
1000
0010
0001
,
0100
0010
1000
0001
,
0100
1000
0010
0100
,
2200
3300
0000
0220
,
0330
0000
0022
0033
,
0000
0220
0330
0000
,
0022
0033
0000
2002
,
3003
0000
0220
0330
,
0000
2020
3030
0000
,
0202
0303
0000
0002
,
1003
0000
0001
0000
,
1000
0000
0001
0000
,
0010
0000
0100
0000
,
0010
0000
1000
0000
,
0100
0000
1000
0000
,
0001
0000
0010
0000
,
1000
0000
0010
0000
,
0001
0000
1000
0000
,
0001
0000
1000
0000
,
0001
0000
1000
0000
,
0001
0000
1000
0000
,
0001
0000
1000
0001
,
1000
0001
1000
0001
,
1000
0000
1001
1001
,
1001
0000
1000
0100
0010
0001
0000
0010
,
0000
0110
0000
0110
0000
0110
0000
0010
,
0100
1000
0100
0000
0001
0000
1001
0000
,
1001
0011
1010
0110
,
0011
1010
1010
0110
,
0011
1001
0101
0000
,
0002
0000
0000
0000
,
0000
0000
0000
0000
,
2003
0000
0000
0000
,
0000
0000
0000
0000
,
3020
0000
0000
0000
,
0000
0000
0000
0000
,
0230
0000
0000
0000
,
0000
0000
0000
0000
,
0302
0000
0000
0000
,
0000
0000
0013
0000
,
0002
0000
0000
0000
,
0000
0000
0103
0000
,
2000
0000
0000
0000
,
0000
0000
3010
0000
,
0020
0000
0000
0000
,
0000
0000
0031
0000
,
2002
0000
0000
0000
,
0000
3003
0000
0000
;

//---------------dance-single - ----------------
#NOTES:
     dance-single:
     :
     Beginner:
     10:
     0.388552,0.875896,0.287409,0.357508,0.049070,388.000000,347.000000,41.000000,51.000000,0.000000,0.000000,0.388552,0.875896,0.287409,0.357508,0.049070,388.000000,347.000000,41.000000,51.000000,0.000000,0.000000:
0000
0000
0000
0000
,
0000
0000
0000
0000
,
0000
0000
0000
0000
,
0000
0000
0000
0000
,
0200
0000
0000
0000
,
0301
0000
0000
0000
0000
0000
0000
0020
,
0000
0000
0000
0000
0000
0000
0000
1030
,
0000
0000
1000
0000
0000
1000
0000
0000
,
0002
0000
0000
0000
,
0013
0000
0000
0000
0000
0000
0000
0020
,
0000
0000
0000
0000
0000
0000
0000
0130
,
0000
0000
0100
0000
0000
0100
0000
0000
,
0001
0000
0001
0000
,
0001
0000
0000
0000
0000
0000
0000
1000
,
0000
0000
0000
1000
0000
0000
0000
0001
,
0000
0000
0001
0000
0000
0001
0000
0000
,
0010
0000
0000
0000
0000
0000
0000
0000
0020
0000
0000
0000
0000
0000
0000
0130
,
0000
0000
0000
0000
0000
0000
0000
0200
0000
0000
0000
0000
0000
0000
0310
0000
,
0000
0010
0000
0010
0000
0010
0000
0010
,
0000
0010
0000
0010
0000
0010
0000
0010
,
0000
2002
0000
0000
0000
0000
0000
0000
,
0000
0000
0000
3003
,
0220
0000
0000
0000
,
0330
0000
0001
0000
,
0001
0000
0001
0000
,
0001
0000
0020
0000
,
0000
0000
0000
0000
,
0000
0000
1030
0000
,
1000
0000
1000
0000
,
1000
0000
0200
0000
,
0000
0000
0000
0000
,
0000
0000
0000
1300
0000
0000
0000
1000
,
0000
0000
0000
1000
0000
0000
0000
1000
,
0000
0000
0000
0200
0000
0000
0000
0000
,
0000
0000
0000
0000
,
0000
0000
0000
0310
0000
0000
0000
0010
,
0000
0000
0000
0010
0000
0000
0000
0010
,
0000
0000
0000
0002
0000
0000
0000
0000
,
0000
0000
0000
0000
,
0000
0013
0000
0010
,
0000
0010
0000
0010
,
0000
0010
0000
0000
,
0000
0100
0000
0000
,
0000
0100
0000
0100
,
0000
0100
0000
0100
,
0000
0010
0000
0000
,
0000
0100
0000
0000
,
0000
1000
0000
1000
,
0000
1000
0000
1000
,
0000
0010
0000
0000
,
0000
0010
0000
0000
,
0000
0100
0000
0100
,
0000
0100
0000
0100
,
0000
0010
0000
0000
,
0000
0010
0000
0000
,
0000
0010
0000
0000
,
0001
0000
0000
0100
,
0000
0000
1000
0000
,
0000
0001
0000
0000
,
1000
0000
0000
0001
,
0000
0000
0010
0000
,
0000
0100
0000
0000
,
0010
0000
0000
1000
,
0000
0000
0100
0000
,
0000
0001
0000
0000
,
1000
0000
0000
0010
,
0000
0000
0100
0000
,
0000
2002
0000
0000
,
0000
0000
0000
0000
,
0000
0000
0000
0000
,
0000
0000
0000
0000
,
3003
0000
0001
0000
0000
1000
0000
0000
,
0000
0000
0100
0000
0000
0010
0000
0000
,
0000
0000
0000
0000
0001
0000
0000
1000
,
0000
0000
0100
0000
0000
0010
0000
0000
,
1000
0000
0000
2002
0000
3003
0001
0000
,
0000
1000
0000
0000
0000
0000
0010
0000
,
0000
0100
0000
0000
0000
0000
0000
0000
,
1000
0000
0000
0001
0000
0000
0100
0000
,
0000
0010
0000
0000
1000
0000
0000
2002
,
0000
3003
0101
0000
0000
1010
0000
0000
,
0000
0000
1100
0000
0000
0011
0000
0000
,
0000
0000
0000
0000
0101
0000
0000
1010
,
0000
0000
0101
0000
0000
1010
0000
0000
,
1010
0000
0000
0202
0000
0303
0011
0000
,
0000
1100
0000
0000
0000
0000
1100
0000
,
0000
0011
0000
0000
0000
0000
0000
0000
,
0011
0000
0000
1100
0000
0000
1010
0000
,
0000
0101
0000
0000
1001
0000
0000
2002
,
0000
3003
0001
0000
0010
0000
0100
0000
,
1000
0000
0000
0000
0000
0000
0000
0000
0100
0000
0000
0000
0000
0000
0000
0000
0010
0000
0000
0000
0000
0000
0000
0001
0000
0000
0000
0000
0000
0000
0000
1000
,
0000
1000
0010
0100
,
0010
1000
0010
0100
,
0001
1000
0001
0100
,
0001
0000
0100
0000
0001
0000
0100
0010
,
1000
0000
1000
0000
,
1000
0000
0000
0000
0000
0000
0000
0001
,
0000
0000
0000
0001
0000
0000
0000
1000
,
0000
0000
1000
0000
0000
1000
0000
0000
,
0001
0000
0000
0000
0000
0000
0000
0000
0001
0000
0000
0000
0000
0000
0000
1000
,
0000
0000
0000
0000
0000
0000
0000
1000
0000
0000
0000
0000
0000
0000
0100
0000
,
0000
0000
0000
0100
0000
0000
0000
0010
,
0000
0000
0000
0010
0000
0000
0000
0010
,
0000
0100
0000
0010
0000
1000
0000
0100
,
0000
0010
0000
0000
0001
0000
0000
0010
,
0000
0000
0000
0001
0000
0000
0000
0001
0000
0000
0000
0001
,
0000
0100
0100
0100
,
0010
0000
0000
0000
0010
0000
0000
0000
0010
0000
0000
0000
,
0100
0100
0100
1000
,
0000
1000
0000
0000
0000
1000
0000
0000
0000
0100
0000
0000
,
0100
0000
0000
0100
0000
0000
0010
0000
0000
0000
0010
0000
,
0000
0000
0010
0000
0000
0000
0001
0000
0000
0001
0000
0000
,
0001
0001
0000
0001
,
0000
0010
0000
0100
,
0000
1000
1000
1000
,
2002
0000
0000
0000
,
0000
0000
0000
0000
0000
0000
3003
0220
,
0000
0000
0000
0000
,
0330
0000
0000
0000
,
0010
0000
0010
0000
,
0010
0000
0010
0000
,
2000
0000
0000
0000
,
0000
0000
0000
0000
,
3100
0000
0100
0000
,
0100
0000
0100
0000
,
0002
0000
0000
0000
,
0000
0000
0000
0000
,
0103
0000
0100
0000
,
0100
0000
0100
0000
,
0002
0000
0000
0000
,
0000
0000
0000
0000
,
0103
0000
0100
0000
,
0100
0000
0100
0000
,
2000
0000
0000
3000
,
1000
0000
1000
0000
,
0010
0000
0000
0000
,
1000
0000
0000
0000
,
0020
0030
0010
0000
,
0000
0000
0001
0000
,
0000
0000
2000
3000
,
0010
0000
0000
0000
,
0100
0000
0000
0000
,
0020
0030
1100
0000
,
0000
1100
0000
0000
,
0011
0000
0000
0011
,
0000
0000
1001
0000
,
0000
0000
0220
0000
,
0000
0330
0000
0000
,
1000
0000
1000
0000
,
0010
0000
0010
0000
,
1000
0000
1000
0000
,
0010
0000
0010
0000
,
0001
0000
0001
0000
,
0100
0000
0100
0000
,
1000
0000
1000
0000
,
0010
0000
0010
0000
,
1000
0000
0001
0000
,
0010
0000
0010
0000
,
0010
0000
0001
0000
,
0001
0000
0001
0000
,
0010
0000
0100
0000
,
0010
0000
0100
0000
,
0010
0000
0100
0000
,
0100
0000
1000
0000
,
2000
3000
0000
0200
,
0300
0000
0002
0003
,
0000
0200
0300
0000
,
0020
0030
0000
2000
,
3000
0000
0200
0300
,
0000
0020
0030
0000
,
0200
0300
0000
0002
,
1003
0000
0001
0000
,
1000
0000
0001
0000
,
0010
0000
0100
0000
,
0010
0000
1000
0000
,
0100
0000
1000
0000
,
0001
0000
0010
0000
,
1000
0000
0010
0000
,
0001
0000
1000
0000
,
0001
0000
1000
0000
,
0001
0000
1000
0000
,
0001
0000
1000
0000
,
0001
0000
1000
0000
,
0001
0000
1000
0000
,
0001
0000
1001
1001
,
1001
0000
0000
0100
0000
0001
0000
0000
,
0000
0110
0000
0110
0000
0110
0000
0000
,
0100
0100
0000
0010
,
1000
0100
0010
0001
,
0010
0100
0001
0010
,
0100
1000
0001
0000
,
0220
0000
0000
0000
,
0000
0000
0000
0000
,
0000
0000
0000
0000
,
0000
0000
0000
0000
,
0000
0000
0000
0000
,
0000
0000
0000
0000
,
0000
0000
0000
0000
,
0000
0000
0000
0000
,
0000
0000
0000
0000
,
0000
0000
0000
0000
,
0000
0000
0000
0000
,
0000
0000
0000
0000
,
0000
0000
0000
0000
,
0000
0000
0000
0000
,
0000
0000
0000
0000
,
0000
0000
0330
0000
,
2002
0000
0000
0000
,
0000
3003
0000
0000
;
