#TITLE:Rollin' (Air Raid Vehicle);
#SUBTITLE:;
#ARTIST:Limp Bizkit;
#TITLETRANSLIT:;
#SUBTITLETRANSLIT:;
#ARTISTTRANSLIT:;
#GENRE:;
#CREDIT:;
#BANNER:Rollin banner.png;
#BACKGROUND:Rollin bg.png;
#LYRICSPATH:;
#CDTITLE:;
#MUSIC:Rollin.ogg;
#OFFSET:-0.024002;
#SAMPLESTART:19.063263;
#SAMPLELENGTH:10.505150;
#SELECTABLE:YES;
#BPMS:0.000000=176.179001
,1.000000=191.477005
,2.000000=199.453003
,4.000000=195.167999
,8.000000=204.604004
,9.000000=194.686996
,10.000000=200.348007
,12.000000=193.912994
,13.000000=192.218002
,14.000000=204.473007
,16.000000=198.251007
,17.000000=188.876999
,18.000000=207.016006
,19.000000=196.328995
,23.000000=216.998001
,24.000000=179.865005
,25.000000=194.725998
,27.000000=212.796997
,28.000000=193.203995
,30.000000=201.412994
,32.000000=199.692001
,36.000000=193.444000
,37.000000=199.957993
,40.000000=188.320999
,41.000000=204.139008
,42.000000=194.621002
,45.000000=197.878998
,48.000000=196.574005
,52.000000=197.699997
,56.000000=196.552994
,62.000000=195.195007
,64.000000=187.936996
,72.000000=196.037994
,78.000000=185.572998
,80.000000=193.936005
,91.000000=188.235001
,94.000000=185.309998
,96.000000=191.712006
,102.000000=195.888000
,105.500000=191.854996
,107.000000=195.091003
,110.000000=201.992004
,112.000000=189.744003
,120.000000=196.488998
,123.000000=185.985992
,124.000000=192.776993
,126.000000=169.501007
,128.000000=187.264008
,131.000000=190.468002
,134.000000=192.957993
,136.000000=188.352005
,138.000000=194.044006
,139.000000=196.632996
,144.000000=191.979004
,147.000000=196.005005
,149.000000=200.167007
,150.000000=208.664993
,151.000000=190.048996
,152.000000=190.923004
,155.500000=194.070007
,160.000000=190.212006
,162.000000=194.319000
,166.000000=198.005997
,168.000000=187.048996
,170.000000=195.546005
,174.000000=193.334000
,176.000000=193.826004
,186.000000=210.050003
,187.000000=193.414001
,190.000000=183.632004
,192.000000=192.957993
,196.000000=191.679993
,197.000000=198.990997
,200.000000=192.285995
,203.000000=195.339005
,208.000000=187.537003
,209.000000=196.703003
,212.000000=191.501999
,213.000000=197.026001
,216.000000=197.772003
,220.000000=183.205994
,221.000000=197.449997
,224.000000=181.748993
,226.000000=194.063995
,228.000000=191.667999
,235.000000=194.766006
,238.000000=183.813995
,240.000000=194.033005
,246.000000=189.330002
,256.000000=189.093994
,267.000000=191.108002
,270.000000=190.104996
,272.000000=193.460999
,280.000000=187.061005
,283.000000=195.514008
,288.000000=187.436005
,292.000000=196.804001
,299.000000=188.350006
,302.000000=195.022995
,304.000000=190.438004
,306.000000=192.160004
,310.000000=194.690994
,314.500000=191.792007
,318.000000=194.154999
,320.000000=188.130997
,322.000000=190.710007
,324.000000=187.578995
,326.000000=194.567993
,328.000000=199.087006
,331.000000=199.820007
,332.000000=175.824005
,334.000000=193.352997
,336.000000=190.391998
,337.500000=175.889008
,338.000000=192.804001
,341.500000=169.014008
,342.000000=191.242996
,350.000000=188.481995
,351.000000=204.850998
,352.000000=192.281998
,358.000000=182.024994
,360.000000=200.766998
,363.000000=191.472000
,366.000000=185.692993
,368.000000=189.903000
,374.000000=190.009003
,379.000000=191.651001
,382.000000=178.865005
,384.000000=194.511002
,390.000000=191.557999
,395.000000=191.391998
,398.000000=196.485992
,400.000000=187.061005
,403.000000=192.020996
,406.000000=187.785995
,411.000000=186.908005
,414.000000=180.535995
,416.000000=188.835007
;
#STOPS:
;
#BGCHANGES:;
#KEYSOUNDS:;
#ATTACKS:;

//---------------dance-single - ----------------
#NOTES:
     dance-single:
     :
     Challenge:
     14:
     0.314671,0.477762,0.314671,0.000000,0.030700,287.000000,246.000000,41.000000,0.000000,0.000000,0.000000,0.314671,0.477762,0.314671,0.000000,0.030700,287.000000,246.000000,41.000000,0.000000,0.000000,0.000000:
// measure 0
0000
0000
0000
0000
,  // measure 1
0000
0000
0000
0000
,  // measure 2
0000
0000
0000
0000
,  // measure 3
0000
0000
0000
0000
,  // measure 4
0000
0000
0000
0000
,  // measure 5
0000
0000
0000
0000
,  // measure 6
0000
0000
0000
0000
,  // measure 7
0000
0000
0000
0000
,  // measure 8
0040
0000
0000
4030
,  // measure 9
0000
0000
3400
0000
,  // measure 10
0340
0000
0000
0034
,  // measure 11
0000
0000
0403
0000
,  // measure 12
0304
0000
0000
0403
,  // measure 13
0000
0000
4300
0000
,  // measure 14
3004
0000
0043
0000
,  // measure 15
4030
0000
0000
0000
3400
0000
0040
0330
,  // measure 16
4004
0000
3000
0040
0000
0033
0440
0000
,  // measure 17
0030
0004
0000
0303
0004
4003
3040
0430
,  // measure 18
4300
0000
3000
0440
,  // measure 19
0000
0330
4004
3003
,  // measure 20
4004
0000
0003
0040
0000
3030
0440
0000
,  // measure 21
0030
4000
0000
3300
4000
3004
0043
0430
,  // measure 22
0304
0000
0003
0440
,  // measure 23
0000
0330
4004
3003
,  // measure 24
4000
0000
0000
3400
0000
0000
0340
0000
,  // measure 25
0000
4030
0000
0000
3040
0030
0400
0300
,  // measure 26
0440
0000
0330
4004
,  // measure 27
0000
0000
3003
0000
0440
0000
0000
0330
,  // measure 28
0004
0000
0000
0403
0000
0000
0340
0000
,  // measure 29
0000
0034
0000
0000
0043
0030
0400
0300
,  // measure 30
0440
0000
0330
4004
,  // measure 31
0000
0000
3003
0000
0440
0000
0000
0330
,  // measure 32
0000
0000
0000
0000
,  // measure 33
0000
0000
0000
0000
4000
0040
0000
3000
,  // measure 34
0430
0000
0300
0400
,  // measure 35
0000
0300
0400
0300
,  // measure 36
0004
0000
0000
4003
0000
0000
3040
0000
,  // measure 37
0000
0034
0000
0000
0043
0000
4030
0000
,  // measure 38
3400
0000
0300
0400
,  // measure 39
0000
0300
0400
0300
,  // measure 40
4000
3400
0340
4030
,  // measure 41
3004
0403
4300
3004
,  // measure 42
0403
0000
0300
0400
,  // measure 43
0000
0300
0400
0300
,  // measure 44
0004
0000
0000
4003
0000
0000
3400
0000
,  // measure 45
0000
0304
0000
0000
0403
0000
4300
0000
,  // measure 46
3040
0000
0030
0400
,  // measure 47
0000
0300
0400
0300
,  // measure 48
0400
0000
0000
0304
,  // measure 49
0000
0000
0403
0000
,  // measure 50
0340
0000
0000
4030
,  // measure 51
0000
0000
3400
0000
,  // measure 52
4300
0000
0000
3400
,  // measure 53
0000
0000
0304
0000
,  // measure 54
4003
0000
3040
0000
,  // measure 55
0034
0000
0000
0000
0403
0000
0040
0330
,  // measure 56
4004
0000
0003
0040
0000
3030
0440
0000
,  // measure 57
0030
4000
0000
0300
3004
0043
4030
3400
,  // measure 58
0304
0000
0003
0440
,  // measure 59
0000
0330
4004
3003
,  // measure 60
4004
0000
3000
0040
0000
0033
0440
0000
,  // measure 61
0030
0004
0000
0300
4003
3040
0034
0403
,  // measure 62
4300
0000
3000
0440
,  // measure 63
0000
0330
4004
3003
,  // measure 64
0004
0000
0000
0043
0000
0000
4030
0000
,  // measure 65
0000
3400
0000
0000
0304
0003
4000
3000
,  // measure 66
4000
0000
0000
3040
0000
0000
0034
0000
,  // measure 67
0000
0403
0000
0000
4300
3000
0004
0003
,  // measure 68
4000
0000
0000
3400
0000
0000
0304
0000
,  // measure 69
0000
0043
0000
0000
4030
3000
0004
0003
,  // measure 70
0004
0000
0000
0403
0000
0000
4300
0000
,  // measure 71
0000
3040
0000
0000
0034
0000
0003
0000
,  // measure 72
4000
0000
0000
0000
0000
0000
3000
0400
0340
0000
0000
0000
0000
0000
0000
0000
,  // measure 73
0034
0000
0000
0000
0000
0000
0003
0400
0340
0000
0000
0000
0000
0000
0000
0000
,  // measure 74
4030
0000
3000
0440
,  // measure 75
0000
0330
4004
3003
,  // measure 76
4000
0000
0000
0000
0000
0000
3000
0040
0430
0000
0000
0000
0000
0000
0000
0000
,  // measure 77
0304
0000
0000
0000
0000
0000
0003
0040
0430
0000
0000
0000
0000
0000
0000
0000
,  // measure 78
4300
0000
3000
0440
,  // measure 79
0000
0330
4004
3003
,  // measure 80
4000
0000
0000
0000
0000
0000
3000
0400
0304
0000
0000
0000
0003
0000
0000
0000
,  // measure 81
0004
0000
0000
0000
0000
0000
0003
0400
4300
0000
0000
0000
3000
0000
0000
0000
,  // measure 82
0044
0000
0033
4040
,  // measure 83
0000
3030
4400
3300
,  // measure 84
4000
0000
0000
0000
0000
0000
3000
0040
0034
0000
0000
0000
0003
0000
0000
0000
,  // measure 85
0004
0000
0000
0000
0000
0000
0003
0040
4030
0000
0000
0000
3000
0000
0000
0000
,  // measure 86
0004
0400
0000
0003
0340
4000
0000
0030
,  // measure 87
3004
0040
0000
0003
0430
4000
0000
3300
,  // measure 88
4004
0000
3000
0040
0000
0033
0440
0000
,  // measure 89
0300
4000
0000
0030
3004
0403
4300
3040
,  // measure 90
0034
0000
0003
0440
,  // measure 91
0000
0330
4004
3003
,  // measure 92
4004
0000
0003
0040
0000
3030
0440
0000
,  // measure 93
0300
0004
0000
0030
4003
3400
0304
0043
,  // measure 94
4030
0000
3000
0440
,  // measure 95
0000
0330
4004
3003
,  // measure 96
4000
0004
0003
3040
0400
0300
0034
4000
,  // measure 97
3000
0403
0040
0330
0440
0000
0330
0000
,  // measure 98
0004
4000
3000
0043
0400
0300
4030
0004
,  // measure 99
0003
3400
0040
0330
0440
0000
0330
0000
,  // measure 100
0004
4000
3000
0403
0040
0030
4300
0004
,  // measure 101
0003
3040
0400
0330
0440
0000
0330
0000
,  // measure 102
4000
0004
0003
3400
0040
0030
0304
4000
,  // measure 103
3000
0043
0400
0330
0440
0000
0330
0000
;
