#VERSION:0.83;
#TITLE:Made In Love;
#SUBTITLE:;
#ARTIST:Chroma;
#TITLETRANSLIT:;
#SUBTITLETRANSLIT:;
#ARTISTTRANSLIT:;
#GENRE:;
#ORIGIN:;
#CREDIT:Karl with a K;
#BANNER:Made In Love banner.png;
#BACKGROUND:Made In Love bg.png;
#PREVIEWVID:;
#JACKET:;
#CDIMAGE:;
#DISCIMAGE:;
#LYRICSPATH:;
#CDTITLE:;
#MUSIC:Made in Love.ogg;
#OFFSET:0.009000;
#SAMPLESTART:29.998999;
#SAMPLELENGTH:10.909090;
#SELECTABLE:YES;
#BPMS:0.000=88.000,
108.000=44.000,
112.000=88.000,
128.000=176.000,
216.000=88.000,
232.000=176.000;
#STOPS:231.000=2.727;
#DELAYS:;
#WARPS:;
#TIMESIGNATURES:0.000=4=4;
#TICKCOUNTS:0.000=4;
#COMBOS:0.000=1;
#SPEEDS:0.000=1.000=0.000=0;
#SCROLLS:0.000=0.000,
19.000=0.500,
34.000=0.450,
34.500=0.400,
35.000=0.350,
35.500=0.300,
36.000=0.250,
36.250=0.200,
36.500=0.150,
36.750=0.100,
37.000=0.050,
39.000=1.000,
39.250=0.000,
39.750=1.000,
40.250=0.000,
40.750=1.000,
72.000=0.300,
76.000=0.400,
76.500=0.500,
77.000=0.600,
77.500=0.700,
78.000=0.800,
78.500=0.900,
79.000=0.500,
79.750=1.000,
80.000=2.000,
80.250=1.000,
80.500=0.500,
81.000=1.000,
83.000=0.500,
83.750=1.000,
84.000=2.000,
84.250=1.000,
84.500=0.500,
85.000=1.000,
87.750=2.000,
88.000=1.000,
95.000=0.500,
95.750=1.000,
96.000=1.080,
97.000=1.160,
98.000=1.240,
99.000=1.320,
100.000=1.400,
101.000=1.480,
102.000=1.560,
103.000=1.640,
104.000=1.720,
105.000=1.800,
106.000=1.880,
107.000=1.960,
107.500=0.000,
110.000=0.400,
110.500=0.800,
111.000=1.200,
111.500=1.600,
112.000=1.500,
114.000=1.550,
116.000=1.600,
118.000=1.650,
120.000=1.700,
121.000=1.750,
122.000=1.800,
123.000=1.850,
124.000=1.900,
125.000=1.950,
126.000=0.500,
128.000=1.000,
184.000=0.950,
191.250=0.000,
191.750=0.900,
199.250=0.000,
199.750=0.850,
207.250=0.000,
207.750=0.800,
215.250=0.000,
215.750=1.000,
231.000=2.000,
232.000=1.000;
#FAKES:;
#LABELS:0.000=Song Start;
#BGCHANGES:;
#KEYSOUNDS:;
#ATTACKS:
;

//---------------dance-single - XO+ FS SS- DS+ JA XMOD 24ths+ SKT STR[8*@132] AN JU+ Wadat- DR+----------------
#NOTEDATA:;
#CHARTNAME:;
#STEPSTYPE:dance-single;
#DESCRIPTION:XO+ FS SS- DS+ JA XMOD 24ths+ SKT STR[8*@132] AN JU+ Wadat- DR+;
#CHARTSTYLE:;
#DIFFICULTY:Challenge;
#METER:18;
#RADARVALUES:0.557747,1.142217,0.262172,0.722743,0.942400,551.000000,514.000000,37.000000,102.000000,67.000000,0.000000,0.000000,0.000000,0.000000,0.557747,1.142217,0.262172,0.722743,0.942400,551.000000,514.000000,37.000000,102.000000,67.000000,0.000000,0.000000,0.000000,0.000000;
#CREDIT:;
#NOTES:
// measure 0
0000
0000
0000
0000
,  // measure 1
0000
0000
0000
0000
,  // measure 2
0000
0000
0000
0000
,  // measure 3
0000
0000
0000
0000
,  // measure 4
0000
0000
0000
0000
0000
0000
0000
0000
0000
0000
0000
0000
0000
0000
0100
1000
,  // measure 5
0020
1000
0100
0032
0000
2003
3200
0310
,  // measure 6
2010
0000
0000
3001
0000
0000
2200
0000
0000
0000
3300
0000
0110
0000
0000
0000
,  // measure 7
0011
0000
0100
0200
0000
0000
2300
0000
3002
0000
0000
0000
0023
0000
0000
0000
,  // measure 8
0230
0000
0000
0000
1000
0010
0001
1300
,  // measure 9
0001
1000
0020
0000
0000
0000
0000
0000
0000
0000
0000
0000
0000
0000
0000
0000
0000
0000
0000
0000
0030
0000
0000
0000
00M0
0000
0000
0000
0000
0000
0000
0000
,  // measure 10
M000
0000
0000
0000
0000
0000
0000
0000
0002
0000
0203
0000
0310
0000
00M1
0000
1001
0000
0000
0000
1000
0000
0010
0001
0010
0000
1000
0000
0100
0000
1000
0000
,  // measure 11
2100
0100
0001
3200
M302
0103
1020
1030
,  // measure 12
M002
0000
0100
0000
1M03
0100
0010
0001
1000
0010
0001
0010
2000
0000
3001
0000
,  // measure 13
0102
0100
1000
0203
230M
3100
0021
103M
,  // measure 14
1000
0000
0000
0000
0100
0000
1000
0010
0001
0000
0010
0000
1000
0000
0100
0000
0010
0000
1000
0000
0001
0000
0100
0000
2000
0000
0001
0000
310M
0000
0000
0000
,  // measure 15
0021
0000
0031
002M
0100
0000
1030
0000
1200
0000
1300
0000
M200
0000
0310
0000
,  // measure 16
1020
0000
0000
0000
1030
0000
M020
0000
0100
0000
0000
0000
0130
0000
0010
0001
0020
0000
0000
0000
0130
0000
0000
0000
10M0
0000
0100
0000
0010
0000
0000
0000
,  // measure 17
2001
0000
0000
0000
0001
0000
0000
0000
010M
0000
0000
0000
3100
0000
0000
0000
2M00
0000
0000
0000
3010
0100
1000
0000
0220
0000
0000
0000
0000
0000
0030
0000
,  // measure 18
M0MM
M0MM
M0MM
M0MM
,  // measure 19
M0MM
0010
0010
0010
0010
0310
MMMM
0000
,  // measure 20
2002
0000
0000
0000
3003
0000
0000
0000
0101
0000
0000
0000
1010
0000
0000
0000
0100
0000
0000
0001
0010
0000
1000
0000
0010
0000
0000
0000
0000
0000
0000
0000
,  // measure 21
MMMM
0000
0000
0000
0000
0000
0000
0000
0000
0000
0000
0000
0000
0000
0000
0000
0000
0000
0000
0000
0000
0000
0000
0000
0110
0000
0000
0000
0000
0000
0000
0000
0000
0000
0000
0000
0000
0000
0000
0000
0000
0000
0000
0000
0000
0000
0000
0000
MMMM
0000
0000
0000
0000
0000
0000
0000
0000
0000
0000
0000
1000
0000
0000
0000
0000
0000
0000
0000
0000
0000
0000
0000
0010
0000
0000
0000
0000
0000
0000
0000
0000
0000
0000
0000
0000
0000
0000
0000
0000
0000
0000
0000
0000
0000
0000
0000
0001
0000
0000
0000
0000
0000
0000
0000
0000
0000
0000
0000
0010
0000
0000
0000
0000
0000
0000
0000
0000
0000
0000
0000
1000
0000
0000
0000
0000
0000
0100
0000
0000
0000
0000
0000
1000
0000
0000
0000
0000
0000
0100
0000
0000
0000
0000
0000
1000
0000
0000
0000
0000
0000
0000
0000
0001
0000
0000
0000
0000
0000
0000
0000
0100
0000
0000
0000
0000
0000
0000
0000
1000
0000
0000
0000
0000
0000
0000
0000
0000
0000
0000
0000
0220
0000
0000
0000
0000
0000
0000
0000
0000
0000
0000
0000
,  // measure 22
0330
0010
0100
0001
0010
00M0
1000
0000
1100
0100
0010
0110
0010
0001
0101
0100
,  // measure 23
0010
0100
0010
0100
0010
0000
1010
0000
1000
0001
1000
0000
0011
0000
0001
0010
0001
0000
1010
0000
1000
0010
1000
0000
0220
0000
0000
0000
0000
0000
0330
0000
,  // measure 24
1000
0000
0100
1000
0020
0000
0130
0000
01M0
1000
0020
0000
0130
0001
0010
0001
0200
0000
2300
0000
3002
0000
1003
0100
0001
0010
0001
0100
1000
0000
0100
0000
,  // measure 25
0001
0000
0100
0001
0020
0000
0130
0000
01M0
0001
0020
0000
0130
1000
0010
1000
0200
0000
0302
0000
2003
0000
3001
0100
1000
0010
1000
0100
2000
0000
0000
0000
,  // measure 26
3001
0000
1000
0010
0001
0000
1000
0000
0001
0010
1000
0000
0200
0000
0000
0000
1300
0010
1000
0100
1000
0010
1000
0100
1000
0010
1000
0100
0002
0000
0000
0000
,  // measure 27
0000
0000
0000
0000
0000
0000
0000
0000
0000
0000
0000
0000
0000
0003
000M
0000
,  // measure 28
2100
0010
0001
3100
,  // measure 29
0102
0010
1000
0103
,  // measure 30
0001
0100
0001
1000
0100
1000
0001
1000
0001
1000
0010
1000
0001
0100
1000
0001
0010
1000
0001
1000
0100
0001
1000
0010
,  // measure 31
0001
0100
0001
0100
0010
1000
0100
1000
0100
1000
0001
0010
0001
0100
0001
0100
0010
1000
0100
1000
0100
1000
0100
0010
0000
0000
0000
0000
0000
0000
0000
0000
0000
0000
0000
0000
0110
0000
0000
0000
0000
0000
0000
0000
0000
0000
0000
0000
,  // measure 32
1002
0000
0000
0000
0000
0000
1003
0100
0010
0001
0010
0100
0010
0000
0001
0000
0100
0000
0010
0000
1000
0000
0100
0000
,  // measure 33
1000
0100
0001
0100
1000
0010
0001
0010
1000
0001
1000
0100
,  // measure 34
0020
0000
0000
0000
0000
0000
0031
0100
0010
1000
0010
0100
0010
0000
1000
0000
0100
0000
0010
0000
0001
0000
0100
0000
,  // measure 35
0001
0100
1000
0100
0001
0010
0001
0010
001M
1000
0100
M100
,  // measure 36
0020
0000
0000
0000
0000
0000
1030
0010
1000
0001
1000
0001
0010
0000
0001
0000
0100
0000
0010
0000
1000
0000
0100
0000
,  // measure 37
0010
0001
0100
1000
0100
0010
1000
0100
1000
0001
0010
0001
,  // measure 38
1000
0010
M010
0001
0200
0000
0301
0010
001M
1000
0200
0000
,  // measure 39
1300
0100
1000
0100
1000
0100
0010
0001
0010
0001
0010
0001
1000
0010
1000
0010
1000
0010
0100
0001
0100
0001
0000
0000
,  // measure 40
0210
0000
0300
02M0
0000
0301
1000
0000
10M0
0100
0000
0100
,  // measure 41
1000
0000
1000
0010
0000
0010
0200
0000
0000
1300
0000
0001
,  // measure 42
0020
0000
0030
002M
0000
1030
0001
0000
0001
0100
0000
010M
,  // measure 43
1000
0000
1000
0001
0000
0001
0010
0000
0000
0110
0000
0000
,  // measure 44
0020
0000
0001
0000
1000
0000
0M00
0000
1000
0000
0001
0000
0M00
0000
0031
0000
0100
0000
0001
1000
0001
1000
0001
0000
,  // measure 45
0020
0000
0001
0100
M000
0130
0020
0000
1000
0100
000M
0130
,  // measure 46
0020
0000
0100
0000
,  // measure 47
0002
0000
0000
0033
,  // measure 48
002M
0000
0200
0300
,  // measure 49
2000
0000
0000
3030
,  // measure 50
M020
0000
0200
0300
,  // measure 51
2000
0000
0000
3030
,  // measure 52
M020
0000
0200
0300
,  // measure 53
0002
0000
0000
0000
0000
0000
0000
0000
0000
0000
0000
0000
0033
00MM
0000
0000
,  // measure 54
0201
0000
0000
0000
0300
0002
0203
0310
,  // measure 55
0210
0000
0000
1300
0000
0000
MM22
0000
0000
0000
0000
0000
0000
0000
0000
0033
,  // measure 56
0010
0001
0010
0001
0020
0000
0000
0030
0002
0000
0000
0003
0010
0000
0001
0010
0002
0000
0000
0003
0010
0000
0001
0000
0010
0000
0001
0010
0002
0000
0003
0010
0000
0001
0000
0010
0000
0002
0000
0003
0020
0000
0030
0002
0000
0003
0020
0000
,  // measure 57
0000
0030
0002
0000
0000
0000
0000
0020
0000
0000
0000
0000
0000
0000
0000
0000
0000
0000
0000
0000
0000
0000
0000
0000
0000
0000
0000
0000
0000
0000
0000
0000
0000
0033
0000
0000
00MM
0000
0000
0000
0000
0000
0000
0000
0000
0000
0000
0000
,  // measure 58
2002
0000
0000
0000
,  // measure 59
0000
0000
0000
3000
,  // measure 60
1003
0100
0010
0100
0010
0001
1000
0100
0001
1000
0010
0001
,  // measure 61
1000
0100
1000
0100
0010
0001
0010
0001
2002
0000
0000
0000
0000
0000
0000
0000
,  // measure 62
3003
0000
0000
0000
;

//---------------dance-single - XO FS+ DS JA- XMOD SKT JU+ Wadat-----------------
#NOTEDATA:;
#CHARTNAME:;
#STEPSTYPE:dance-single;
#DESCRIPTION:XO FS+ DS JA- XMOD SKT JU+ Wadat-;
#CHARTSTYLE:;
#DIFFICULTY:Hard;
#METER:14;
#RADARVALUES:0.357323,0.762600,0.262172,0.439314,0.414514,353.000000,316.000000,37.000000,62.000000,26.000000,0.000000,7.000000,0.000000,0.000000,0.357323,0.762600,0.262172,0.439314,0.414514,353.000000,316.000000,37.000000,62.000000,26.000000,0.000000,7.000000,0.000000,0.000000;
#CREDIT:;
#NOTES:
// measure 0
0000
0000
0000
0000
,  // measure 1
0000
0000
0000
0000
,  // measure 2
0000
0000
0000
0000
,  // measure 3
0000
0000
0000
0000
,  // measure 4
0000
0000
0000
0000
,  // measure 5
2000
0100
0010
3002
0000
0100
1000
0013
,  // measure 6
200M
0000
0000
3020
0000
0000
0230
0000
0000
0000
0000
0000
1300
0000
0000
0000
,  // measure 7
M101
0000
0100
0200
0000
0000
0301
0000
2000
0000
0000
0000
3020
0000
0000
0000
,  // measure 8
0230
0000
0000
0000
,  // measure 9
0001
0020
M000
0000
0000
0000
0000
0000
0000
0000
0000
0000
0000
0000
0000
0000
0000
0000
0000
0000
0000
0000
0000
0000
0330
0000
0000
0000
0000
0000
0000
0000
,  // measure 10
0000
0000
0000
0000
1000
0100
0010
0100
1000
0000
0001
0100
0001
1000
0100
0000
,  // measure 11
0210
0000
0010
1300
M200
0000
0010
0310
,  // measure 12
02M0
0000
0000
0000
1300
0100
1000
0100
0010
0001
0010
0100
1000
0000
0000
0000
,  // measure 13
1002
0000
1000
0103
0M02
0000
0013
0000
,  // measure 14
101M
0000
0001
0100
0010
1000
0010
0100
0001
1000
0010
0001
1000
0100
0001
0000
,  // measure 15
2010
0000
0000
0001
0000
0000
3100
0000
2M00
0000
0000
0000
3010
0000
0000
0000
,  // measure 16
0012
0000
0000
1000
0000
0000
0103
0000
0M02
0000
1000
0003
1000
0100
0001
0000
,  // measure 17
0101
0100
1000
0100
0011
0010
2000
0000
,  // measure 18
3000
0000
0000
0000
,  // measure 19
0000
0000
0000
0000
,  // measure 20
1001
0000
0000
0000
0000
0000
0000
0000
0110
0000
0000
0000
0010
0000
0000
0000
0001
0000
0000
1000
0100
0000
1000
0000
0010
0000
0000
0000
0000
0000
0000
0000
,  // measure 21
0000
0000
0000
0000
0000
0000
0110
0000
0000
0000
0000
0000
0000
0000
0000
0000
0000
0000
1001
0000
0000
0000
0000
0000
1000
0000
0000
0100
0000
0000
0010
0000
0000
0001
0000
0000
0010
0000
0100
0000
0010
0000
0100
0000
0000
2002
0000
0000
,  // measure 22
3003
0010
1000
0100
1000
0010
0100
0000
0101
0000
0001
0011
0000
0010
1010
0000
,  // measure 23
1100
0000
1000
1010
0000
0010
0011
0000
0001
0101
0000
0001
2002
0000
0000
3003
,  // measure 24
1000
0100
0010
0001
0100
0010
1000
0100
1000
0100
0010
0001
0010
0001
0100
0001
,  // measure 25
0001
0100
0010
1000
0100
0010
0001
0100
1000
0100
0001
0100
0010
1000
0200
0000
,  // measure 26
1300
0000
1000
0000
0010
0000
0010
0000
0100
0000
0100
0000
0002
0000
0000
0000
1003
0010
1000
0000
0001
0010
0001
0000
1000
0010
1000
0000
1010
0000
0000
0000
,  // measure 27
0000
0000
0000
0000
,  // measure 28
0120
0001
1000
0030
,  // measure 29
M020
1000
0001
0030
,  // measure 30
4000
0000
0000
0000
0000
0000
3040
0000
0000
0000
0000
0000
0034
0000
0000
0000
0000
0003
00M4
0000
0000
0000
0000
0000
,  // measure 31
0043
4030
3020
0031
,  // measure 32
1001
0000
0000
1000
0100
1000
0010
0000
0010
0001
0000
0001
,  // measure 33
1000
0000
1000
0100
0000
0100
0010
0000
0010
1000
0001
0000
,  // measure 34
1001
0000
0000
0001
0100
0001
0010
0000
0010
1000
0000
1000
,  // measure 35
0001
0000
0001
0100
0000
0100
0010
0000
0010
0001
1000
0001
,  // measure 36
1001
0000
0000
1000
0010
0001
1000
0000
1000
0100
0000
0100
,  // measure 37
0001
0000
0001
0010
0000
0010
1000
0000
0010
0001
0010
0001
,  // measure 38
1000
0000
1000
0001
0100
0000
0001
0000
0001
1000
0100
0000
,  // measure 39
1000
0100
0010
0001
0100
0010
1000
0100
0010
0001
0100
0000
,  // measure 40
2010
0000
0000
3001
0000
0001
2000
0000
0000
3200
0000
0000
,  // measure 41
M302
0M23
023M
0301
,  // measure 42
0012
0000
0000
1003
0000
1000
0002
0000
0000
0203
0000
0000
,  // measure 43
230M
3M02
M023
1030
,  // measure 44
1000
0100
1000
0001
0010
0001
1000
0001
0010
0100
0000
0000
,  // measure 45
0022
0033
2200
3300
,  // measure 46
2020
0000
0000
0000
,  // measure 47
0000
0000
0000
0000
0000
0000
0000
0000
0000
0000
0000
0000
0000
3030
0000
0000
,  // measure 48
0022
0000
0000
0000
,  // measure 49
0000
0000
0000
0000
0000
0000
0000
0000
0000
0000
0000
0000
0000
0033
0000
0000
,  // measure 50
0220
0000
0000
0000
,  // measure 51
0000
0000
0000
0000
0000
0000
0000
0000
0000
0000
0000
0000
0000
0330
0000
0000
,  // measure 52
2002
0000
0000
0000
,  // measure 53
0000
0000
0000
0000
0000
0000
0000
0000
0000
0000
0000
0000
0000
3003
0000
0000
,  // measure 54
0201
0000
0000
0000
0300
020M
2300
3M20
,  // measure 55
M032
0000
0000
20M3
0000
0000
302M
0000
0000
0000
0000
0000
0000
0000
0000
0000
,  // measure 56
4000
0000
0000
0000
,  // measure 57
0000
0000
0000
0000
0000
3030
MMMM
0000
,  // measure 58
0220
0000
0000
0000
,  // measure 59
0000
0000
0000
0330
,  // measure 60
0001
0100
0001
0100
0001
0100
0010
0100
0010
0100
0010
0100
,  // measure 61
0010
1000
0010
1000
0010
0000
0000
0000
1001
0000
0000
0000
0000
0000
0000
0000
;

//---------------dance-single - XMOD JU-----------------
#NOTEDATA:;
#CHARTNAME:;
#STEPSTYPE:dance-single;
#DESCRIPTION:XMOD JU-;
#CHARTSTYLE:;
#DIFFICULTY:Beginner;
#METER:4;
#RADARVALUES:0.076931,0.152520,0.092114,0.028343,0.000000,76.000000,63.000000,13.000000,4.000000,0.000000,0.000000,0.000000,0.000000,0.000000,0.076931,0.152520,0.092114,0.028343,0.000000,76.000000,63.000000,13.000000,4.000000,0.000000,0.000000,0.000000,0.000000,0.000000;
#CREDIT:;
#NOTES:
// measure 0
0000
0000
0000
0000
,  // measure 1
0000
0000
0000
0000
,  // measure 2
0000
0000
0000
0000
,  // measure 3
0000
0000
0000
0000
,  // measure 4
0000
0000
0000
0000
,  // measure 5
1000
0000
0000
0000
,  // measure 6
0001
0000
0000
0000
,  // measure 7
0010
0000
0000
0000
,  // measure 8
0100
0000
0000
0000
,  // measure 9
0110
0000
0000
0000
,  // measure 10
0000
0000
0000
0000
,  // measure 11
1000
0000
1000
0000
,  // measure 12
0001
0000
0000
0000
,  // measure 13
0001
0000
0001
0000
,  // measure 14
1000
0000
0000
0000
,  // measure 15
0010
0000
0100
0000
,  // measure 16
0010
0000
0100
0000
,  // measure 17
0010
0000
0100
0000
,  // measure 18
0110
0000
0000
0000
,  // measure 19
0000
0000
0000
0000
,  // measure 20
0000
1001
0000
0000
,  // measure 21
0000
0010
0000
0000
,  // measure 22
0000
0010
0000
0000
,  // measure 23
0000
0000
0000
0000
,  // measure 24
1000
0000
0010
0000
,  // measure 25
0100
0000
0001
0000
,  // measure 26
0010
0010
0010
0010
,  // measure 27
0000
0000
0000
0000
,  // measure 28
1001
0000
0000
0000
,  // measure 29
0000
0000
0000
0000
,  // measure 30
1000
0000
0100
0000
,  // measure 31
0010
0000
0001
0000
,  // measure 32
1001
0000
0010
0000
,  // measure 33
1000
0000
0100
0000
,  // measure 34
0110
0000
0010
0000
,  // measure 35
0001
0000
0100
0000
,  // measure 36
0110
0000
0010
0000
,  // measure 37
1000
0000
0100
0000
,  // measure 38
0010
0000
0001
0000
,  // measure 39
0100
0000
0010
0000
,  // measure 40
0110
0000
0000
0000
,  // measure 41
1000
0000
0100
0000
,  // measure 42
0110
0000
0000
0000
,  // measure 43
1000
0000
0010
0000
,  // measure 44
0110
0000
0001
0000
,  // measure 45
0010
0000
0100
0000
,  // measure 46
0220
0000
0000
0000
,  // measure 47
0000
0000
0000
0000
,  // measure 48
0000
0000
0000
0000
,  // measure 49
0000
0000
0000
0000
,  // measure 50
0000
0000
0000
0000
,  // measure 51
0000
0000
0000
0000
,  // measure 52
0000
0000
0000
0000
,  // measure 53
0000
0000
0000
0330
,  // measure 54
0000
0000
0000
0000
,  // measure 55
0000
0000
0000
0000
,  // measure 56
0000
0000
0000
0000
,  // measure 57
0000
0000
0000
0000
,  // measure 58
2002
0000
0000
0000
,  // measure 59
0000
0000
0000
0000
,  // measure 60
0000
0000
0000
0000
,  // measure 61
3003
0000
1001
0000
;

//---------------dance-single - XO- FS+ DS- JA- XMOD AN- JU----------------
#NOTEDATA:;
#CHARTNAME:;
#STEPSTYPE:dance-single;
#DESCRIPTION:XO- FS+ DS- JA- XMOD AN- JU;
#CHARTSTYLE:;
#DIFFICULTY:Medium;
#METER:11;
#RADARVALUES:0.223706,0.588292,0.127543,0.382629,0.106286,221.000000,203.000000,18.000000,54.000000,12.000000,0.000000,2.000000,0.000000,0.000000,0.223706,0.588292,0.127543,0.382629,0.106286,221.000000,203.000000,18.000000,54.000000,12.000000,0.000000,2.000000,0.000000,0.000000;
#CREDIT:;
#NOTES:
// measure 0
0000
0000
0000
0000
,  // measure 1
0000
0000
0000
0000
,  // measure 2
0000
0000
0000
0000
,  // measure 3
0000
0000
0000
0000
,  // measure 4
0000
0000
0000
0000
,  // measure 5
0002
0000
0000
2000
0003
3001
0100
0010
,  // measure 6
0002
0000
0000
0023
0000
0000
2030
0000
0000
0000
0000
0000
3001
0000
0000
0000
,  // measure 7
0011
0000
0000
0100
0000
0000
1000
0000
0020
0000
0000
0000
0032
0000
0000
0000
,  // measure 8
0203
0000
0000
0000
,  // measure 9
0310
0000
0000
0000
,  // measure 10
0000
0000
0001
0000
1000
0000
0001
1000
,  // measure 11
0100
1000
0010
0001
,  // measure 12
0010
0000
1000
0100
0010
0001
1000
0000
,  // measure 13
M100
0001
0010
1000
,  // measure 14
0010
0100
1000
0010
0100
0001
1001
0000
,  // measure 15
0120
1000
0130
0M20
,  // measure 16
0001
0000
0130
0000
0M20
0000
1030
0100
,  // measure 17
1000
0000
0001
0100
0001
0000
0100
0000
,  // measure 18
0000
0000
0000
0000
,  // measure 19
0000
0000
0000
0110
,  // measure 20
1001
0000
0000
0000
1000
0000
0010
0000
M010
0000
0001
0000
0020
0000
0000
0030
,  // measure 21
002M
0000
0000
0000
0000
0000
0130
0000
0000
0000
0000
0000
0M20
0000
0000
0000
0000
0000
0130
0000
0000
0000
0000
0000
0M10
0000
0000
0100
0000
0000
0004
0000
0000
0000
0000
0000
4000
0000
0000
0000
0003
0000
3001
0000
0000
1001
0000
0000
,  // measure 22
0000
0010
1000
0000
0001
0010
0000
0000
1010
0000
0000
0101
0000
0000
0011
0000
,  // measure 23
1100
0000
0000
0110
0000
0000
1001
0000
0000
0110
0000
0000
1001
0000
0000
0000
,  // measure 24
1000
0100
0010
0000
0100
0010
0000
0000
0001
0100
0010
0000
1000
0010
1000
0100
,  // measure 25
1000
0100
0010
0000
0001
0010
0000
0000
0001
0100
0010
0000
1000
0010
0100
0000
,  // measure 26
0001
0100
1000
0100
0001
0010
0001
0000
0010
0010
1000
1000
0001
0001
0100
0000
,  // measure 27
0000
0000
0000
0000
,  // measure 28
2100
0010
0001
3000
,  // measure 29
0102
0010
1000
0003
,  // measure 30
1000
0100
0010
0001
,  // measure 31
0100
0010
0000
0000
,  // measure 32
1000
0000
0000
0100
0000
0100
0010
0000
0000
0010
0000
0000
,  // measure 33
0001
0100
0010
0010
,  // measure 34
1000
0000
0000
0001
0000
0001
0010
0000
0000
0010
0000
0000
,  // measure 35
0001
1000
0010
0001
,  // measure 36
1000
0000
0000
0100
0000
0100
0010
0000
0000
1000
0000
0000
,  // measure 37
0100
0001
0100
0010
,  // measure 38
0M20
0130
0M20
0130
,  // measure 39
0M20
0032
2003
3002
,  // measure 40
0023
2030
3200
0302
,  // measure 41
2003
0000
0000
3020
0000
0000
0032
0000
0000
0000
0000
0003
,  // measure 42
00M2
0023
2030
3200
,  // measure 43
2300
0000
0000
3020
0000
0000
0032
0000
0000
0000
0000
0003
,  // measure 44
00M2
0000
0000
0023
0000
0000
0230
0000
0000
1300
0010
1000
,  // measure 45
0020
0000
0200
0330
,  // measure 46
0002
0000
0000
0000
,  // measure 47
0000
0000
0000
0000
0000
0000
0000
0000
0000
0000
0000
0000
0000
0003
0000
0000
,  // measure 48
2000
0000
0000
0000
,  // measure 49
0000
0000
0000
0000
0000
0000
0000
0000
0000
0000
0000
0000
0000
3000
0000
0000
,  // measure 50
0002
0000
0000
0000
,  // measure 51
0000
0000
0000
0000
0000
0000
0000
0000
0000
0000
0000
0000
0000
0003
0000
0000
,  // measure 52
2000
0000
0000
0000
,  // measure 53
0000
0000
0000
0000
0000
0000
0000
0000
0000
0000
0000
0000
0000
3000
0000
0000
,  // measure 54
0200
0000
0000
0000
0300
0200
2300
3020
,  // measure 55
0032
0000
0000
0023
0000
0000
0002
0000
0000
0000
0000
0000
0000
0000
0000
0000
,  // measure 56
0000
0000
0000
0000
,  // measure 57
0000
0000
0000
0033
,  // measure 58
2002
0000
0000
0000
,  // measure 59
0000
0000
0000
0000
,  // measure 60
0000
0000
0000
0000
,  // measure 61
0000
3003
1001
0000
;

//---------------dance-single - XO- FS XMOD JU-----------------
#NOTEDATA:;
#CHARTNAME:;
#STEPSTYPE:dance-single;
#DESCRIPTION:XO- FS XMOD JU-;
#CHARTSTYLE:;
#DIFFICULTY:Easy;
#METER:7;
#RADARVALUES:0.146776,0.326829,0.113371,0.318857,0.010629,145.000000,129.000000,16.000000,45.000000,10.000000,0.000000,2.000000,0.000000,0.000000,0.146776,0.326829,0.113371,0.318857,0.010629,145.000000,129.000000,16.000000,45.000000,10.000000,0.000000,2.000000,0.000000,0.000000;
#CREDIT:;
#NOTES:
// measure 0
0000
0000
0000
0000
,  // measure 1
0000
0000
0000
0000
,  // measure 2
0000
0000
0000
0000
,  // measure 3
0000
0000
0000
0000
,  // measure 4
0000
0000
0000
0000
,  // measure 5
2000
0000
0000
3000
,  // measure 6
0020
0000
0000
0230
0000
0300
02M0
0000
,  // measure 7
0310
0000
0000
0001
0000
0000
0000
0000
1000
0000
0000
0000
0010
0000
0000
0000
,  // measure 8
0200
0000
0000
0000
,  // measure 9
0300
0000
0000
0000
,  // measure 10
0000
0000
0000
0000
,  // measure 11
2000
0000
0100
3001
,  // measure 12
200M
0000
3100
0001
,  // measure 13
0002
0000
0000
0000
0100
0000
0023
0030
,  // measure 14
002M
1000
0130
10M0
,  // measure 15
0210
0301
0100
0M10
,  // measure 16
0210
0000
1300
0000
1020
0000
0130
0001
,  // measure 17
0100
0001
1001
0110
,  // measure 18
0000
0000
0000
0000
,  // measure 19
0000
0000
0000
0000
,  // measure 20
1001
0000
010M
1001
0000
M100
0110
0000
,  // measure 21
0000
0000
1001
0000
0000
0000
1000
0000
0020
0000
0000
0000
0130
0000
0000
0120
,  // measure 22
0000
0030
0M20
0030
1000
0000
0000
0100
,  // measure 23
0100
0000
0000
0010
0000
0000
0001
0000
,  // measure 24
1000
0010
1000
0000
0001
0010
0001
0000
,  // measure 25
0001
0100
0001
0000
1000
0010
1000
1000
,  // measure 26
0001
0001
0001
0001
1000
1000
1000
1000
,  // measure 27
0000
0000
0000
0000
,  // measure 28
2002
0000
0000
0000
,  // measure 29
0000
0000
0000
3003
,  // measure 30
0400
0040
0000
0000
0000
0000
0000
0000
0000
0000
0000
0000
,  // measure 31
0000
0000
0330
0000
,  // measure 32
1001
1000
0010
0100
,  // measure 33
0001
0100
0010
0000
,  // measure 34
1001
0001
0010
0100
,  // measure 35
1000
0100
0010
0010
,  // measure 36
1001
1000
0010
0001
,  // measure 37
0010
1000
0100
0010
,  // measure 38
0001
0010
1000
0010
,  // measure 39
0002
0203
0320
2030
,  // measure 40
3020
0000
2030
0000
,  // measure 41
3002
0023
0230
0000
,  // measure 42
0320
0000
0032
0000
,  // measure 43
2003
0000
0000
3200
0000
0000
0320
0000
0000
0000
0000
0030
,  // measure 44
0M20
0000
0000
2030
0000
0000
3200
0000
0000
0302
0000
0003
,  // measure 45
0M02
0000
0203
0000
,  // measure 46
0320
0000
0000
0000
,  // measure 47
0000
0000
0000
0000
0000
0000
0000
0000
0000
0000
0000
0000
0000
0030
0000
0000
,  // measure 48
0020
0000
0000
0000
,  // measure 49
0000
0000
0000
0000
0000
0000
0000
0000
0000
0000
0000
0000
0000
0030
0000
0000
,  // measure 50
0020
0000
0000
0000
,  // measure 51
0000
0000
0000
0000
0000
0000
0000
0000
0000
0000
0000
0000
0000
0030
0000
0000
,  // measure 52
0020
0000
0000
0000
,  // measure 53
0000
0000
0000
0000
0000
0000
0000
0000
0000
0000
0000
0000
0000
0030
0000
0000
,  // measure 54
0200
0000
0000
0000
,  // measure 55
0000
0000
0000
0000
,  // measure 56
0000
0000
0000
0000
,  // measure 57
0000
0000
0000
0300
,  // measure 58
0220
0000
0000
0000
,  // measure 59
0000
0000
0000
0000
,  // measure 60
0000
0000
0000
0000
,  // measure 61
0000
0330
0110
0000
;
