#VERSION:0.83;
#TITLE:Beat Prisoner;
#SUBTITLE:;
#ARTIST:AJURIKA;
#TITLETRANSLIT:;
#SUBTITLETRANSLIT:;
#ARTISTTRANSLIT:;
#GENRE:;
#ORIGIN:;
#CREDIT:;
#BANNER:Beat_Prisoner-bn.png;
#BACKGROUND:Beat Prisoner-bg.png;
#PREVIEWVID:;
#JACKET:Beat Prisoner-jacket.png;
#CDIMAGE:;
#DISCIMAGE:;
#LYRICSPATH:;
#CDTITLE:;
#MUSIC:Beat Prisoner.ogg;
#OFFSET:-0.129000;
#SAMPLESTART:38.839157;
#SAMPLELENGTH:12.000000;
#SELECTABLE:YES;
#BPMS:0.000=77.500,
8.000=310.000,
12.000=155.000,
24.000=77.500,
25.500=310.000,
26.500=155.000,
56.000=206.667,
60.000=155.000,
61.000=206.667,
65.000=310.000,
67.000=155.000,
82.500=206.667,
86.500=155.000,
91.500=38.750,
99.000=155.000,
101.000=77.500,
101.500=155.000,
102.000=310.000,
104.000=155.000,
104.500=77.500,
105.500=155.000,
106.000=310.000,
108.000=155.000,
108.500=77.500,
109.500=155.000,
110.000=310.000,
112.000=155.000,
112.500=77.500,
113.500=155.000,
114.000=310.000,
116.000=155.000,
116.500=77.500,
117.500=155.000,
118.000=310.000,
120.000=155.000,
120.500=77.500,
121.500=155.000,
122.000=310.000,
124.000=155.000,
124.500=77.500,
125.500=155.000,
126.000=310.000,
128.000=155.000,
128.500=77.500,
129.500=155.000,
130.000=310.000,
132.000=155.000,
132.500=77.500,
133.000=155.000,
159.000=38.750,
159.750=155.000,
160.000=310.000,
176.000=620.000,
178.000=310.000,
180.000=620.000,
182.000=310.000,
186.000=620.000,
188.000=310.000,
188.500=620.000,
190.500=310.000,
191.000=620.000,
193.000=310.000,
195.000=620.000,
196.000=310.000,
213.000=620.000,
217.000=310.000,
229.000=620.000,
231.000=310.000,
247.000=620.000,
249.000=310.000,
251.000=620.000,
253.000=310.000,
263.000=620.000,
267.000=310.000,
295.500=620.000,
296.500=310.000,
297.500=620.000,
298.500=310.000,
316.000=620.000,
318.000=310.000,
320.000=620.000,
322.000=310.000,
332.000=155.000,
333.000=310.000,
361.000=413.334,
362.000=310.000;
#STOPS:8.000=0.194,
8.500=0.194,
9.000=0.194,
9.500=0.194,
28.500=0.194,
32.000=0.194,
35.500=0.194,
43.000=0.194,
46.500=0.194,
50.000=0.194,
73.250=0.194,
145.000=0.387,
146.000=0.387,
159.750=0.290,
195.000=0.097,
229.000=0.048,
229.500=0.048,
230.000=0.048,
230.500=0.048,
360.500=0.097,
361.000=0.145;
#DELAYS:;
#WARPS:;
#TIMESIGNATURES:0.000=4=4;
#TICKCOUNTS:0.000=4;
#COMBOS:0.000=1;
#SPEEDS:0.000=1.000=0.000=0;
#SCROLLS:0.000=1.000;
#FAKES:;
#LABELS:0.000=Song Start;
#BGCHANGES:;
#KEYSOUNDS:;
#ATTACKS:
;

//---------------dance-single - ----------------
#NOTEDATA:;
#CHARTNAME:;
#STEPSTYPE:dance-single;
#DESCRIPTION:;
#CHARTSTYLE:;
#DIFFICULTY:Challenge;
#METER:18;
#RADARVALUES:0.921435,2.454368,1.298386,0.619875,0.611498,770.000000,615.000000,155.000000,74.000000,92.000000,0.000000,0.000000,0.000000,0.000000,0.921435,2.454368,1.298386,0.619875,0.611498,770.000000,615.000000,155.000000,74.000000,92.000000,0.000000,0.000000,0.000000,0.000000;
#CREDIT:Karl with a K;
#NOTES:
0000
0000
0000
0000
,
0000
0000
0000
0000
,
MMMM
MMMM
MMMM
MMMM
MMMM
0000
MMMM
0000
,
1100
0000
0001
0010
0001
0000
0010
0000
0101
0000
0010
1000
0010
0000
1000
0000
,
1010
0000
0001
0100
0001
0000
0100
0000
0011
0000
1000
0100
1000
0000
0010
0000
,
0100
0000
0010
0000
0100
0000
0001
0000
0010
0000
0001
0000
1000
0000
0100
0000
0001
0000
1000
0000
0001
0000
0001
0000
0010
1000
0010
1000
0001
0100
0001
0100
,
MMMM
0000
1000
0100
1000
0100
1000
1000
0010
0000
1100
0000
0011
0000
0000
0000
0000
0000
0000
0000
MMMM
0000
0000
0000
0210
0000
0000
0000
0310
0000
0100
0000
,
0010
0000
0011
1100
0000
0000
1001
0000
1100
0000
1010
0000
1000
0010
1000
0000
,
0110
1001
0000
0000
1100
0000
1001
0000
0110
0000
1000
0001
0100
0000
1010
0101
,
0000
0000
1100
0000
0110
0000
0011
0000
0000
0001
0100
0000
1000
0100
0000
2002
,
3003
0000
0110
0000
0010
0100
0010
0000
0000
0001
0010
0000
1100
0101
0000
0000
,
0011
0000
1010
0000
0101
0000
1000
0001
1000
0000
0110
1010
0000
0000
1001
0000
,
0011
0000
1010
0000
0001
0010
0100
0000
0011
1010
0000
0000
0101
0000
1100
0000
,
0110
0000
1000
0001
1000
0000
1000
0100
0000
1000
0000
0000
0010
0000
0100
0010
,
1010
0101
0110
1001
,
1100
0000
0000
MMMM
0000
0000
0011
0000
0000
0000
0010
0000
0001
0000
0000
0000
0000
0000
0110
0000
0000
0000
0000
0000
,
1100
0000
0000
0000
0110
0000
0000
0000
0010
0000
0100
0000
0110
0000
1000
0001
,
1000
0000
0100
0000
0001
1000
0000
0000
0100
0000
0010
0100
0010
0000
0100
0010
,
0100
0000
1000
1000
0000
0001
0100
0000
1000
0010
1000
0000
0010
0000
0100
0000
,
1100
0000
0000
1010
0000
0000
1001
0000
0010
0000
1000
0000
0010
0000
1000
0000
,
1010
0000
0000
0000
0000
0000
0000
0000
0000
0101
0000
0000
0000
0000
0000
0000
0000
0000
0110
0000
0000
0000
0000
0000
0010
0000
0000
0000
0000
0000
1000
0000
0000
0000
0100
0000
0000
0000
0010
0000
0000
0000
1000
0000
0000
0000
0010
0000
,
0000
0100
0000
0001
0000
1000
0000
0001
0000
0100
0000
0010
0000
0100
0000
0101
0000
0000
1010
0000
0000
1001
0000
0000
,
0000
0000
0100
0000
1100
0000
0000
0000
0100
0000
0000
0000
0011
0000
0000
0000
0001
0000
1000
0000
1010
0000
0000
0000
0010
0000
1000
0000
0120
0100
0100
0100
,
0100
0100
0100
0100
1000
1000
1000
1000
1000
1000
1000
1000
0100
0100
0100
0100
0100
0100
0100
0100
1000
1000
1000
1000
1000
1000
1000
1000
0001
0001
0001
0001
,
0001
0001
0001
0001
0100
0100
0100
0100
0100
0100
0100
0100
0001
0001
0001
0001
0001
0001
0001
0001
0100
0100
0100
0100
0230
0000
0000
0000
0000
0000
0000
0000
,
0320
0130
0021
0100
1000
0030
2200
0000
,
3000
0000
0320
0031
1002
0000
1000
0000
0000
0000
0003
0000
0110
0000
0000
0000
,
0020
0000
2030
3100
1020
0000
0100
0000
0001
0000
0030
0000
1002
0000
0000
0000
,
0000
0000
2003
3001
0012
0000
0100
0000
0100
0000
0003
0000
2020
0000
0000
0000
,
3000
0000
0000
0130
2001
0000
0000
0000
0000
0000
3000
0000
1020
0000
0000
0000
,
0000
0000
0230
0310
0102
0000
1000
0000
0000
0000
0003
0000
0120
0000
0000
0000
,
2030
0000
3200
0310
1002
0000
0010
0000
0010
0000
0003
0000
0220
0000
0000
0300
,
0000
0000
0230
1300
2001
0000
0100
0000
0010
0000
3000
0000
0102
0000
0000
0000
,
0000
0000
0003
0000
1010
0000
1000
0100
1000
0000
0100
0000
0001
0000
1000
0000
,
0001
0220
0000
0330
,
0000
0000
0000
0000
1001
0000
0100
0010
0001
0000
1000
0000
0001
0000
0100
0000
,
0100
0000
0000
0000
0220
0000
0330
0000
2002
0000
3003
0000
1100
0000
0010
0001
,
1000
0000
0100
0000
1010
0000
0100
0010
0001
0000
1000
0000
0110
0000
0001
1000
,
0001
0000
1000
0000
0110
0000
1000
0001
1000
0000
0100
0000
0010
0100
0001
0010
,
0100
0000
0000
0000
1000
0000
0000
0000
0100
0000
0000
0000
0010
0000
0000
0000
1000
0000
0000
0000
0001
0000
0000
0000
0010
0000
0000
0000
0001
0000
0000
0000
1000
0000
0100
0000
0010
0000
0001
0000
0010
0000
0100
0000
0010
0000
0100
0000
MMMM
0000
0100
0010
0100
0010
1000
0010
1000
0000
1100
0000
0011
0000
0000
0000
,
1001
0000
1000
0100
0010
0000
0110
0000
,
0000
1010
0000
0000
0101
0000
0010
1000
,
1100
0000
0001
1000
0010
0100
0010
0010
,
MMMM
0101
0001
0000
1000
0010
0100
0001
,
0022
0000
0000
0000
0033
0000
1000
0010
,
2020
0000
0000
0000
3030
0100
MMMM
0000
,
0100
0000
0100
0010
0021
0000
0000
0000
,
0130
0020
0000
1000
0000
0030
0020
0000
,
1000
0000
0030
1001
0000
MMMM
1001
0000
,
0010
0100
1100
0000
0100
0010
0110
0000
,
0011
0000
0000
1100
0000
0000
0010
0000
,
0100
0010
1010
0000
0110
0000
0110
0000
,
1000
1000
MMMM
1000
0100
0000
0011
0000
,
1000
0100
0022
0000
0000
0000
0000
0000
,
0033
0000
1100
0000
0110
0000
MMMM
0110
,
0000
MMMM
0011
0000
0010
0100
1000
0100
,
0001
0100
1000
0100
0100
2000
3001
1002
,
0003
MMMM
0020
2030
3020
0032
0103
0000
,
0000
1000
0100
0000
0011
0000
0000
0101
,
0000
0000
1010
0000
0010
0001
1001
0000
,
0100
1100
MMMM
0000
0011
0001
0000
1000
,
0100
0000
0110
0000
1000
0001
0022
0000
,
0000
0033
0110
2020
,
0000
0000
3030
0100
0010
1000
1000
0010
,
1000
0100
0110
0000
1000
0010
0011
0000
,
1000
1000
MMMM
0200
0300
0000
0020
0000
,
0230
0320
0230
0310
,
0000
0100
0001
0000
1010
0000
0000
0101
,
0000
0000
0110
0000
1000
0100
1000
0000
,
1100
0000
0011
0000
0100
0110
0000
1000
,
1100
0000
0010
1000
0010
0010
1000
0000
,
0010
1000
0100
0000
0101
0000
0010
0010
,
MMMM
0000
1000
0100
1000
0010
0100
0001
,
0101
0000
1010
0000
0001
0011
0000
0020
,
0000
0130
0000
0020
0000
0130
0010
0100
,
0110
0000
0000
0010
0001
0000
1100
0000
,
0000
0011
0000
0000
1001
0000
0010
0010
,
1000
0000
0010
0010
0001
0000
1100
0000
,
0000
0100
1000
0000
0001
0010
0100
0010
,
2002
0000
3000
0000
0013
0000
0010
0010
,
2200
0000
0000
0000
3300
0110
0000
0000
,
1001
0000
1010
0000
0100
0000
1000
1000
,
0001
0000
0010
1000
0000
1001
MMMM
MMMM
,
0110
0000
0100
0010
1010
0000
0000
0000
1000
0000
0010
0000
0100
0000
0000
0000
,
1000
1010
0000
0100
0000
0000
0101
0000
,
0010
1000
1001
0000
0010
0000
1000
0010
,
1000
0001
1000
0001
0100
0010
0100
0010
,
1000
1000
0001
1000
0010
1000
0001
0001
,
0100
1000
0010
0100
0001
0010
0001
0010
,
0001
0000
1000
0000
0001
1000
0001
0000
0100
0000
1000
0100
1000
0000
0001
0000
,
0100
0000
0000
0001
0000
0000
0100
0000
0000
0000
0000
0000
2020
0000
0000
0000
3030
0000
0000
0000
0000
0000
0000
0000
0200
0000
0000
0000
0000
0000
0301
0000
0000
0000
0000
0000
0200
0000
0000
0000
0000
0000
1300
0000
0000
0000
0000
0000
,
0220
0000
0000
0000
0000
0000
0000
0000
0330
MMMM
0000
0000
0000
0000
0000
0000
;

//---------------dance-single - ----------------
#NOTEDATA:;
#CHARTNAME:;
#STEPSTYPE:dance-single;
#DESCRIPTION:;
#CHARTSTYLE:;
#DIFFICULTY:Hard;
#METER:17;
#RADARVALUES:0.775442,1.456286,0.946565,0.712018,0.343444,648.000000,535.000000,113.000000,85.000000,0.000000,0.000000,0.000000,0.000000,0.000000,0.775442,1.456286,0.946565,0.712018,0.343444,648.000000,535.000000,113.000000,85.000000,0.000000,0.000000,0.000000,0.000000,0.000000;
#CREDIT:Karl with a K;
#NOTES:
0000
0000
0000
0000
,
0000
0000
0000
0000
,
0000
0000
0000
0000
,
0011
0000
1000
0100
1000
0000
0100
0000
1001
0000
0100
0010
0100
0000
0010
0000
,
0110
0000
1000
0001
1000
0000
0001
0000
1100
0000
0010
0001
0010
0000
0100
0000
,
0001
0100
0001
0100
0010
1000
0010
1000
0001
0010
0001
0010
0100
1000
0100
1000
,
0010
0000
0010
1000
0010
1000
0010
1000
0010
0000
1000
0000
0101
0000
0000
0000
0000
0000
0000
0000
0000
0000
0000
0000
0101
0000
0000
0000
0100
0000
0001
0000
,
0100
0000
1100
0011
0000
0000
1000
0000
0001
0000
0110
0000
0010
0100
0010
0000
,
0101
1010
0000
0000
0001
0000
1000
0000
0101
0000
0010
1000
0001
0000
0110
1001
,
0000
0000
0010
0000
0100
0000
1100
0000
0000
1000
0001
0000
0010
0001
0000
2020
,
3030
0000
0101
0000
0100
0001
0100
0000
0000
1000
0100
0000
0011
1001
0000
0000
,
0100
0000
0010
0000
1001
0000
0010
1000
0010
0000
0101
0110
0000
0000
1000
0000
,
0100
0000
0110
0000
0001
0100
0001
0000
1100
0110
0000
0000
0001
0000
0010
0000
,
0101
0000
0010
1000
0010
0000
0010
0001
0000
0010
0000
0000
0100
0000
0001
0100
,
0110
1001
0101
1010
,
0011
1100
1001
0101
,
0011
0000
0000
0000
0101
0000
0000
0000
0100
0000
0001
0000
0100
0000
0010
1000
,
0010
0000
0001
0000
1000
0010
0000
0000
0001
0000
0100
0001
0100
0000
0001
0100
,
0001
0000
1000
0010
0000
1000
0001
0000
0010
0100
0010
0000
0100
0000
0001
0000
,
0011
0000
0000
0110
0000
0000
1010
0000
0100
0000
0010
0000
0100
0000
0010
0000
,
0110
0000
0000
0000
0000
0000
0000
0000
0000
1001
0000
0000
0000
0000
0000
0000
0000
0000
0101
0000
0000
0000
0000
0000
0100
0000
0000
0000
0000
0000
0010
0000
0000
0000
0001
0000
0000
0000
0100
0000
0000
0000
0010
0000
0000
0000
0100
0000
,
0000
0000
0000
1000
0000
0010
0000
1000
0000
0001
0000
0100
0000
0000
0000
1000
0000
0000
0110
0000
0000
1010
0000
0000
,
0000
0001
0010
0000
0001
0000
1100
0000
1000
0010
0100
0000
0100
0010
0200
0000
,
0000
0000
0000
0000
0020
0000
0000
0000
0000
0000
0000
0030
0002
0000
0000
0000
0000
0000
0000
0003
0020
0000
0000
0000
0000
0000
0000
0030
2000
0000
0000
0000
,
0000
0000
0000
3000
0002
0000
0000
0000
0000
0000
0000
0003
2000
0000
0000
0000
0000
0000
0000
3000
0020
0000
0000
0030
0302
0000
0000
0000
0000
0000
0000
0000
,
0203
0301
2200
0000
0000
3300
0022
0000
,
0030
0000
0203
0300
2020
0000
0000
0000
0000
0000
3030
0000
0101
0000
0000
0000
,
0200
0000
0320
0031
0220
0000
0000
0000
0000
0000
0330
0000
2002
0000
0000
0000
,
0003
0000
3020
0030
2200
0000
0000
0000
0000
0000
3300
0000
0220
0000
0000
0000
,
0000
0000
0000
0330
2020
0000
0000
0000
0000
0000
3030
0000
0220
0000
0000
0000
,
0030
0000
0302
0103
2020
0000
0000
0000
0000
0000
3030
0000
0101
0000
0000
0000
,
0020
0000
0032
0103
2020
0000
0000
0000
0000
0000
3030
0000
0202
0000
0000
0000
,
0003
0000
0302
0003
2020
0000
0000
0000
0000
0000
3030
0000
0202
0000
0000
0000
,
0000
0000
0303
0000
0110
0000
0010
0001
0010
0000
0001
0000
1000
0000
0010
0000
,
1000
0202
0000
0303
,
0000
0000
0000
0000
1010
0000
0001
0100
0001
0000
0010
0000
1000
0000
0001
0000
,
0001
0000
0000
0000
0202
0000
0303
0000
2020
0000
3030
0000
0011
0000
0100
1000
,
0010
0000
0001
0000
0110
0000
0001
0100
0001
0000
0010
0000
0101
0000
1000
0010
,
1000
0000
0010
0000
0101
0000
0010
1000
0010
0000
0001
0000
0100
0001
0100
0001
,
1000
0000
0000
0000
0010
0000
0000
0000
1000
0000
0000
0000
0010
0000
0000
0000
0100
0000
0000
0000
0001
0000
0000
0000
0100
0000
0000
0000
0001
0000
0000
0000
0010
0000
0000
0000
0100
0000
0000
0000
0010
0000
0000
0000
0100
0000
0000
0000
0010
0000
0001
0100
0001
0100
0010
0100
0010
0000
0011
0000
1100
0000
0000
0000
,
1010
0000
0010
0001
0100
0000
0101
0000
,
0000
0110
0000
0000
1001
0000
0100
0010
,
0001
0000
1000
0010
0100
0001
0100
0001
,
0000
0001
1000
0000
1000
0100
1000
0100
,
0020
0000
0030
0010
,
2002
0000
0000
0000
3003
0001
0000
0000
,
0001
0000
0001
1000
0200
0000
0000
0000
,
0301
0200
0000
0010
0000
0300
0200
0000
,
0010
0000
0300
1010
0000
0000
1010
0000
,
0100
0001
0010
0000
0001
0100
0001
0000
,
1100
0000
0000
0011
0000
0000
0100
0000
,
0001
0100
0010
0000
0101
0000
0101
0000
,
1000
0010
0000
0010
0001
0000
1100
0000
,
0001
0010
0002
0000
0000
0000
0000
0000
,
0003
0000
0011
0000
0101
0000
0000
0101
,
0000
0000
1100
0000
0001
0100
0001
0100
,
0001
1000
0100
1000
0100
0020
0130
0020
,
0130
0000
0200
0320
0230
0320
0031
0000
,
0000
0010
0001
0000
1100
0000
0000
1001
,
0000
0000
0110
0000
0100
1000
0010
0000
,
0001
0010
0000
0000
0100
1000
0000
0010
,
0001
0000
0101
0000
0010
1000
0200
0000
,
0000
0300
0101
0220
,
0000
0000
0330
0001
0100
0010
0100
0010
,
0100
0001
0100
0000
0010
1000
0100
0000
,
0010
1000
0000
0002
0003
0000
0200
0000
,
0302
0203
0302
0103
,
0000
0001
1000
0000
0110
0000
0000
1001
,
0000
0000
0101
0000
0010
0001
0010
0000
,
0011
0000
1100
0000
0001
0100
0000
0010
,
0001
0000
0100
0010
0100
0010
0100
0000
,
0010
0001
0010
0000
1001
0000
1000
0100
,
0000
0000
0010
1000
0010
0100
0001
1000
,
0001
0000
0110
0000
1000
0100
0000
0200
,
0000
0301
0000
0200
0000
0301
0100
0001
,
0100
0000
0000
0100
1000
0000
0011
0000
,
0000
1100
0000
0000
1010
0000
0010
0100
,
0010
0000
1000
0100
1000
0000
0011
0000
,
0000
0001
0010
0000
1000
0100
1000
0100
,
0020
0000
0030
0000
0100
0000
0001
0100
,
0002
0000
0000
0000
0003
0101
0000
0000
,
1010
0000
0110
0000
0001
0000
1000
0010
,
1000
0000
0100
0010
0000
1010
0000
0000
,
0101
0000
0001
0100
0010
0000
0000
0000
0010
0000
0100
0000
0001
0000
0000
0000
,
0010
0100
0000
0001
0000
0000
1001
0000
,
0100
0010
1000
0000
0100
0000
0010
0100
,
0010
1000
0010
1000
0001
0100
0001
0100
,
0010
1000
0010
1000
0100
0010
1000
0010
,
0001
0010
0100
0001
1000
0100
1000
0100
,
1000
0010
1000
1000
0001
0010
0010
1000
,
0001
0000
0000
0001
0000
0000
0220
0000
0330
0000
0000
0000
2000
0000
0000
3100
0000
0000
2000
0000
0000
3001
0000
0000
,
2002
0000
3003
0000
;

//---------------dance-single - ----------------
#NOTEDATA:;
#CHARTNAME:;
#STEPSTYPE:dance-single;
#DESCRIPTION:;
#CHARTSTYLE:;
#DIFFICULTY:Medium;
#METER:15;
#RADARVALUES:0.661758,1.073053,0.896305,0.645005,0.209417,553.000000,446.000000,107.000000,77.000000,0.000000,0.000000,0.000000,0.000000,0.000000,0.661758,1.073053,0.896305,0.645005,0.209417,553.000000,446.000000,107.000000,77.000000,0.000000,0.000000,0.000000,0.000000,0.000000;
#CREDIT:Karl with a K;
#NOTES:
0000
0000
0000
0000
,
0000
0000
0000
0000
,
0000
0000
0000
0000
,
1100
0010
1000
0001
1010
0100
0001
0100
,
0101
1000
0010
1000
0011
0001
0100
0001
,
1000
1000
0100
0100
1000
1000
0001
0001
,
0100
0000
0100
0010
0100
0010
0100
0010
0100
0000
0010
0000
1001
0000
0000
0000
0000
0000
0000
0000
0000
0000
0000
0000
1001
0000
0000
0000
0000
0000
1000
0000
,
0001
0000
0011
1100
0000
0000
0010
0000
1000
0000
0101
0000
0000
0001
0100
0000
,
1001
0110
0000
0000
1000
0000
0010
0000
1001
0000
0000
0010
1000
0000
0101
1010
,
0000
0000
0100
0000
0001
0000
0011
0000
0000
0010
1000
0000
0100
1000
0000
0220
,
0330
0000
1001
0000
0001
1000
0001
0000
0000
0010
0001
0000
1100
1010
0000
0000
,
0001
0000
0100
0000
1010
0000
0000
0010
0100
0000
1001
0101
0000
0000
0010
0000
,
0001
0000
0101
0000
0000
0001
1000
0000
0011
0101
0000
0000
1000
0000
0100
0000
,
1001
0000
0100
0010
0100
0000
0100
1000
0000
0100
0000
0000
0001
0000
1000
0001
,
0100
1010
1001
0110
,
1100
0011
1010
1001
,
1100
0000
0000
0000
1001
0000
0000
0000
0000
0000
1000
0000
0001
0000
0000
0010
,
0100
0000
1000
0000
0010
0100
0000
0000
1000
0000
0001
1000
0001
0000
0000
0001
,
1000
0000
0010
0100
0000
0010
1000
0000
0100
0001
0100
0000
0001
0000
1000
0000
,
1100
0000
0000
0101
0000
0000
0110
0000
0001
0000
0100
0000
0001
0000
0100
0000
,
0101
0000
0000
0000
0000
0000
0000
0000
0000
1010
0000
0000
0000
0000
0000
0000
0000
0000
1001
0000
0000
0000
0000
0000
0001
0000
0000
0000
0000
0000
0100
0000
0000
0000
0000
0000
0000
0000
0001
0000
0000
0000
0000
0000
0000
0000
0001
0000
,
0000
0000
0000
0010
0000
0000
0000
0100
0000
0000
0000
0100
0000
0000
0000
0010
0000
0000
0101
0000
0000
0110
0000
0000
,
0000
1000
0100
0000
1000
0000
0011
0000
0000
0100
0001
0000
0100
0000
0002
0000
,
0000
0203
0000
2300
0000
3200
0000
0320
,
0000
0000
0000
0000
0032
0000
0000
0000
0000
0000
0000
0000
0023
0000
0000
0000
0000
0000
0000
0000
0230
0000
0000
0300
2000
0000
0000
0000
0000
0000
0000
0000
,
3002
0003
0022
0000
0000
0033
2200
0000
,
0300
0000
3002
0003
0220
0000
0000
0000
0000
0000
0000
0000
0330
0000
0000
0000
,
0002
0000
0203
1300
0202
0000
0000
0000
0000
0000
0303
0000
2020
0000
0000
0000
,
3000
0000
0230
0300
0022
0000
0000
0000
0000
0000
0033
0000
0202
0000
0000
0000
,
0000
0000
0000
0303
0220
0000
0000
0000
0000
0000
0330
0000
0202
0000
0000
0000
,
0300
0000
2003
3000
0220
0000
0000
0000
0000
0000
0330
0000
1001
0000
0000
0000
,
0200
0000
2300
3001
0220
0000
0000
0000
0000
0000
0330
0000
2002
0000
0000
0000
,
3000
0000
2003
3000
0220
0000
0000
0000
0000
0000
0330
0000
2002
0000
0000
0000
,
0000
3003
0101
0001
0100
1000
0010
0100
,
0010
2002
0000
3003
,
0000
0000
0110
1000
0001
0100
0010
1000
,
0001
0000
2002
3003
0220
0330
1100
0001
,
0100
1000
0101
1000
0001
0100
1001
0100
,
0010
0100
1001
0010
0100
1000
0001
0001
,
0010
0000
0000
0000
0010
0000
0000
0000
0001
0000
0000
0000
0001
0000
0000
0000
0100
0000
0001
0000
0100
0000
0001
0000
0100
1000
1000
0100
0100
1000
1010
0000
,
0110
0000
0000
1100
0000
0000
1001
0000
,
0000
0101
0000
0000
1010
0000
1000
0100
,
1000
0000
0010
0000
0001
0000
0001
1000
,
0000
1000
0010
0000
0010
0001
0010
0001
,
0200
0000
0300
0100
,
2020
0000
0000
0000
3030
1000
0000
0000
,
1000
0000
0001
0010
0001
0000
0000
0000
,
1000
0001
0000
0100
0000
0000
0001
0000
,
0100
0000
0000
0110
0000
0000
0110
0000
,
0001
1000
0100
0000
0000
1001
0000
0000
,
0011
0000
0000
1100
0000
0000
0001
0000
,
1000
0001
0100
0000
0001
0000
1000
0000
,
0010
0100
0000
0100
1000
0000
0010
0000
,
1000
0100
2000
0000
0000
0000
0000
0000
,
3000
0000
0100
0000
1001
0000
0000
1001
,
0000
0011
1000
0001
,
1000
0000
0010
0000
0000
0200
0300
0200
,
0300
0002
0000
1003
,
0000
1100
0000
0000
0011
0000
0000
1010
,
0000
0000
0101
0000
0001
0010
0100
0000
,
1000
0100
0000
0000
0001
0010
0000
0100
,
1000
0000
0001
0000
0100
0010
0002
0000
,
0000
0003
1001
0202
,
0000
0000
0303
1000
0001
0100
0001
0100
,
0001
0000
0001
0000
0100
0010
0100
0000
,
0100
0010
0000
2000
3000
0000
0200
0000
,
0000
0000
0000
0301
,
0000
1010
0000
0000
0101
0000
0000
1010
,
0000
0000
1001
0000
0100
1000
0100
0000
,
1000
0000
0001
0000
1000
0001
0000
0100
,
1000
0000
0001
0100
0001
0100
0001
0000
,
0100
1000
0100
0000
1010
0000
0010
0001
,
0000
0000
0100
0010
0100
0000
2000
0000
,
3020
0000
0130
0000
0020
0001
0000
0032
,
0000
0003
0000
0002
0000
0003
0001
1000
,
0001
0000
0000
0011
0000
0000
1100
0000
,
0000
0011
0000
0000
0110
0000
0100
0001
,
0100
0000
0010
0001
0010
0000
0100
0000
,
0000
1000
0100
0000
0010
0001
0010
0001
,
0200
0000
0300
0000
0001
0000
1000
0001
,
2000
0000
0000
0000
3000
1001
0000
0000
,
0110
0000
0101
0000
1000
0000
0010
0100
,
0010
0000
0001
0100
0000
0100
0000
0000
,
1001
1000
0100
0000
0100
0001
1000
0000
,
0100
0001
0000
1000
0000
0000
1010
0000
,
0010
0100
0001
0000
0010
0000
1000
0000
,
0010
1000
0001
0010
,
1000
0001
0100
0001
,
0010
0000
0100
1000
0100
1000
0100
0010
,
0001
0010
0001
0000
0000
0110
0000
0000
,
0101
0000
0000
2002
3003
0000
0100
0000
0000
1000
0000
0000
,
0220
0000
0330
0000
;

//---------------dance-single - ----------------
#NOTEDATA:;
#CHARTNAME:;
#STEPSTYPE:dance-single;
#DESCRIPTION:;
#CHARTSTYLE:;
#DIFFICULTY:Easy;
#METER:12;
#RADARVALUES:0.509781,0.881436,0.787408,0.603121,0.079578,426.000000,332.000000,94.000000,72.000000,0.000000,0.000000,0.000000,0.000000,0.000000,0.509781,0.881436,0.787408,0.603121,0.079578,426.000000,332.000000,94.000000,72.000000,0.000000,0.000000,0.000000,0.000000,0.000000;
#CREDIT:Karl with a K;
#NOTES:
0000
0000
0000
0000
,
0000
0000
0000
0000
,
0000
0000
0000
0000
,
0001
0100
0010
0000
0100
0001
1000
0000
,
0001
0010
0100
0000
0100
1000
0001
0000
,
0010
0010
0010
0010
0100
0100
0100
0100
,
0002
0000
0000
1003
0000
0000
1010
0000
,
1000
0000
1100
0011
0000
0000
0100
0000
0010
0000
1001
0000
0000
0000
0001
0000
,
1010
0101
0000
0000
0010
0000
0100
0000
1010
0000
0000
0000
0010
0000
1001
0110
,
0000
0000
0001
0000
1000
0000
1100
0000
0000
0000
0010
0000
0000
0010
0000
0202
,
0303
0000
1010
0000
0010
0000
1000
0000
0000
0000
1000
0000
0011
0110
0000
0000
,
1000
0000
0001
0000
0110
0000
0000
0000
0001
0000
1010
1001
0000
0000
0100
0000
,
1000
0000
1001
0000
0000
0000
0010
0000
1100
1001
0000
0000
0010
0000
0001
0000
,
1010
0000
0001
0000
0100
0000
0000
0010
0000
0001
0000
0000
1000
0000
0010
0000
,
0001
0110
1010
0101
,
0011
1100
0110
1010
,
0011
1010
0000
1000
,
0001
0000
0010
0000
0000
0001
0000
0000
0010
0000
1000
0000
1000
0000
0000
0000
,
0010
0000
0000
0001
0000
0100
0010
0000
0001
0000
0001
0000
1000
0000
0010
0000
,
0011
0000
0000
1001
0000
0000
0101
0000
1000
0000
0001
0000
1000
0000
0001
0000
,
1001
0000
0000
0000
0000
0000
0000
0000
0000
0110
0000
0000
0000
0000
0000
0000
0000
0000
1010
0000
0000
0000
0000
0000
1000
0000
0000
0000
0000
0000
2002
0000
0000
0000
0000
0000
0000
0000
0000
0000
0000
0000
0000
0000
0000
0000
3003
0000
,
0000
0000
0000
0202
0000
0000
0000
0000
0000
0000
0000
0303
0000
0000
0000
0100
0000
0000
1000
0000
0000
0001
0000
0000
,
0000
0010
0000
0000
0010
0000
1100
0000
0000
0001
0000
0000
0001
0000
1000
0000
,
0000
0001
0000
0010
0000
0001
0000
0100
,
0000
1000
0000
0100
0000
0001
0010
0000
,
1000
0000
2200
0000
0000
3300
0022
0000
,
0000
0033
0202
0000
0000
0303
2020
0000
,
0000
3030
2002
0000
0000
3003
0220
0000
,
0000
0330
2200
0000
0000
3300
2002
0000
,
0000
0000
0000
3003
0202
0000
0000
0000
0000
0000
0303
0000
2002
0000
0000
0000
,
0000
3003
0202
0000
0000
0303
2020
0000
,
0000
3030
0202
0000
0000
0303
2020
0000
,
0000
3030
0202
0000
0000
0303
2020
0000
,
0000
3030
1001
0000
0001
0000
0100
0000
,
0100
2020
0000
3030
,
0000
0101
1000
0100
,
1000
0000
2020
3030
0202
0303
0010
1000
,
0001
0000
1000
0010
1000
0000
0010
0001
,
0100
0000
0001
0100
0001
0000
1000
1000
,
0100
0000
0100
0000
0010
0000
0010
0000
0001
0000
0001
0000
0001
0010
0001
0110
,
0100
0000
0000
0001
0000
0000
0010
0000
,
0000
1000
0000
0000
0110
0000
0010
0000
,
0010
0000
0100
0000
1000
0000
0000
0010
,
0000
0010
0000
0000
0200
0000
0000
0000
,
0302
0000
0003
0001
,
0220
0000
0000
0000
0330
0010
0000
0000
,
0010
1000
1000
0000
,
0000
1000
0000
0000
0000
0000
1000
0000
,
0000
0000
0000
0101
0000
0000
0101
0000
,
2000
3000
0001
0000
0000
1010
0000
0000
,
1100
0000
0000
0011
0000
0000
1000
0000
,
0010
0001
1000
0010
,
0000
0001
0000
0001
0000
0000
0100
0000
,
0001
0020
0000
0000
,
0030
0000
0001
0000
1010
0000
0000
1010
,
0000
1100
0010
1000
,
0010
0000
0100
0000
0000
0002
0003
0002
,
0003
2000
0000
3010
,
0000
0011
0000
0000
1100
0000
0000
0110
,
0000
1001
1000
0001
,
0000
0001
0000
0000
1000
0000
0000
0001
,
0000
1000
0001
2000
,
0000
3000
1010
2002
,
0000
3003
1000
1000
,
1000
0000
1000
0000
0000
0100
0000
0000
,
0001
0000
0000
0020
0030
0000
0002
0000
,
0000
0000
0000
1003
,
0000
0110
0000
0000
1001
0000
0000
0110
,
0000
1010
0010
0001
,
0010
0000
1000
0000
0000
1000
0000
0000
,
0010
1000
1000
1000
,
0002
0000
0103
0000
0110
0000
0000
1000
,
0000
0001
0001
0020
,
0230
0000
0301
0000
0200
0000
0000
2300
,
0000
3000
0000
2000
0000
3000
0020
0000
,
1030
0000
0000
1100
0000
0000
0011
0000
,
0000
1100
0000
0000
0101
0000
0001
0000
,
0001
0100
0100
0001
,
0000
0010
0000
0000
0100
0000
0100
0000
,
0002
0000
0003
1000
,
0020
0000
0000
0000
0030
1010
0000
0000
,
0101
0000
1001
0000
0010
0000
0000
0001
,
0000
0000
1000
0000
0000
0001
0000
0000
,
1000
0010
0001
0000
0000
1000
0000
0000
,
0001
0000
0000
0010
0000
0000
0110
0000
,
1000
0100
1000
0001
,
0001
0001
0010
0010
,
0001
0001
1000
0100
,
0010
1000
0100
0100
,
0100
0010
0100
0000
0000
0101
0000
0000
,
0110
0000
0000
2002
3003
0000
0100
0000
0000
0010
0000
0000
,
0220
0000
0330
0000
;

//---------------dance-single - ----------------
#NOTEDATA:;
#CHARTNAME:;
#STEPSTYPE:dance-single;
#DESCRIPTION:;
#CHARTSTYLE:;
#DIFFICULTY:Beginner;
#METER:7;
#RADARVALUES:0.275234,0.459880,0.360197,0.402081,0.000000,230.000000,187.000000,43.000000,48.000000,0.000000,0.000000,0.000000,0.000000,0.000000,0.275234,0.459880,0.360197,0.402081,0.000000,230.000000,187.000000,43.000000,48.000000,0.000000,0.000000,0.000000,0.000000,0.000000;
#CREDIT:Karl with a K;
#NOTES:
0000
0000
0000
0000
,
0000
0000
0000
0000
,
0000
0000
0000
0000
,
1000
0100
0001
0010
,
1000
0001
0001
1000
,
0100
0100
0001
0001
,
2000
0000
0000
3010
0000
0000
0110
0000
,
0000
0010
0000
0001
0000
1010
0000
0000
,
0100
0000
0100
0000
0010
0000
0000
1000
,
0000
1000
0000
0011
0000
0100
0000
1001
,
0000
0110
0000
0010
0000
0000
1000
0000
,
0010
0000
0101
0000
0000
0010
0000
0001
,
0000
1010
0000
0000
0001
0000
0100
0000
,
0110
0001
1000
0010
,
1000
0100
0010
0001
,
1000
0010
0001
0100
,
1000
0010
0000
0010
,
0000
0100
0000
0000
0100
0000
0010
0000
,
0100
0000
0000
0100
0000
1000
0000
0100
,
0000
0010
0000
1000
0000
1000
0000
0010
,
0000
0001
0000
0101
0000
0220
0000
0000
,
0000
0000
0000
0000
0000
0330
0000
1000
,
0000
0000
0000
0011
0000
0000
0000
2002
,
0000
0000
0000
0000
,
0000
0000
0000
0000
0000
3003
0100
0000
,
0010
0000
0002
0000
0000
0003
0200
0000
,
0000
0300
2000
0000
0000
3000
0020
0000
,
0000
0030
2000
0000
0000
3000
0200
0000
,
0000
0300
0002
0000
0000
0003
0020
0000
,
0000
0000
0000
0030
0002
0000
0000
0000
0000
0000
0003
0000
2000
0000
0000
0000
,
0000
3000
0002
0000
0000
0003
0200
0000
,
0000
0300
0002
0000
0000
0003
0020
0000
,
0000
0030
0002
0000
0000
0003
0200
0000
,
0000
0300
2020
0000
0000
0000
3030
0000
,
0000
0220
0000
0330
,
0000
2002
0000
3003
,
0000
0110
1001
0100
,
1000
0010
0010
0100
,
0001
1000
1000
0010
,
0001
0000
0000
0000
0100
0000
0000
0000
1000
0000
0000
0000
2020
0000
0000
3030
,
0001
0000
0000
0100
,
0000
0000
0101
0000
,
0100
0000
0010
0000
,
0100
0000
0002
0000
,
2003
0000
0000
3000
,
0202
0000
0000
0000
0000
0303
0000
0000
,
0100
0000
0010
0000
,
0000
0000
0000
0010
,
0000
0000
0000
1001
,
0000
1000
0000
0000
,
0011
0000
0000
0010
,
0000
1000
0000
0100
,
0000
1000
0000
0001
,
0000
0200
0000
0000
,
0300
0000
0110
0000
,
0000
0011
0000
1000
,
0000
0001
0000
1000
,
0000
0020
0000
0130
,
0000
0000
0011
0000
,
0000
1010
0000
1000
,
0000
0000
0010
0000
,
0000
1000
0000
0220
,
0000
0000
0330
2020
,
0000
0000
0000
0000
,
3030
0010
0000
0000
,
1000
0000
0000
2000
,
0000
0000
0000
3010
,
0000
0000
1010
0000
,
0000
0110
0000
1000
,
0000
0010
0000
0100
,
0000
0010
0000
2002
,
0000
3003
0101
0000
,
0000
1000
0000
0101
,
0000
0000
0011
0000
,
0000
0000
0000
0010
0000
0000
0000
0000
,
0010
0000
0000
1100
,
0000
0000
1001
0000
,
1000
0000
0001
0000
,
0000
0000
0001
0000
,
2000
0000
0000
3000
,
0200
0000
0300
0000
,
1001
0000
0100
0000
,
0000
0010
0000
0000
,
0010
1000
0000
0000
,
1000
0000
0000
0101
,
0000
0001
0000
1000
,
0000
1000
0000
0100
,
0000
1000
0010
1000
,
0010
0100
0001
0100
,
0001
0101
0000
1001
,
0000
0000
0000
2020
0000
0000
0000
0000
3030
0000
0000
0000
0101
0000
0000
0000
0000
0000
0000
0000
0000
0000
0000
0000
,
0202
0000
0303
0000
;

//---------------dance-double - ----------------
#NOTEDATA:;
#CHARTNAME:;
#STEPSTYPE:dance-double;
#DESCRIPTION:;
#CHARTSTYLE:;
#DIFFICULTY:Hard;
#METER:18;
#RADARVALUES:0.783818,1.506860,0.996825,0.770655,0.343444,655.000000,536.000000,119.000000,92.000000,0.000000,0.000000,0.000000,0.000000,0.000000,0.783818,1.506860,0.996825,0.770655,0.343444,655.000000,536.000000,119.000000,92.000000,0.000000,0.000000,0.000000,0.000000,0.000000;
#CREDIT:Karl with a K;
#NOTES:
// measure 0
00000000
00000000
00000000
00000000
,  // measure 1
00000000
00000000
00000000
00000000
,  // measure 2
00000000
00000000
00000000
00000000
,  // measure 3
00000101
00000000
00000010
00000100
00000010
00000000
00000010
00000000
00000110
00000000
00000100
00010000
00001000
00000000
00010000
00000000
,  // measure 4
00010010
00000000
00010000
00001000
01000000
00000000
00010000
00000000
00101000
00000000
01000000
10000000
00010000
00000000
01000000
00000000
,  // measure 5
00010000
01000000
00100000
01000000
00010000
10000000
01000000
10000000
00100000
01000000
00010000
00100000
00001000
00010000
00000100
00010000
,  // measure 6
00000010
00000000
00001000
00000010
00000100
00000001
00000100
00000010
00010000
00000000
00000100
00000000
00011000
00000000
00000000
00000000
00000000
00000000
00000000
00000000
00000000
00000000
00000000
00000000
00101000
00000000
00000000
00000000
01000000
00000000
00100000
00000000
,  // measure 7
00010000
00000000
01001000
00101000
00000000
00000000
01000000
00000000
00100000
00000000
00011000
00000000
00001000
00010000
00001000
00000000
,  // measure 8
00001100
00001001
00000000
00000000
00000100
00000000
00000010
00000000
00001100
00000000
00010000
00000010
00001000
00000000
00011000
00110000
,  // measure 9
00000000
00000000
10000000
00000000
01000000
00000000
01100000
00000000
00000000
01000000
00001000
00000000
00010000
00000100
00000000
00000022
,  // measure 10
00000033
00000000
00001010
00000000
00000100
00010000
00001000
00000000
00000000
00000010
00000001
00000000
00001001
00010000
00000000
00000000
,  // measure 11
00001000
00000000
00001000
00000000
00010000
00000000
10000000
00100000
10000000
00000000
11000000
00110000
00000000
00000000
10000000
00000000
,  // measure 12
00001000
00000000
01100000
00000000
00100000
01000000
00100000
00000000
01010000
00110000
00000000
00000000
00010000
00000000
10000000
00000000
,  // measure 13
11000000
00000000
10000000
01000000
00100000
00000000
00001000
00010000
00000000
00000100
00000000
00000000
00000010
00000000
00000001
00000010
,  // measure 14
00001001
00001100
00010010
00010100
,  // measure 15
00011000
10010000
00011000
00001100
,  // measure 16
00110000
00000000
00000000
00000000
01001000
00000000
00000000
00000000
00001000
00000000
00100000
00000000
00001000
00000000
00001000
00010000
,  // measure 17
00000100
00000000
00000100
00000000
00000001
00001000
00000000
00000000
00010000
00000000
00100000
00001000
00100000
00000000
00001000
01000000
,  // measure 18
00010000
00000000
01000000
00010000
00000000
00010000
10000000
00000000
00010000
00000000
01000000
00000000
10000000
00000000
00010000
00000000
,  // measure 19
10100000
00000000
00000000
01001000
00000000
00000000
11000000
00000000
00100000
00000000
00100000
00000000
10000000
00000000
00100000
00000000
,  // measure 20
11000000
00000000
00000000
00000000
00000000
00000000
00000000
00000000
00000000
00101000
00000000
00000000
00000000
00000000
00000000
00000000
00000000
00000000
00001100
00000000
00000000
00000000
00000000
00000000
00000100
00000000
00000000
00000000
00000000
00000000
00010000
00000000
00000000
00000000
00000010
00000000
00000000
00000000
00001000
00000000
00000000
00000000
00000010
00000000
00000000
00000000
00010000
00000000
,  // measure 21
00000000
00000000
00000000
00000010
00000000
00000001
00000000
00000100
00000000
00000001
00000000
00001000
00000000
00000000
00000000
00000010
00000000
00000000
00011000
00000000
00000000
00010100
00000000
00000000
,  // measure 22
00000000
00010000
00000100
00000000
00000001
00000000
00001010
00000000
00000010
00000001
00001000
00000000
00000100
00010000
00002002
00000000
,  // measure 23
00000000
00003003
00022000
00000000
00000000
00033000
00002020
00000000
00000000
00003030
02002000
00000000
00000000
03003000
00000202
00000000
,  // measure 24
00000000
00000303
00022000
00000000
00000000
00033000
02020000
00000000
00000000
03030000
00002200
00003300
00000020
00000000
00000000
00000000
,  // measure 25
00002030
00003010
00002002
00000000
00000000
00003003
00000220
00000000
,  // measure 26
00000300
00000000
00002030
00003000
00002002
00000000
00000000
00000000
00000000
00000000
00003003
00000000
00001100
00000000
00000000
00000000
,  // measure 27
00000002
00000000
00020003
00031000
00022000
00000000
00000000
00000000
00000000
00000000
00033000
00000000
00002200
00000000
00000000
00000000
,  // measure 28
00003000
00000000
00002300
00003000
00000202
00000000
00000000
00000000
00000000
00000000
00000303
00000000
00022000
00000000
00000000
00000000
,  // measure 29
00000000
00000000
00000000
00033000
02200000
00000000
00000000
00000000
00000000
00000000
03300000
00000000
02020000
00000000
00000000
00000000
,  // measure 30
00030000
00000000
03001000
00010000
22000000
00000000
00000000
00000000
00000000
00000000
33000000
00000000
01100000
00000000
00000000
00000000
,  // measure 31
02000000
00000000
03002000
00013000
00220000
00000000
00000000
00000000
00000000
00000000
00330000
00000000
02020000
00000000
00000000
00000000
,  // measure 32
00030000
00000000
00200000
03300000
22000000
00000000
00000000
00000000
00000000
00000000
33000000
00000000
00220000
00000000
00000000
00000000
,  // measure 33
00000000
00000000
00330000
00000000
01010000
00000000
00100000
01000000
00001000
00000000
00010000
00000000
01000000
00000000
10000000
00000000
,  // measure 34
01000000
00022000
00000000
00033000
,  // measure 35
00000000
00000000
00000000
00000000
00001001
00000000
00000001
00000100
00000001
00000000
00000100
00000000
00001000
00000000
00010000
00000000
,  // measure 36
00001000
00000000
00000000
00000000
02020000
00000000
03030000
00000000
00020200
00000000
00030300
00000000
01010000
00000000
10000000
00100000
,  // measure 37
01000000
00000000
10000000
00000000
10100000
00000000
01000000
00100000
00010000
00000000
00100000
00000000
00011000
00000000
00001000
00000001
,  // measure 38
00001000
00000000
00010000
00000000
00101000
00000000
00010000
01000000
00100000
00000000
00010000
01000000
00001000
00010000
00001000
01000000
,  // measure 39
00100000
00000000
00000000
00000000
10000000
00000000
00000000
00000000
00010000
00000000
00000000
00000000
00100000
00000000
00000000
00000000
00001000
00000000
00000000
00000000
00010000
00000000
00000000
00000000
00000100
00000000
00000000
00000000
00000001
00000000
00000000
00000000
00000010
00000000
00000000
00000000
00000001
00000000
00000000
00000000
00000010
00000000
00000000
00000000
00000001
00000000
00000000
00000000
00000100
00000000
00000100
00000010
00010000
00001000
00100000
00001000
00010000
00000000
00010010
00000000
00011000
00000000
00000000
00000000
,  // measure 40
00011000
00000000
00100000
00001000
10000000
00000000
01010000
00000000
,  // measure 41
00000000
00101000
00000000
00000000
11000000
00000000
10000000
00010000
,  // measure 42
01000000
00000000
00010000
00001000
00100000
00001000
00010000
00000100
,  // measure 43
00000000
00000100
00001000
00000000
00001000
00000100
00000010
00000100
,  // measure 44
00002000
00000000
00003000
00010000
,  // measure 45
00022000
00000000
00000000
00000000
00033000
00001000
00000000
00000000
,  // measure 46
00001000
00000000
00001000
00100000
00020000
00000000
00000000
00000000
,  // measure 47
01030000
00020000
00000000
00100000
00000000
00030000
00020000
00000000
,  // measure 48
00001000
00000000
00030000
00001010
00000000
00000000
00010100
00000000
,  // measure 49
00000010
00000100
00001000
00000000
00001000
01000000
00100000
00000000
,  // measure 50
01100000
00000000
00000000
01010000
00000000
00000000
10000000
00000000
,  // measure 51
01000000
00010000
00100000
00000000
01001000
00000000
00010100
00000000
,  // measure 52
00000100
00001000
00000000
00001000
00000010
00000000
00001001
00000000
,  // measure 53
00000010
00000100
00000020
00000000
00000000
00000000
00000000
00000000
,  // measure 54
00000030
00000000
00000101
00000000
00001001
00000000
00000000
00001100
,  // measure 55
00000000
00000000
00110000
00000000
10000000
00010000
01000000
00001000
,  // measure 56
00010000
00000100
00001000
00000100
00000010
00000002
00001003
00000020
,  // measure 57
00010030
00000000
00002000
00003020
00020030
00030200
00010300
00000000
,  // measure 58
00000000
00001000
01000000
00000000
10010000
00000000
00000000
00011000
,  // measure 59
00000000
00000000
00001001
00000000
00000010
00000100
00000010
00000000
,  // measure 60
00000100
00010000
00000000
00000000
00000100
00010000
00000000
01000000
,  // measure 61
00010000
00000000
00101000
00000000
00010000
10000000
00002000
00000000
,  // measure 62
00000000
00003000
00001100
00002002
,  // measure 63
00000000
00000000
00003003
00001000
00010000
00001000
00100000
00010000
,  // measure 64
01000000
00100000
10000000
00000000
00001000
00100000
00010000
00000000
,  // measure 65
10000000
00010000
00000000
00200000
00300000
00000000
00020000
00000000
,  // measure 66
00230000
00320000
00230000
00301000
,  // measure 67
00000000
00000100
00000001
00000000
00000110
00000000
00000000
00010010
,  // measure 68
00000000
00000000
00101000
00000000
00001000
00010000
00001000
00000000
,  // measure 69
00000110
00000000
00000101
00000000
00010000
00001000
00000000
00000010
,  // measure 70
00000001
00000000
00010000
00001000
01000000
00100000
10000000
00000000
,  // measure 71
10000000
00010000
01000000
00000000
01010000
00000000
00001000
00100000
,  // measure 72
00000000
00000000
01000000
00100000
00001000
00100000
01000000
10000000
,  // measure 73
00010000
00000000
01001000
00000000
00001000
00010000
00000000
00000020
,  // measure 74
00000000
00001030
00000000
00000020
00000000
00000130
00000001
00001000
,  // measure 75
00000100
00000000
00000000
00000001
00000100
00000000
00001100
00000000
,  // measure 76
00000000
00000101
00000000
00000000
00001010
00000000
00000100
00010000
,  // measure 77
00001000
00000000
00010000
00001000
00010000
00000000
01010000
00000000
,  // measure 78
00000000
00100000
00001000
00000000
01000000
00010000
10000000
01000000
,  // measure 79
20000000
00000000
30000000
00000000
01000000
00000000
00100000
01000000
,  // measure 80
00200000
00000000
00000000
00000000
00300000
11000000
00000000
00000000
,  // measure 81
01001000
00000000
00011000
00000000
00100000
00000000
01000000
00001000
,  // measure 82
01000000
00000000
00000100
00010000
00000000
00010100
00000000
00000000
,  // measure 83
00000011
00000000
00001000
00000100
00001000
00000000
00000000
00000000
00010000
00000000
00000010
00000000
00000100
00000000
00000000
00000000
,  // measure 84
00000010
00000001
00000000
00000001
00000000
00000000
00010010
00000000
,  // measure 85
00001000
00100000
00010000
00000000
10000000
00000000
00100000
01000000
,  // measure 86
00001000
00010000
00001000
00010000
00000010
00001000
00000100
00001000
,  // measure 87
00000010
00000100
00000010
00001000
00000001
00000100
00000001
00010000
,  // measure 88
00000010
00001000
00000100
00000010
00000100
00001000
00010000
00001000
,  // measure 89
00010000
00001000
00100000
01000000
10000000
00010000
01000000
00100000
,  // measure 90
01000000
00100000
00202000
00303000
00020000
00030100
00002000
00003100
,  // measure 91
00000022
00000000
00000033
00000000
,  // measure 92
00000000
10000000
00000000
00000000
;

//---------------dance-double - ----------------
#NOTEDATA:;
#CHARTNAME:;
#STEPSTYPE:dance-double;
#DESCRIPTION:;
#CHARTSTYLE:;
#DIFFICULTY:Medium;
#METER:15;
#RADARVALUES:0.617481,0.996406,0.829292,0.586368,0.192664,516.000000,417.000000,99.000000,70.000000,0.000000,0.000000,0.000000,0.000000,0.000000,0.617481,0.996406,0.829292,0.586368,0.192664,516.000000,417.000000,99.000000,70.000000,0.000000,0.000000,0.000000,0.000000,0.000000;
#CREDIT:Karl with a K;
#NOTES:
// measure 0
00000000
00000000
00000000
00000000
,  // measure 1
00000000
00000000
00000000
00000000
,  // measure 2
00000000
00000000
00000000
00000000
,  // measure 3
10100000
00010000
00010000
10000000
01100000
00010000
00100000
00001000
,  // measure 4
00000110
00000010
00010000
00001000
00010010
00000100
00010000
00001000
,  // measure 5
00000010
00000100
00000010
00001000
00000001
00000010
00000100
00001000
,  // measure 6
00000100
00000010
00000100
00000010
00000100
00000000
00000100
00000000
00001000
00000000
00000100
00000000
00011000
00000000
00000000
00000000
00000000
00000000
00000000
00000000
00000000
00000000
00000000
00000000
00001010
00000000
00000000
00000000
00000000
00000000
00000010
00000000
,  // measure 7
00000100
00000000
00001100
00011000
00000000
00000000
00010000
00000000
10000000
00000000
00110000
00000000
00000000
01000000
00001000
00000000
,  // measure 8
01001000
00010100
00000000
00000000
00001000
00000000
00100000
00000000
00011000
00000000
00000000
00000100
00000010
00000000
00001100
00000101
,  // measure 9
00000000
00000000
00001000
00000000
00010000
00000000
01010000
00000000
00000000
00100000
01000000
00000000
00001000
00000000
00000000
00020000
,  // measure 10
00030000
00000000
00010000
00000000
00000010
00001000
00010000
00000000
00000000
00000100
00001000
00000000
00011000
00101000
00000000
00000000
,  // measure 11
00010000
00000000
01000000
00000000
01100000
00000000
00000000
00001000
01000000
00000000
00100000
10010000
00000000
00000000
00100000
00000000
,  // measure 12
01000000
00000000
01100000
00000000
00000000
00100000
01000000
00000000
10100000
01010000
00000000
00000000
00100000
00000000
00010000
00000000
,  // measure 13
00001000
00000000
01000000
00001000
00010000
00000000
00010000
00100000
00000000
00001000
00000000
00000000
00000100
00000000
00001000
00000010
,  // measure 14
00001000
00000110
00001010
00001001
,  // measure 15
00000110
00001010
00101000
10010000
,  // measure 16
00011000
00000000
00000000
00000000
00010100
00000000
00000000
00000000
00000000
00000000
00000000
00000000
00001000
00000000
00000000
00000001
,  // measure 17
00001000
00000000
00000010
00000000
00000010
00000001
00000000
00000000
00000010
00000000
00000010
00000100
00001000
00000000
00000000
00010000
,  // measure 18
00100000
00000000
10000000
00010000
00000000
10000000
00100000
00000000
10000000
01000000
00010000
00000000
00001000
00000000
00010000
00000000
,  // measure 19
00001000
00000000
00000000
00001010
00000000
00000000
00001001
00000000
00000001
00000000
00001000
00000000
00000010
00000000
00010000
00000000
,  // measure 20
00001000
00000000
00000000
00000000
00000000
00000000
00000000
00000000
00000000
00001010
00000000
00000000
00000000
00000000
00000000
00000000
00000000
00000000
00011000
00000000
00000000
00000000
00000000
00000000
00100000
00000000
00000000
00000000
00000000
00000000
01000000
00000000
00000000
00000000
00000000
00000000
00000000
00000000
00100000
00000000
00000000
00000000
00000000
00000000
00000000
00000000
01000000
00000000
,  // measure 21
00000000
00000000
00000000
00010000
00000000
00000000
00000000
00000000
00000000
00000000
00000000
00001000
00000000
00000000
00000000
00010000
00000000
00000000
00001000
00000000
00000000
00110000
00000000
00000000
,  // measure 22
00000000
00010000
00001000
00000000
00000100
00000000
00010100
00000000
00000000
00000010
00010000
00000000
00001000
00000000
00000020
00000000
,  // measure 23
00000000
00002030
00000000
00003200
00000000
00002300
00000000
00003002
,  // measure 24
00000000
00000000
00000000
00000000
00000023
00000000
00000000
00000000
00000000
00000000
00000000
00000000
00000032
00000000
00000000
00000000
00000000
00000000
00000000
00000000
00002003
00000000
00000000
00003000
00000200
00000000
00000000
00000000
00000000
00000000
00000000
00000000
,  // measure 25
00000320
00000030
00000022
00000000
00000000
00000033
00002200
00000000
,  // measure 26
00003000
00000310
00002002
00000000
00000000
00000000
00003003
00000000
,  // measure 27
00000002
00000000
00000103
00000010
00020020
00000000
00000000
00000000
00000000
00000000
00030030
00000000
00022000
00000000
00000000
00000000
,  // measure 28
00003000
00030100
00002002
00000000
00000000
00003003
00000202
00000000
,  // measure 29
00000000
00000000
00000000
00000303
00000220
00000000
00000000
00000000
00000000
00000000
00000330
00000000
00002200
00000000
00000000
00000000
,  // measure 30
00003000
00010300
00022000
00000000
00000000
00033000
01000000
00000000
,  // measure 31
00020000
00000000
01030000
00100000
20200000
00000000
00000000
00000000
00000000
00000000
30300000
00000000
22000000
00000000
00000000
00000000
,  // measure 32
33000000
01000000
00220000
00000000
00000000
00330000
00022000
00000000
,  // measure 33
00000000
00033000
00011000
00001000
00100000
00010000
00001000
00010000
,  // measure 34
00000100
00022000
00000000
00033000
,  // measure 35
00000000
00000000
01100000
00100000
10000000
00100000
00010000
00001000
,  // measure 36
00010000
00000000
00020200
00030300
00002020
00003030
00001100
00000001
,  // measure 37
00001000
00000001
00000011
00000010
00001000
00000010
00001100
00010000
,  // measure 38
00100000
01000000
01100000
00100000
10000000
01000000
00010000
00001000
,  // measure 39
00010000
00000000
00000000
00000000
00001000
00000000
00000000
00000000
00001000
00000000
00000000
00000000
01000000
00000000
00000000
00000000
01000000
00000000
00010000
00000000
01000000
00000000
00010000
00000000
01000000
00000000
10000000
01000000
00010000
00001000
00010100
00000000
,  // measure 40
00001100
00000000
00000000
00000101
00000000
00000000
00010100
00000000
,  // measure 41
00000000
00011000
00000000
00000000
01010000
00000000
00100000
00000000
,  // measure 42
10000000
00000000
00100000
00000000
00010000
00000000
00001000
00000100
,  // measure 43
00000000
00000000
00010000
00000000
00000100
00010000
00001000
00010000
,  // measure 44
00000200
00000000
00000300
00000010
,  // measure 45
00022000
00000000
00000000
00000000
00033000
00010000
00000000
00000000
,  // measure 46
01000000
00100000
00001000
00000000
,  // measure 47
00010000
00000100
00000000
00010000
00000000
00000000
00000010
00000000
,  // measure 48
00000100
00000000
00000000
00011000
00000000
00000000
00101000
00000000
,  // measure 49
00010000
00000100
00001000
00000000
00000000
00011000
00000000
00000000
,  // measure 50
00000110
00000000
00000000
00001001
00000000
00000000
00000010
00000000
,  // measure 51
00001000
00000010
00000100
00001000
,  // measure 52
00001000
00100000
00000000
00100000
00001000
00000000
01000000
00000000
,  // measure 53
00000000
00020000
00000000
00000000
,  // measure 54
00030000
00000000
00001000
00000000
01001000
00000000
00000000
11000000
,  // measure 55
00000000
01100000
00010000
01000000
,  // measure 56
00100000
00000000
00010000
00000000
00000000
00002000
00003000
00020000
,  // measure 57
00030000
00000020
00000000
00010030
,  // measure 58
00000000
00001100
00000000
00000000
00000011
00000000
00000000
00011000
,  // measure 59
00000000
00000101
00000010
00000100
,  // measure 60
00000010
00000100
00000000
00000000
00000010
00001000
00000000
00000010
,  // measure 61
00000000
00000000
00010000
00000000
00010000
00100000
00020000
00000000
,  // measure 62
00000000
00030000
10000000
02020000
,  // measure 63
00000000
00000000
03030000
00100000
00010000
00100000
01000000
10000000
,  // measure 64
00100000
00000000
00010000
00000000
00000000
01100000
00000000
00000000
,  // measure 65
01100000
00000000
00000000
02000000
03000000
00000000
00020000
00000000
,  // measure 66
00000000
00000000
00000000
01030000
,  // measure 67
00000000
11000000
00000000
00000000
00110000
00000000
00000000
00010010
,  // measure 68
00000000
00000000
00000110
00000000
00000100
00000010
00001000
00000000
,  // measure 69
00000100
00000000
00001000
00000000
00010000
00001000
00000000
00000000
,  // measure 70
01000000
00000000
00001000
00010000
00000100
00010000
00000100
00000000
,  // measure 71
00000010
00000000
00000010
00000000
00000110
00000000
00000000
00010000
,  // measure 72
00000000
00010000
01000000
00020000
,  // measure 73
00030200
00000000
00001300
00000000
00000200
00000000
00000000
00002300
,  // measure 74
00000000
00003000
00000000
00002000
00000000
00003000
00001000
00010000
,  // measure 75
00001000
00000000
00000000
00010010
00000000
00000000
00000110
00000000
,  // measure 76
00000000
00001010
00000000
00000000
00001100
00000000
00000010
00000000
,  // measure 77
00000100
00000001
00000100
00000010
,  // measure 78
00000000
00000000
00001000
00000000
00000010
00001000
00000010
00000000
,  // measure 79
00020000
00030000
00001000
00000010
,  // measure 80
00000200
00000000
00000000
00000000
00000300
00011000
00000000
00000000
,  // measure 81
01100000
00000000
00010000
00000000
01000000
00000000
00000000
00001000
,  // measure 82
00000000
00000000
00001000
00010000
00000000
00000010
00000000
00000000
,  // measure 83
00001100
00000001
00001000
00000000
00000001
00000010
00000100
00000000
,  // measure 84
00000100
00000010
00000000
00001000
00000000
00000000
00001100
00000000
,  // measure 85
00000010
00010000
00000010
00000000
00000100
00000000
00010000
00000000
,  // measure 86
00001000
00100000
01000000
10000000
,  // measure 87
01000000
00001000
10000000
01000000
,  // measure 88
00100000
00000000
00010000
00100000
01000000
00000000
00001000
00010000
,  // measure 89
00001000
00010000
00000010
00000000
00000000
00011000
00000000
00000000
,  // measure 90
00001100
00000000
00000000
00000220
00000330
00000000
00001000
00000000
00000000
00010000
00000000
00000000
,  // measure 91
00002200
00000000
00003300
00000000
;

//---------------dance-double - ----------------
#NOTEDATA:;
#CHARTNAME:;
#STEPSTYPE:dance-double;
#DESCRIPTION:;
#CHARTSTYLE:;
#DIFFICULTY:Easy;
#METER:13;
#RADARVALUES:0.452341,0.843113,0.536108,0.586368,0.075390,378.000000,314.000000,64.000000,70.000000,0.000000,0.000000,0.000000,0.000000,0.000000,0.452341,0.843113,0.536108,0.586368,0.075390,378.000000,314.000000,64.000000,70.000000,0.000000,0.000000,0.000000,0.000000,0.000000;
#CREDIT:Karl with a K;
#NOTES:
// measure 0
00000000
00000000
00000000
00000000
,  // measure 1
00000000
00000000
00000000
00000000
,  // measure 2
00000000
00000000
00000000
00000000
,  // measure 3
00001000
00010000
01000000
00000000
01000000
00010000
00001000
00000000
,  // measure 4
01000000
00100000
00010000
00000000
00001000
00000010
00000001
00000000
,  // measure 5
00000010
00000100
00000100
00000010
00000001
00000100
00000001
00000000
,  // measure 6
00002000
00000000
00000000
01003000
00000000
00000000
01010000
00000000
,  // measure 7
00100000
00000000
10010000
00001000
00000000
00000000
00010000
00000000
00000000
00000000
00011000
00000000
00000000
00000000
00001000
00000000
,  // measure 8
01001000
10000000
00000000
00000000
01000000
00000000
00000000
00000000
00011000
00000000
00000000
00000000
00010000
00000000
00010100
00001000
,  // measure 9
00000000
00000000
00001000
00000000
00000000
00000000
00010100
00000000
00000000
00000000
00010000
00000000
00000000
00000100
00000000
00022000
,  // measure 10
00033000
00000000
00001000
00000000
00010000
00000000
00001000
00000000
00000000
00000000
00000100
00000000
00001001
00000100
00000000
00000000
,  // measure 11
00010000
00000000
00000000
00000000
00010010
00000000
00000000
00000000
00010000
00000000
00101000
01000000
00000000
00000000
10000000
00000000
,  // measure 12
00000000
00000000
10000000
00000000
00000000
00000000
00100000
00000000
00011000
00100000
00000000
00000000
01000000
00000000
00000000
00000000
,  // measure 13
00110000
00000000
00000000
00000000
00010000
00000000
00000000
00001000
00000000
00000100
00000000
00000000
00001000
00000000
00000000
00000000
,  // measure 14
00000100
00000010
00000001
00000010
,  // measure 15
00001000
01000000
00100000
00000000
,  // measure 16
10000000
10010000
00000000
00010000
,  // measure 17
01000000
00000000
10000000
00000000
00000000
01000000
00000000
00000000
00100000
00000000
00010000
00000000
00001000
00000000
00000000
00000000
,  // measure 18
00100000
00000000
00000000
00010000
00000000
00001000
00010000
00000000
00000010
00000000
00000100
00000000
00000001
00000000
00000100
00000000
,  // measure 19
00001001
00000000
00000000
00011000
00000000
00000000
10010000
00000000
01000000
00000000
00001000
00000000
00010000
00000000
00010000
00000000
,  // measure 20
11000000
00000000
00000000
00000000
00000000
00000000
00000000
00000000
00000000
01100000
00000000
00000000
00000000
00000000
00000000
00000000
00000000
00000000
00110000
00000000
00000000
00000000
00000000
00000000
01000000
00000000
00000000
00000000
00000000
00000000
00022000
00000000
00000000
00000000
00000000
00000000
00000000
00000000
00000000
00000000
00000000
00000000
00000000
00000000
00000000
00000000
00003000
00000000
,  // measure 21
00030000
00000000
00000000
00002002
00000000
00000000
00000000
00000000
00000000
00000000
00000000
00000003
00003000
00000000
00000000
00010000
00000000
00000000
00001000
00000000
00000000
00010000
00000000
00000000
,  // measure 22
00000000
00000100
00000000
00000000
00000010
00000000
00001100
00000000
00000000
00000000
00011000
00000000
00000000
00000000
00000100
00000000
,  // measure 23
00000000
00001000
00000000
00000010
00000000
00000010
00000000
00001000
,  // measure 24
00000000
01000000
00000000
00010000
00000000
10000000
01000000
00000000
,  // measure 25
00010000
00000000
00002200
00000000
00000000
00003300
00000022
00000000
,  // measure 26
00000000
00000033
00000202
00000000
00000000
00000303
00022000
00000000
,  // measure 27
00000000
00033000
00002002
00000000
00000000
00003003
00002200
00000000
,  // measure 28
00000000
00003300
00020200
00000000
00000000
00030300
00022000
00000000
,  // measure 29
00000000
00033000
00020200
00000000
00000000
00030300
00220000
00000000
,  // measure 30
00000000
00330000
20020000
00000000
00000000
30030000
02200000
00000000
,  // measure 31
00000000
03300000
00022000
00000000
00000000
00033000
00000220
00000000
,  // measure 32
00000000
00000330
00022000
00000000
00000000
00033000
02200000
00000000
,  // measure 33
00000000
03300000
01001000
00000000
00100000
00000000
00010000
00000000
,  // measure 34
00000100
00022000
00000000
00033000
,  // measure 35
00000000
00010010
00010000
00001000
,  // measure 36
01000000
00000000
00220000
00330000
00002200
00003300
00100000
00010000
,  // measure 37
00001000
00000000
00001000
00010000
00001000
00000000
00100000
00001000
,  // measure 38
00100000
00000000
00000100
00010000
00000010
00000000
00000100
00001000
,  // measure 39
00010000
00000000
00001000
00000000
00010000
00000000
00100000
00000000
00010000
00000000
00000000
00000000
00100000
00001000
00010000
00001000
,  // measure 40
00100000
00000000
00000000
01000000
00000000
00000000
10000000
00000000
,  // measure 41
00000000
00100000
00000000
00000000
00101000
00000000
00000000
00000000
,  // measure 42
00001000
00000000
00000010
00000000
00001000
00000000
00000000
00010000
,  // measure 43
00000000
00010000
00000000
00000000
00000200
00000000
00000000
00000000
,  // measure 44
00000302
00000000
00000003
00010000
,  // measure 45
00002200
00000000
00000000
00000000
00003300
00000010
00000000
00000000
,  // measure 46
00000001
00000010
00000100
00000000
,  // measure 47
00000000
00001000
00000000
00000000
00000000
00000000
00010000
00000000
,  // measure 48
00000000
00000000
00000000
00101000
00000000
00000000
01010000
00000000
,  // measure 49
00000000
00000000
10000000
00000000
00000000
01100000
00000000
00000000
,  // measure 50
00011000
00000000
00000000
00000110
00000000
00000000
00000010
00000000
,  // measure 51
00000001
00000100
00000010
00000100
,  // measure 52
00000000
00000010
00000000
00001000
00000000
00000000
00000100
00000000
,  // measure 53
00000100
00000020
00000000
00000000
,  // measure 54
00000030
00000000
00001000
00000000
00100000
00000000
00000000
00010000
,  // measure 55
00000000
01000000
10000000
01000000
,  // measure 56
00100000
00000000
00010000
00000000
00000000
00000020
00000030
00000020
,  // measure 57
00000030
00000200
00000000
00000310
,  // measure 58
00000000
00011000
00000000
00000000
00001100
00000000
00000000
00010100
,  // measure 59
00000000
00100000
00010000
01000000
,  // measure 60
00000000
00100000
00000000
00000000
00010000
00000000
00000000
10000000
,  // measure 61
00000000
00010000
10000000
00020000
,  // measure 62
00000000
00030000
01000000
02002000
,  // measure 63
00000000
03003000
00000000
10000000
,  // measure 64
00100000
00000000
10000000
00000000
00000000
00010000
00000000
00000000
,  // measure 65
00100000
00000000
00000000
02000000
03000000
00000000
00002000
00000000
,  // measure 66
00000000
00000000
00000000
00013000
,  // measure 67
00000000
11000000
00000000
00000000
01100000
00000000
00000000
00110000
,  // measure 68
00000000
00001000
00010000
00000010
,  // measure 69
00010000
00000000
00001000
00000000
00000000
00100000
00000000
00000000
,  // measure 70
00010000
01000000
00000000
00100000
,  // measure 71
00001000
00000000
00100000
00000000
00011000
00000000
00000000
00001000
,  // measure 72
00000000
00100000
10000000
02000000
,  // measure 73
03020000
00000000
10030000
00000000
00020000
00000000
00000000
02030000
,  // measure 74
00000000
03000000
00000000
02000000
00000000
03000000
00200000
00000000
,  // measure 75
00310000
00000000
00000000
00001000
00000000
00000000
00000100
00000000
,  // measure 76
00000000
00000010
00000000
00000000
00000010
00000000
00000100
00000000
,  // measure 77
00001000
00010000
00100000
01000000
,  // measure 78
00000000
10000000
00000000
00000000
00100000
00000000
10000000
00000000
,  // measure 79
00020000
00000000
00030000
00001000
,  // measure 80
00000002
00000000
00000000
00000000
00000003
00000100
00000000
00000000
,  // measure 81
00000010
00000000
00010000
00000000
00001000
00000000
00000000
00000010
,  // measure 82
00000000
00000000
00010000
00000000
00000000
00010000
00000000
00000000
,  // measure 83
00001000
00000000
00000100
00000000
00000000
00010000
00000000
00000000
,  // measure 84
00000100
00000000
00000000
00000100
00000000
00000000
00000010
00000000
,  // measure 85
00001000
00000010
00001000
00010000
,  // measure 86
00100000
10000000
00100000
01000000
,  // measure 87
00100000
10000000
01000000
00100000
,  // measure 88
00010000
00001000
00010000
00001000
,  // measure 89
00001000
00000000
00010000
00000000
00000000
00011000
00000000
00000000
,  // measure 90
00001100
00000000
00000000
00000220
00000330
00000000
00001000
00000000
00000000
00000010
00000000
00000000
,  // measure 91
00002002
00000000
00003003
00000000
;

//---------------dance-double - ----------------
#NOTEDATA:;
#CHARTNAME:;
#STEPSTYPE:dance-double;
#DESCRIPTION:;
#CHARTSTYLE:;
#DIFFICULTY:Challenge;
#METER:18;
#RADARVALUES:0.910665,2.454368,1.256502,0.611498,0.598933,761.000000,611.000000,150.000000,73.000000,184.000000,0.000000,0.000000,0.000000,0.000000,0.910665,2.454368,1.256502,0.611498,0.598933,761.000000,611.000000,150.000000,73.000000,184.000000,0.000000,0.000000,0.000000,0.000000;
#CREDIT:Karl with a K;
#NOTES:
// measure 0
00000000
00000000
00000000
00000000
,  // measure 1
00000000
00000000
00000000
00000000
,  // measure 2
MMMMMMMM
MMMMMMMM
MMMMMMMM
MMMMMMMM
MMMMMMMM
00000000
MMMMMMMM
00000000
,  // measure 3
00011000
00000000
00001000
01000000
00001000
00000000
00010000
00000000
00110000
00000000
00100000
00001000
00010000
00000000
00000100
00000000
,  // measure 4
00000011
00000000
00001000
00000010
00001000
00000000
00000100
00000000
00001100
00000000
00000100
00010000
00001000
00000000
00100000
00000000
,  // measure 5
01000000
00000000
10000000
00000000
00100000
00000000
10000000
00000000
01000000
00000000
00100000
00000000
00001000
00000000
01000000
00000000
00100000
00000000
10000000
00000000
01000000
00000000
00100000
00000000
00010000
00001000
00010000
00001000
00010000
00001000
00010000
00001000
,  // measure 6
MMMMMMMM
00000000
00001000
00000100
00001000
00000001
00001000
00000010
00000100
00000000
00001100
00000000
00000011
00000000
00000000
00000000
00000000
00000000
00000000
00000000
MMMMMMMM
00000000
00000000
00000000
00001020
00000000
00000000
00000000
00001030
00000000
00000010
00000000
,  // measure 7
00010000
00000000
00010100
00001010
00000000
00000000
00011000
00000000
00101000
00000000
00110000
00000000
00100000
00001000
00010000
00000000
,  // measure 8
01010000
10100000
00000000
00000000
11000000
00000000
10100000
00000000
10010000
00000000
01000000
00010000
10000000
00000000
00101000
00011000
,  // measure 9
00000000
00000000
00001010
00000000
00011000
00000000
00001100
00000000
00000000
00000100
00001000
00000000
00000100
00000001
00000000
00000220
,  // measure 10
00000330
00000000
00001010
00000000
00000010
00000100
00000001
00000000
00000000
00000100
00001000
00000000
00000101
00001010
00000000
00000000
,  // measure 11
00010010
00000000
01001000
00000000
01100000
00000000
10000000
00100000
10000000
00000000
01010000
00011000
00000000
00000000
00001100
00000000
,  // measure 12
00010100
00000000
00011000
00000000
00000100
00001000
00000001
00000000
00001010
00001001
00000000
00000000
00000110
00000000
00001100
00000000
,  // measure 13
00011000
00000000
01000000
00100000
01000000
00000000
01000000
01000000
00000000
10000000
00000000
00000000
10000000
00000000
00100000
00010000
,  // measure 14
10010000
00011000
01010000
10010000
,  // measure 15
01001000
00000000
00000000
MMMMMMMM
00000000
00000000
10100000
00000000
00000000
00000000
00100000
00000000
00010000
00000000
00000000
00000000
00000000
00000000
00101000
00000000
00000000
00000000
00000000
00000000
,  // measure 16
00001010
00000000
00000000
00000000
00010100
00000000
00000000
00000000
00010000
00000000
00001000
00000000
00011000
00000000
00010000
01000000
,  // measure 17
00100000
00000000
00001000
00000000
00100000
10000000
00000000
00000000
10000000
00000000
00100000
10000000
00010000
00000000
10000000
00100000
,  // measure 18
01000000
00000000
00001000
00010000
00000000
01000000
00010000
00000000
01000000
10000000
00100000
00000000
10000000
00000000
01000000
00000000
,  // measure 19
11000000
00000000
00000000
00101000
00000000
00000000
00010100
00000000
00001000
00000000
00000010
00000000
00010000
00000000
00001000
00000000
,  // measure 20
00001100
00000000
00000000
00000000
00000000
00000000
00000000
00000000
00000000
00000110
00000000
00000000
00000000
00000000
00000000
00000000
00000000
00000000
00000101
00000000
00000000
00000000
00000000
00000000
00000100
00000000
00000000
00000000
00000000
00000000
00000010
00000000
00000000
00000000
00001000
00000000
00000000
00000000
00000001
00000000
00000000
00000000
00000010
00000000
00000000
00000000
00000001
00000000
,  // measure 21
00000000
00001000
00000000
00000010
00000000
00001000
00000000
00000100
00000000
00010000
00000000
00001000
00000000
00100000
00000000
00110000
00000000
00000000
11000000
00000000
00000000
01100000
00000000
00000000
,  // measure 22
00000000
00000000
10000000
00000000
11000000
00000000
00000000
00000000
01000000
00000000
00000000
00000000
00110000
00000000
00000000
00000000
00100000
00000000
01000000
00000000
01010000
00000000
00000000
00000000
00100000
00000000
01000000
00000000
01010000
00010000
00010000
00010000
,  // measure 23
00010000
00010000
00010000
00010000
01000000
01000000
01000000
01000000
01000000
01000000
01000000
01000000
00001000
00001000
00001000
00001000
00001000
00001000
00001000
00001000
00010000
00010000
00010000
00010000
00010000
00010000
00010000
00010000
00000010
00000010
00000010
00000010
,  // measure 24
00000010
00000010
00000010
00000010
00000100
00000100
00000100
00000100
00000100
00000100
00000100
00000100
00000001
00000001
00000001
00000001
00000001
00000001
00000001
00000001
00000100
00000100
00000100
00000100
00000020
00000000
00000000
00000000
00000000
00000000
00000000
00000000
,  // measure 25
00000032
00000103
00000102
00000010
00000100
00000003
00000220
00000000
,  // measure 26
00000300
00000000
00020030
00031000
00201000
00000000
00010000
00000000
00000000
00000000
00300000
00000000
10100000
00000000
00000000
00000000
,  // measure 27
20000000
00000000
32000000
03100000
21000000
00000000
00100000
00000000
00100000
00000000
30000000
00000000
00210000
00000000
00000000
00000000
,  // measure 28
00000000
00000000
00302000
00013000
00001200
00000000
00000010
00000000
00001000
00000000
00000300
00000000
00002200
00000000
00000000
00000000
,  // measure 29
00000300
00000000
00000000
00003010
00000210
00000000
00000000
00000000
00000000
00000000
00000300
00000000
00001002
00000000
00000000
00000000
,  // measure 30
00000000
00000000
00000023
00001030
00000210
00000000
00000001
00000000
00000000
00000000
00000300
00000000
00001002
00000000
00000000
00000000
,  // measure 31
00000203
00000000
00000320
00001030
00012000
00000000
00100000
00000000
01000000
00000000
00003000
00000000
20200000
00000000
00000000
00300000
,  // measure 32
00000000
00000000
30200000
01300000
00020000
00000000
00100000
00000000
00100000
00000000
00030000
00000000
01200000
00000000
00000000
00000000
,  // measure 33
00000000
00000000
00300000
00000000
10010000
00000000
00010000
10000000
00010000
00000000
01000000
00000000
10000000
00000000
01000000
00000000
,  // measure 34
10000000
20200000
00000000
30300000
,  // measure 35
00000000
00000000
00000000
00000000
01010000
00000000
10000000
01000000
00100000
00000000
00001000
00000000
00010000
00000000
00000010
00000000
,  // measure 36
00000100
00000000
00000000
00000000
00002020
00000000
00003030
00000000
00000220
00000000
00000330
00000000
00001001
00000000
00000100
00000010
,  // measure 37
00000100
00000000
00001000
00000000
00010100
00000000
00001000
00000100
00010000
00000000
00010000
00000000
00101000
00000000
00100000
00001000
,  // measure 38
00100000
00000000
00001000
00000000
01100000
00000000
00100000
10000000
00100000
00000000
00010000
00000000
10000000
01000000
10000000
00100000
,  // measure 39
01000000
00000000
00000000
00000000
00001000
00000000
00000000
00000000
00010000
00000000
00000000
00000000
00000010
00000000
00000000
00000000
00001000
00000000
00000000
00000000
00010000
00000000
00000000
00000000
00001000
00000000
00000000
00000000
00010000
00000000
00000000
00000000
00000100
00000000
00000010
00000000
00000100
00000000
00000010
00000000
00000100
00000000
00000010
00000000
00000100
00000000
00000010
00000000
MMMMMMMM
00000000
00000100
00001000
00000100
00000010
00000001
00001000
00000100
00000000
00000110
00000000
00000011
00000000
00000000
00000000
,  // measure 40
00001100
00000000
00000001
00000100
00000010
00000000
00000110
00000000
,  // measure 41
00000000
00011000
00000000
00000000
01001000
00000000
01000000
00001000
,  // measure 42
10000000
00000000
00010000
00000100
00001000
00000100
00010000
00001000
,  // measure 43
MMMMMMMM
00000110
00000000
00000000
00000100
00000010
00000100
00000001
,  // measure 44
00000202
00000000
00000000
00000000
00000303
00000000
00000100
00001000
,  // measure 45
00002200
00000000
00000000
00000000
00003300
00000010
MMMMMMMM
00000000
,  // measure 46
00001000
00000000
00010000
10000000
21000000
00000000
00000000
00000000
,  // measure 47
30001000
20000000
00000000
00010000
00000000
30000000
20000000
00000000
,  // measure 48
00100000
00000000
30000000
10100000
00000000
MMMMMMMM
10010000
00000000
,  // measure 49
00010000
10000000
10010000
00000000
00100000
00001000
00011000
00000000
,  // measure 50
00001001
00000000
00000000
00010100
00000000
00000000
00001000
00000000
,  // measure 51
00100000
01000000
01100000
00000000
11000000
00000000
01100000
00000000
,  // measure 52
10000000
01000000
MMMMMMMM
01000000
10000000
00000000
01010000
00000000
,  // measure 53
10000000
00100000
20200000
00000000
00000000
00000000
00000000
00000000
,  // measure 54
30300000
00000000
01010000
00000000
00010010
00000000
MMMMMMMM
00001010
,  // measure 55
00000000
MMMMMMMM
00000011
00000000
00001000
00000001
00001000
00000001
,  // measure 56
00001000
00000001
00000010
00000001
00000010
00000200
00000310
00001020
,  // measure 57
00000030
MMMMMMMM
00020000
00030200
00002300
00003020
00000031
00000000
,  // measure 58
00000000
00001000
00000001
00000000
00001001
00000000
00000000
00001001
,  // measure 59
00000000
00000000
00001100
00000000
00010000
00001000
00101000
00000000
,  // measure 60
00010000
00000100
MMMMMMMM
00000000
00001000
00000010
00000000
00001000
,  // measure 61
00010000
00000000
00011000
00000000
00010000
00100000
00202000
00000000
,  // measure 62
00000000
00303000
01100000
22000000
,  // measure 63
00000000
00000000
33000000
00001000
10000000
00100000
10000000
00100000
,  // measure 64
10000000
00100000
01100000
00000000
00010000
00001000
01001000
00000000
,  // measure 65
00001000
01000000
MMMMMMMM
00200000
00300000
00000000
20000000
00000000
,  // measure 66
30200000
20300000
30200000
10300000
,  // measure 67
00000000
10000000
00001000
00000000
00010100
00000000
00000000
00000101
,  // measure 68
00000000
00000000
00001001
00000000
00001000
00000100
00001000
00000000
,  // measure 69
00000011
00000000
00001100
00000000
00010000
00010100
00000000
00010000
,  // measure 70
00010010
00000000
00001000
00000100
00010000
00001000
01000000
00000000
,  // measure 71
00010000
10000000
00100000
00000000
10100000
00000000
10000000
00001000
,  // measure 72
MMMMMMMM
00000000
00010000
00100000
00010000
00100000
01000000
10000000
,  // measure 73
11000000
00000000
11000000
00000000
00010000
10010000
00000000
20000000
,  // measure 74
00000000
30100000
00000000
20000000
00000000
31000000
00100000
01000000
,  // measure 75
01010000
00000000
00000000
00100000
01000000
00000000
01001000
00000000
,  // measure 76
00000000
11000000
00000000
00000000
01010000
00000000
10000000
00010000
,  // measure 77
01000000
00000000
00001000
00010000
00001000
00000000
00101000
00000000
,  // measure 78
00000000
01000000
10000000
00000000
10000000
00010000
10000000
01000000
,  // measure 79
02200000
00000000
03000000
00000000
00301000
00000000
00000100
00000010
,  // measure 80
00000220
00000000
00000000
00000000
00000330
00001001
00000000
00000000
,  // measure 81
00011000
00000000
00110000
00000000
00001000
00000000
00000100
00001000
,  // measure 82
00000100
00000000
00000010
00000100
00000000
00001010
MMMMMMMM
MMMMMMMM
,  // measure 83
00001010
00000000
00000001
00001000
00001001
00000000
00000000
00000000
00000100
00000000
00000010
00000000
00001000
00000000
00000000
00000000
,  // measure 84
00001000
01000000
00000000
00100000
00000000
00000000
11000000
00000000
,  // measure 85
00010000
10000000
11000000
00000000
00100000
00000000
00001000
00100000
,  // measure 86
00001000
01000000
00100000
00001000
00010000
00000010
00000100
00000001
,  // measure 87
00000010
00000100
00010000
00001000
01000000
00010000
10000000
01000000
,  // measure 88
00100000
00010000
00001000
00000100
00000010
00000001
00000010
00000100
,  // measure 89
00001000
00000100
00010000
00001000
00000010
01000000
00010000
00001000
,  // measure 90
00000010
00000000
00000000
00000001
00000000
00000000
00020200
00000000
00030300
00000000
00000000
00000000
00000020
00000000
00000000
00000130
00000000
00000000
00000020
00000000
00000000
00000130
00000000
00000000
,  // measure 91
00000220
00000000
00000000
00000000
00000000
00000000
00000000
00000000
00000330
MMMMMMMM
00000000
00000000
00000000
00000000
00000000
00000000
;
