#TITLE:Yoru ni Kakeru;
#SUBTITLE:;
#ARTIST:YOASOBI;
#TITLETRANSLIT:;
#SUBTITLETRANSLIT:;
#ARTISTTRANSLIT:;
#CREDIT:;
#BANNER:Yoru ni Kakeru BN.png;
#BACKGROUND:Yoru ni Kakeru BG.png;
#LYRICSPATH:;
#CDTITLE:CDTITLE.png;
#MUSIC:Yoru ni Kakeru.ogg;
#OFFSET:0.280;
#SAMPLESTART:74.180;
#SAMPLELENGTH:12.000;
#SELECTABLE:YES;
#BPMS:0.000=130.000;
#STOPS:;
#BGCHANGES:0.625=Yoru Ni Kakeru.avi=1.000=1=1=0,
99999=-nosongbg-=1.000=0=0=0 // don't automatically add -songbackground-
;

//---------------dance-single - ----------------
#NOTES:
     dance-single:
     :
     Beginner:
     1:
     0.000,0.000,0.000,0.000,0.000:
0000
0000
0000
0000
;

//---------------dance-single - ----------------
#NOTES:
     dance-single:
     :
     Easy:
     1:
     0.000,0.000,0.000,0.000,0.000:
0000
0000
0000
0000
;

//---------------dance-single - Copied from----------------
#NOTES:
     dance-single:
     Copied from:
     Medium:
     1:
     0.000,0.000,0.000,0.000,0.000:
0000
0000
0000
0000
;

//---------------dance-single - Copied from----------------
#NOTES:
     dance-single:
     Copied from:
     Hard:
     11:
     0.540,0.593,0.220,0.018,0.271: // measure 1
0000
0000
0000
0000
,  // measure 2
0000
0000
0000
0000
,  // measure 3
0000
0000
0000
0000
,  // measure 4
0000
0000
0000
0000
,  // measure 5
0000
0000
0000
0100
,  // measure 6
0010
1000
0001
0010
,  // measure 7
0100
1000
0100
0001
,  // measure 8
0010
0000
0000
0000
0100
0000
0000
0000
0010
0000
0000
0000
1000
0010
1000
0000
,  // measure 9
0100
0000
0010
0000
0001
0010
0001
0000
0100
0000
0100
0010
0000
0000
0100
0000
,  // measure 10
1000
0000
0000
0000
1000
0000
0010
0000
1000
0000
0000
0000
0100
0000
0010
0100
,  // measure 11
0000
0000
0000
0000
0001
0000
1000
0000
0001
0000
0000
0000
0100
0000
0001
0100
,  // measure 12
0000
0000
1000
0000
0010
0000
0100
0000
0001
0000
0010
0000
0100
0000
1000
0001
,  // measure 13
0000
0000
0010
0000
0100
0000
0000
0000
0010
0000
0000
0000
1000
0000
0100
0010
,  // measure 14
0000
0000
0000
0000
0010
0000
1000
0000
0001
0000
0000
0000
1000
0000
0010
0100
,  // measure 15
0000
0000
0001
0000
1000
0000
0100
0000
0010
0000
0001
0000
0100
0000
1000
0001
,  // measure 16
0000
0010
1000
0001
1000
0100
0010
0001
,  // measure 17
1000
0001
1000
0100
0010
0001
1000
0010
,  // measure 18
1000
1010
0000
0100
0010
0100
0000
0110
,  // measure 19
0000
1000
0010
0100
0010
0100
0010
0100
,  // measure 20
1000
0010
0100
0001
0010
0100
0000
0101
,  // measure 21
0000
1000
0010
0100
0001
0010
0100
1000
,  // measure 22
0001
0000
0010
0000
0100
0000
0000
0110
0000
0000
1000
0000
0010
0000
0100
0001
,  // measure 23
0000
0010
0000
0000
0110
0000
0000
0000
1000
0000
0010
0000
0100
0000
0001
0000
,  // measure 24
0010
0100
0000
0100
0010
1000
0000
1010
,  // measure 25
1010
0000
0000
0000
0110
0000
0000
0110
0000
0000
1000
0000
0001
0000
0010
0000
,  // measure 26
0100
1000
0000
0100
0001
0100
0000
0101
,  // measure 27
0000
1000
0001
0100
0010
1000
0100
0010
,  // measure 28
0001
0100
1000
0001
0100
0110
0000
0110
,  // measure 29
0000
1000
0100
0010
0001
1000
0010
0100
,  // measure 30
0001
0000
0010
0000
0100
0000
0000
0110
0000
0000
0001
0000
0100
0000
1000
0010
,  // measure 31
0000
1000
0000
0000
0001
0000
0000
0000
0100
0000
1000
0000
0001
0000
0010
0000
,  // measure 32
0100
0010
0000
0100
0001
0100
0000
2002
,  // measure 33
0000
0000
0000
0000
3003
0000
1000
0010
1000
0010
1000
0000
0100
0000
0001
0100
,  // measure 34
0000
0100
0001
0000
0000
1000
0010
1000
0010
1000
0010
0000
0100
0000
1000
0010
,  // measure 35
0000
0010
1000
0000
0000
0100
0010
0100
0010
0100
0010
0000
0000
0000
0001
1000
,  // measure 36
0001
1000
0001
1000
0000
0000
0100
0001
0100
0001
0100
0001
0000
0000
0101
0000
,  // measure 37
0000
0000
1000
0000
0010
0000
0100
0010
0000
0010
0100
0000
0000
0000
1000
0000
,  // measure 38
0010
0100
0001
0010
0100
1000
0100
0001
,  // measure 39
1000
1010
0000
1010
1000
0100
0010
1000
,  // measure 40
0001
0000
0100
0000
0000
0000
0100
0000
0001
0000
0100
0000
0110
0000
0010
0100
,  // measure 41
0000
0100
0010
0100
0010
0000
1000
0000
0010
0000
0100
0000
0001
0000
0000
1001
,  // measure 42
0000
1000
0000
0000
0010
0000
0100
0000
0001
0000
0010
0000
0100
0000
1000
0010
,  // measure 43
0000
1000
0000
0000
1000
0000
0000
0000
0010
0000
1000
0000
0001
0000
0100
0000
,  // measure 44
0010
0000
1000
0000
0100
0000
0010
0000
0001
0000
0100
0000
1000
0000
0010
0100
,  // measure 45
0000
0010
0000
0000
0100
0000
0000
0000
1000
0000
0100
0000
0010
0000
0000
0001
,  // measure 46
0000
0000
1000
0000
0010
0000
0100
0000
0010
0000
1000
0000
0001
0000
0010
0100
,  // measure 47
0000
0010
0000
0000
0110
0000
0000
0000
1000
0000
0010
0000
1000
0000
0100
0000
,  // measure 48
0010
0001
0100
1000
0010
0100
0110
0000
,  // measure 49
0000
0000
0100
0000
0001
0000
1000
0000
0010
0000
0100
0000
0010
0000
0000
1010
,  // measure 50
0000
1000
0000
0000
1000
0000
0010
0000
0100
0000
0001
0000
0010
0000
0100
0010
,  // measure 51
0000
0001
0000
0000
1000
0000
0000
0000
0100
0000
0010
0000
0001
0000
0100
0000
,  // measure 52
0001
0000
0010
0000
1000
0000
0100
0000
0001
0000
0100
0000
1000
0000
0010
0100
,  // measure 53
0000
0010
0000
0000
0110
0000
0000
0000
0100
0000
0010
0000
0100
0000
0000
0001
,  // measure 54
0000
1000
0010
0100
0010
0001
1000
0001
,  // measure 55
0100
0110
0000
0001
0100
0010
0000
1000
,  // measure 56
0010
0000
0100
0001
0000
0000
0010
0000
0100
0000
1000
0000
1000
0000
1000
0010
,  // measure 57
0000
0000
0000
0000
0010
0000
0001
0000
1000
0000
0000
0000
0100
0000
0010
0100
,  // measure 58
0000
0000
0000
0000
0100
0000
0001
0000
0010
0000
0100
0000
1000
0000
0001
0100
,  // measure 59
0000
0010
0100
1000
0100
0010
0001
0000
;
