#TITLE:Visnu;
#SUBTITLE:;
#ARTIST:Blacklolita;
#TITLETRANSLIT:;
#SUBTITLETRANSLIT:;
#ARTISTTRANSLIT:;
#CREDIT:;
#BANNER:Visnu BN.png;
#BACKGROUND:Visnu BG.png;
#LYRICSPATH:;
#CDTITLE:CDTITLE.png;
#MUSIC:Visnu.ogg;
#OFFSET:0.540;
#SAMPLESTART:81.620;
#SAMPLELENGTH:15.000;
#SELECTABLE:YES;
#BPMS:0.000=130.000;
#STOPS:;
#BGCHANGES:;

//---------------dance-single - ----------------
#NOTES:
     dance-single:
     :
     Beginner:
     4:
     0.211,0.232,0.103,0.009,0.000: // measure 1
0000
0000
0000
0000
,  // measure 2
0000
0000
0000
0000
,  // measure 3
0000
0000
0000
0000
,  // measure 4
0000
0000
0000
0000
,  // measure 5
0000
0000
0100
0000
,  // measure 6
0100
0100
0010
0000
,  // measure 7
0010
0010
1000
0000
,  // measure 8
1000
1000
0001
0000
,  // measure 9
0001
0001
1000
0000
,  // measure 10
1000
1000
0001
0000
,  // measure 11
0001
0001
0100
0000
,  // measure 12
0100
0100
0010
0000
,  // measure 13
0000
0000
0000
1000
,  // measure 14
1000
1000
0001
0001
,  // measure 15
0001
0000
1001
0000
,  // measure 16
1001
0000
1001
0001
,  // measure 17
0001
0001
0000
0001
,  // measure 18
0001
0001
1000
1000
,  // measure 19
1000
0000
1001
0000
,  // measure 20
1001
0000
1001
1000
,  // measure 21
1000
1000
0000
0100
,  // measure 22
0100
0100
0010
0010
,  // measure 23
0010
0000
0110
0000
,  // measure 24
0110
0000
0110
0100
,  // measure 25
0100
0100
0000
0010
,  // measure 26
0010
0010
0100
0100
,  // measure 27
0100
0000
0110
0000
,  // measure 28
0110
0000
0110
0100
,  // measure 29
0100
0100
0001
0000
,  // measure 30
0001
0001
1000
0000
,  // measure 31
1000
1000
0010
0000
,  // measure 32
0010
0010
0100
0000
,  // measure 33
0100
0100
0001
0000
,  // measure 34
0001
0001
1000
0000
,  // measure 35
1000
1000
0010
0000
,  // measure 36
0010
0010
0100
0000
,  // measure 37
0100
0100
0010
0000
,  // measure 38
0010
0010
0001
0000
,  // measure 39
0001
0001
1000
0000
,  // measure 40
1000
1000
0100
0000
,  // measure 41
0100
0100
0010
0010
,  // measure 42
0100
0100
0010
0010
,  // measure 43
0100
0100
0020
0000
,  // measure 44
0000
0000
0030
0000
,  // measure 45
0000
0000
1000
0000
,  // measure 46
1000
1000
0001
0000
,  // measure 47
0001
0001
1000
0000
,  // measure 48
1000
1000
0010
0000
,  // measure 49
0010
0010
0001
0000
,  // measure 50
0001
0001
1000
0000
,  // measure 51
1000
1000
0010
0000
,  // measure 52
0010
0010
0000
0000
,  // measure 53
0000
0000
0001
0000
,  // measure 54
0001
0001
1000
0000
,  // measure 55
1000
1000
0001
0000
,  // measure 56
0001
0001
0100
0000
,  // measure 57
0100
0100
1000
0000
,  // measure 58
1000
1000
0001
0000
,  // measure 59
0001
0001
1000
0000
,  // measure 60
1000
1000
0010
0000
,  // measure 61
0010
0010
0000
0000
;

//---------------dance-single - ----------------
#NOTES:
     dance-single:
     :
     Easy:
     8:
     0.315,0.310,0.333,0.043,0.000:
0000
0000
0000
0000
,
0000
0000
0000
0000
,
0000
0000
0000
0000
,
0000
0000
0000
0000
,
0000
0000
0100
0100
,
0100
0110
0001
0101
,
0100
0100
1000
1000
,
1000
0001
0001
0001
,
0100
0100
1000
0010
,
1000
1010
0100
0001
,
0100
0101
0100
0010
,
0100
0110
0220
0000
,
0000
0000
0330
1000
,
0001
1000
0001
1000
,
0001
1000
1010
0010
,
0011
0001
1001
1000
,
1000
1000
1001
0001
,
0100
0001
0100
0001
,
0100
0001
1001
1000
,
1010
0010
0011
0001
,
0001
0001
1001
1000
,
0100
1000
0100
1000
,
0100
1000
1010
0010
,
0110
0100
1100
0100
,
0100
0100
0110
0010
,
0100
0010
0100
0010
,
0100
0010
0011
0001
,
1001
1000
1010
0010
,
0010
0010
1000
1000
,
1000
1001
0001
0101
,
0100
0100
0010
0010
,
0010
0010
1000
1000
,
1000
1000
0001
0001
,
0001
0101
0100
1100
,
0100
0100
0001
0001
,
0001
0001
1000
1000
,
1000
1000
0010
0010
,
0010
0010
0100
0100
,
0100
0100
0001
0001
,
0001
0001
0100
0100
,
0100
0100
1000
1010
,
0010
0011
0001
1001
,
1000
1100
2200
0000
,
0000
3300
0001
0001
,
0001
0000
1000
1000
,
1000
1010
0010
0110
,
0001
0001
0100
0100
,
0100
0100
0010
0010
,
0010
0010
1000
1000
,
1000
1010
0010
0110
,
0010
0010
0001
0001
,
0001
0001
0002
0000
,
0000
0003
1000
1000
,
1000
1100
0100
0101
,
0001
0001
0100
0100
,
0100
0100
0010
0010
,
0010
0010
0001
0001
,
0001
0101
0100
0110
,
0010
0010
1000
1000
,
1000
1000
0001
0001
,
0001
0001
1001
0000
;

//---------------dance-single - Copied from----------------
#NOTES:
     dance-single:
     Copied from:
     Medium:
     12:
     0.532,0.465,0.308,0.034,0.154:
0000
0000
0000
0000
,
0000
0000
0000
0000
,
0000
0000
0000
0000
,
0000
0000
0000
0000
,
0000
0000
0000
0000
1000
0001
1000
0001
,
1000
0000
0000
1001
0000
0000
0001
0000
1000
0000
0000
1010
0000
0000
0100
0000
,
0010
0000
0001
0000
0100
0000
0010
0000
1000
0010
0000
1000
0000
0000
0100
0000
,
0010
0001
0100
0010
0100
0001
0010
0100
,
1000
0100
0010
0000
0001
0100
0001
0100
,
0001
0000
0000
0101
0000
0000
0100
0000
1000
0000
0100
0000
1000
0000
0100
0000
,
1000
0000
0000
1100
0000
0000
0100
0000
0010
0000
0100
0000
0010
0000
0100
0000
,
0010
0000
0000
0110
0000
0000
0010
0000
0001
0000
0000
0000
1000
0000
0010
0000
,
1000
0010
2010
0000
3001
0000
1000
0001
,
1000
0001
1000
0010
1000
0010
1000
0001
,
1000
0001
1000
0010
1010
0000
0100
0010
,
0110
0000
0001
0100
0101
0000
1000
0100
,
0010
0001
0101
0000
0000
0000
1000
0010
,
1000
0010
0100
0001
0100
0001
0010
1000
,
0010
1000
0010
0100
0110
0000
0001
0100
,
0101
0000
1000
0010
1000
0010
0001
0010
,
1000
0010
0002
0000
1003
0000
1000
0010
,
1000
0010
1000
0100
1000
0100
1000
0001
,
1000
0001
1000
0010
1010
0000
0100
0010
,
0110
0000
0001
0100
0101
0000
1000
0100
,
0010
0001
0020
0000
0130
0000
1000
0100
,
1000
0100
0010
0001
0010
0001
0010
0100
,
1000
0100
0001
0100
0101
0000
0100
0010
,
0110
0000
1000
0010
1000
0010
0001
0010
,
0001
0010
0100
0000
1000
0010
1000
0010
,
1000
0000
0000
1010
0000
0000
0010
0000
0001
0000
0000
0011
0000
0000
1000
0000
,
0010
0000
0001
0000
0010
0000
1000
0000
0100
0001
0000
0100
0000
0000
0010
0000
,
0001
0010
1000
0010
0001
0010
1000
0010
,
1000
0001
0010
0000
1000
0010
1000
0010
,
1000
0000
0000
1010
0000
0000
0100
0000
0010
0000
0000
0110
0000
0000
1000
0000
,
0010
0000
0001
0000
0010
0000
1000
0000
0100
0010
0000
0100
0000
0000
0010
0000
,
0100
0010
1000
0010
0001
0010
0100
0010
,
0001
0100
0010
0000
1000
0010
0001
0010
,
1000
0000
0000
1010
0000
0000
0100
0000
0001
0000
0010
0000
1000
0000
0010
0000
,
0001
0000
0000
0101
0000
0000
0001
0000
0100
0000
1000
0000
0100
0000
0001
0000
,
0100
0000
0000
0110
0000
0000
0010
0000
1000
0000
0010
0000
0001
0000
0010
0000
,
1000
0000
0000
1010
0000
0000
0000
0000
0001
0000
0010
0000
0001
0000
0010
0000
,
0100
1000
0100
1000
0010
0001
0010
0001
,
0100
1000
0100
1000
1000
0001
1000
0001
,
1000
0000
0001
0000
1000
0000
0001
0000
1000
0000
0000
1010
0000
0000
1000
0000
,
1100
0000
1010
0000
0100
0010
0100
0010
,
0100
0000
0000
0110
0000
0000
1000
0000
0010
0000
0000
1010
0000
0000
0100
0000
,
0010
0000
0001
0000
0010
0000
0100
0000
0010
0100
0000
0010
0000
0000
1000
0000
,
0010
1000
0100
0010
1000
0100
0010
0001
,
0010
0001
0010
0000
0100
0010
0100
0010
,
0100
0000
0000
0110
0000
0000
1000
0000
0010
0000
0000
1010
0000
0000
0100
0000
,
0010
0000
0001
0000
0010
0000
0100
0000
1000
0001
0000
1000
0000
0000
0001
0000
,
0100
1000
0100
0001
0100
0010
0100
0010
,
0001
0010
0100
0000
0010
0100
0010
0001
,
0100
0000
0000
0101
0000
0000
0100
0000
0010
0000
0000
0110
0000
0000
1000
0000
,
0010
0000
0001
0000
0010
0000
1000
0000
0001
1000
0000
0001
0000
0000
0100
0000
,
0010
0001
0100
1000
0010
0100
0010
0100
,
0010
0001
0010
0000
0010
0100
0010
0001
,
0100
0000
0000
0110
0000
0000
0100
0000
0001
0000
0000
0101
0000
0000
1000
0000
,
0010
0000
1000
0000
0010
0000
1000
0000
0001
0100
0000
0001
0000
0000
1000
0000
,
0010
1000
0100
0010
0001
0100
0001
0100
,
0001
0010
0200
0000
0310
0000
0000
0000
;

//---------------dance-single - Copied from----------------
#NOTES:
     dance-single:
     Copied from:
     Hard:
     14:
     0.654,0.724,0.248,0.000,0.564:
0000
0000
0000
0000
,
0000
0000
0000
0000
,
0000
0000
0000
0000
,
0000
0000
0000
0000
,
0000
0000
0000
0000
0100
0010
0001
0010
,
0100
0000
0000
0001
0000
0000
0101
0000
0100
0000
0000
0100
0000
0000
0100
0001
,
0100
0000
0010
0000
0100
0000
1000
0000
0100
0001
0000
0100
0000
0000
0010
0000
,
1000
0000
0100
0001
0000
0100
0001
0000
0001
0000
0100
0010
0000
0000
0010
0100
,
0010
1000
0100
0001
1000
0010
0100
0010
,
1000
0000
0000
0010
0000
0000
1010
0000
1000
0000
0100
0000
0010
0000
0001
0000
,
0001
0000
0000
0100
0000
0000
0101
0000
1000
0000
0010
0000
1000
0000
0100
0000
,
0010
0000
0000
1000
0000
0000
1010
0000
0100
0000
0010
0000
0001
0000
0100
0000
,
0010
0000
0100
0000
0110
0000
0000
0000
1001
0000
0000
0000
1000
0010
1000
0000
,
0100
0001
0100
0000
0001
0100
0001
0000
1000
0100
1000
0000
0100
0010
0100
0000
,
0010
0100
0010
0000
0001
0010
0001
0000
1001
0000
0000
0000
1000
0010
1000
0000
,
1010
0000
0000
0000
0100
0010
0100
0000
0110
0000
0000
0000
0100
0010
0100
0010
,
0100
0000
0010
0000
0110
0000
1000
0000
1001
0000
0001
0000
1000
0010
1000
0000
,
0100
0010
0100
0000
0010
0001
0010
0000
0001
1000
0001
0000
0100
0001
0100
0000
,
0010
1000
0010
0000
0100
0010
0100
0000
0110
0000
0000
0000
1000
0010
1000
0000
,
1010
0000
0000
0000
0100
0001
0100
0001
0100
0000
0001
0000
0101
0000
0001
0000
,
0010
0000
0100
0000
1000
0000
0010
0000
1010
0000
0000
0000
1000
0001
1000
0000
,
0100
0001
0100
0000
0010
0100
0010
0000
0010
1000
0010
0000
0100
0001
0100
0000
,
0001
1000
0001
0000
0100
1000
0100
0000
1100
0000
0000
0000
0100
0001
0100
0000
,
0101
0000
0000
0000
1000
0001
1000
0000
1001
0000
0000
0000
1000
0001
1000
0001
,
1000
0000
0001
0000
1000
0000
0010
0000
0100
0000
0001
0000
1000
0010
1000
0000
,
0100
0010
0100
0000
0010
0001
0010
0000
1000
0001
1000
0000
0100
1000
0100
0000
,
0100
0001
0100
0000
0010
0001
0010
0000
0011
0000
0000
0000
0100
0010
0100
0000
,
0110
0000
0000
0000
1000
0010
1000
0000
1000
0010
0000
0010
1000
0000
1000
0000
,
0001
0100
1000
0000
1000
0010
1000
0010
,
1000
0000
0000
0010
0000
0000
1010
0000
0010
0000
0000
0011
0000
0000
0001
1000
,
0001
0000
0100
0000
0010
0000
0001
0000
1000
0010
0000
1000
0000
0000
0010
0000
,
0100
0000
1000
0010
0000
0010
0001
0000
0001
0000
0100
0001
0000
0001
0100
0000
,
0010
0100
1000
0010
0100
0010
1000
0001
,
0100
0000
0000
0110
0000
0000
0010
0000
1000
0000
0001
0100
0000
0000
0001
1000
,
0001
0000
0100
0000
0010
0000
0001
0000
0100
0010
0000
0100
0010
0000
1000
0000
,
0001
0000
0100
0001
0000
0001
0100
0000
0010
0000
1000
0010
0000
0000
1000
0010
,
1000
0100
0010
0001
1000
0010
1000
0010
,
1000
0000
0100
0010
1000
0000
1010
0000
1000
0000
0001
0000
1000
0000
0001
0000
,
1000
0000
0100
0001
0010
0000
1001
0000
0001
0000
0100
0000
0001
0000
0100
0000
,
0001
0000
0010
0100
0001
0000
0101
0000
0100
0000
1000
0100
1000
0000
1000
0000
,
0100
0000
0010
0100
1000
0000
1100
0000
0100
0000
0010
0000
0001
0100
1000
0000
,
0100
0000
1000
0000
0100
0001
1000
0000
0001
0000
0010
0000
0100
0010
0001
0000
,
0010
0000
0100
0000
1000
0100
0010
0000
1000
0001
1000
0001
1000
0001
1000
0010
,
1000
0010
1000
0010
1000
0010
1000
0010
0100
0010
0000
0010
0100
0000
0100
0001
,
0100
0001
0101
0000
1000
0010
1000
0010
,
0100
0000
0001
0100
0000
0100
0001
0000
0010
0000
0100
0010
0000
0000
1000
0010
,
1000
0000
0100
0000
0010
0000
1000
0000
0001
0100
0000
0001
0100
0000
0100
0000
,
1000
0000
0100
0010
0000
0010
0100
0000
0100
0000
0001
0100
0000
0000
0001
0100
,
0001
1000
0100
0010
0001
0100
0010
1000
,
0100
0000
0000
0010
0000
0000
0010
0100
1000
0000
0000
0010
0000
0000
1000
0010
,
1000
0000
0100
0000
0010
0000
0001
0000
0100
0010
0000
0010
0000
0000
0100
0000
,
0001
0000
0100
0001
0000
0100
0001
0000
1000
0000
0010
0100
0010
0000
0100
0000
,
0001
0010
0100
1000
0001
0100
1000
0010
,
0100
0000
0000
0001
0000
0000
1000
0001
1000
0000
0000
0010
0000
0000
1000
0010
,
1000
0000
0100
0000
0010
0000
0001
0000
0100
0001
0000
0100
0000
0000
0010
0000
,
1000
0000
0100
0010
0000
0010
0100
0000
0010
0000
0001
0010
0000
0000
0001
1000
,
0010
0100
0010
0000
0100
0010
0001
1000
,
0010
0000
0000
1000
0000
0000
1000
0001
1000
0000
0000
0100
0000
0000
0001
0100
,
0001
0000
0010
0000
0100
0000
1000
0000
0100
0001
0000
0100
0000
0000
0010
0000
,
1000
0000
0010
0100
0000
0010
0100
0000
0010
0000
1000
0001
0000
0000
1000
0010
,
1000
0100
0010
0001
1001
0000
0000
0000
;

//---------------dance-single - Copied from Copied f----------------
#NOTES:
     dance-single:
     Copied from Copied f:
     Challenge:
     16:
     0.745,0.776,0.308,0.000,0.688:
0000
0000
0000
0000
,
0000
0000
0000
0000
,
0000
0000
0000
0000
,
0000
0000
0000
0000
,
0000
0000
0000
0000
0000
0000
0000
0000
0100
0000
0010
0000
0001
0000
0010
0001
,
0010
0000
0000
0011
0000
0000
0100
0001
0100
0000
0000
0110
0000
0000
0100
0010
,
0001
0000
0010
0000
0100
0000
1000
0000
0100
0001
0000
0100
0001
0000
0010
0000
,
1000
0000
0100
0001
0000
0100
0001
0000
0001
0000
0100
0010
0100
0000
0010
0100
,
0010
0000
1000
0000
0100
0000
0001
0000
1000
0000
0010
0001
0100
0000
0010
0100
,
1000
0000
0100
0010
1000
0000
1010
0000
1000
0000
0100
0010
0100
0000
0001
0100
,
0001
0000
0100
0001
0010
0000
0011
0000
1000
0000
0010
0100
1000
0000
0100
0010
,
0100
0000
0010
1000
0010
0000
1010
0000
0100
0010
0000
0010
0100
0000
0100
0000
,
0010
0000
0100
0000
0110
0000
0000
0000
1001
0000
0000
0000
1000
0010
0100
0000
,
0100
0001
0010
0000
0001
0100
1000
0000
1000
0100
0001
0000
0100
0010
1000
0000
,
0010
0100
0001
0000
0001
0010
1000
0000
1001
0000
0001
0000
1000
0001
0010
0000
,
1010
0000
1000
0000
0100
0001
1000
0000
0110
0000
0100
0000
0100
0001
0100
0010
,
0100
0000
0010
0000
0110
0000
1000
0000
1001
0000
0001
0000
1000
0001
0100
0000
,
0100
0001
1000
0000
0010
0001
0100
0000
0001
1000
0010
0000
0100
0001
1000
0000
,
0010
1000
0001
0000
0100
0010
1000
0000
0110
0000
0010
0000
1000
0001
0010
0000
,
1010
0000
0010
0000
0100
0001
1000
0000
0100
0001
0000
0001
0100
0000
0001
0010
,
0100
0000
0100
0000
1100
0000
0010
0000
1010
0000
0001
0000
1000
0001
0010
0000
,
0100
0001
1000
0000
0010
0100
0001
0000
0010
1000
0001
0000
0100
0001
1000
0000
,
0001
1000
0010
0000
0100
1000
0100
0000
1100
0000
0100
0000
0100
0001
0100
0000
,
0101
0000
0001
0000
1000
0001
1000
0000
1001
0000
0001
0000
1000
0001
1000
0001
,
1000
0000
0001
0000
1000
0000
0010
0000
0100
0000
0001
0000
1000
0010
0001
0000
,
0100
0010
1000
0000
0010
0001
0100
0000
1000
0001
0010
0000
0100
1000
0010
0000
,
0100
0001
1000
0000
0010
0001
0010
0000
0011
0000
0001
0000
0100
0010
0100
0000
,
0110
0000
0100
0000
1000
0010
1000
0000
1000
0010
0000
0010
1000
0000
1000
0000
,
0001
0000
0100
0000
1000
0000
0000
0000
1000
0000
0010
0100
1000
0000
0010
0000
,
1000
0000
0010
0100
0010
0000
1000
0010
1000
0000
0000
1010
0000
0000
0001
1000
,
0001
0000
0100
0010
0001
0000
0001
0000
1000
0010
0000
0001
0010
0000
0010
0000
,
0100
0000
1000
0010
1000
0000
0001
0000
0001
0000
0100
0001
0100
0000
0100
0010
,
0100
0000
0010
0000
1000
0000
0010
0000
0100
0000
0010
0000
1000
0000
0001
0010
,
0100
0000
0010
0100
0010
0000
0010
0000
1000
0000
0001
0100
0001
0000
0001
1000
,
0001
0000
0010
0100
0010
0000
0001
0000
0100
0010
0000
0100
0010
0000
1000
0000
,
0001
0000
0100
0001
0000
0001
0100
0000
0010
0000
1000
0010
1000
0000
0001
0010
,
0001
1000
0001
0100
1000
0001
0100
0001
,
0010
0000
1000
0010
1000
0000
1010
0000
1000
0000
0001
0010
1000
0000
0001
0000
,
1000
0000
0100
0001
0100
0000
1001
0000
0001
0000
0100
0010
0001
0000
0100
0000
,
0001
0000
0001
0100
1000
0000
0101
0000
0100
0000
1000
0010
0100
0000
1000
0000
,
0100
0000
1000
0100
1000
0000
1100
0000
0100
0010
0100
0010
0100
0000
0110
0000
,
0100
0001
0100
0001
0100
0000
0101
0000
0100
1000
0100
1000
0100
0000
1100
0000
,
0100
0001
0100
0001
0100
0000
0101
0000
0100
0010
0100
0010
0100
0010
0100
0010
,
0100
0010
0100
0010
0100
0010
0100
0010
0001
0010
0000
0010
0100
0000
0100
0001
,
0100
0000
0001
0000
0101
0000
0000
0000
1000
0000
0010
0100
1000
0000
0010
0000
,
0100
0000
0001
0100
0000
0100
0001
0000
0010
0000
0100
0010
0000
0000
1000
0010
,
1000
0000
0100
0000
0010
0000
1000
0000
0001
0100
0000
0001
0100
0000
0100
0000
,
1000
0000
0100
0010
0000
0010
0100
0000
0100
0000
0001
0100
0001
0000
0100
0000
,
0001
0000
1000
0100
1000
0000
0010
0000
0001
0000
0100
0001
0010
0000
1000
0000
,
0100
0000
0100
0010
0100
0000
0010
0100
1000
0000
0000
1010
0000
0000
1000
0010
,
1000
0000
0100
0000
0010
0000
0001
0000
0100
0010
0000
0010
0100
0000
0100
0000
,
0001
0000
0100
0001
0000
0100
0001
0000
1000
0000
0010
0100
0010
0000
0100
0000
,
0001
0000
0100
0010
0100
0000
1000
0000
0101
0000
0100
0010
1000
0000
0010
0000
,
0100
0000
0100
0001
0100
0000
1000
0001
1000
0000
0000
1010
0000
0000
1000
0010
,
1000
0000
0100
0000
0010
0000
0001
0000
0100
0001
0000
0100
0001
0000
0010
0000
,
1000
0000
0100
0010
0000
0010
0100
0000
0010
0000
0001
0010
0001
0000
0001
1000
,
0010
0000
0100
0000
0010
0000
0010
0000
0100
0000
0010
0100
0001
0000
1000
0000
,
0010
0000
0010
1000
0010
0000
1000
0001
1000
0000
0000
0101
0000
0000
0001
0100
,
0001
0000
1000
0000
0010
0000
0001
0000
0100
0001
0000
0100
0001
0000
0001
0000
,
0100
0000
0010
0100
0000
0010
0100
0000
0010
0000
1000
0001
0000
1000
0001
0010
,
1000
0000
0100
0010
0100
0000
0001
0000
1001
0000
0000
0000
0000
0000
0000
0000
;
