#TITLE:VOICE;
#SUBTITLE:;
#ARTIST:Argonavis;
#TITLETRANSLIT:;
#SUBTITLETRANSLIT:;
#ARTISTTRANSLIT:;
#CREDIT:;
#BANNER:VOICE BN.png;
#BACKGROUND:VOICE BG.png;
#LYRICSPATH:;
#CDTITLE:CDTITLE.png;
#MUSIC:VOICE.ogg;
#OFFSET:0.900;
#SAMPLESTART:89.340;
#SAMPLELENGTH:15.000;
#SELECTABLE:YES;
#BPMS:0.000=168.000;
#STOPS:;
#BGCHANGES:2.500=VOICE.avi=1.000=1=1=0,
99999=-nosongbg-=1.000=0=0=0 // don't automatically add -songbackground-
;

//---------------dance-single - ----------------
#NOTES:
     dance-single:
     :
     Beginner:
     1:
     0.000,0.000,0.000,0.000,0.000:
0000
0000
0000
0000
;

//---------------dance-single - ----------------
#NOTES:
     dance-single:
     :
     Easy:
     1:
     0.000,0.000,0.000,0.000,0.000:
0000
0000
0000
0000
;

//---------------dance-single - Copied from----------------
#NOTES:
     dance-single:
     Copied from:
     Medium:
     1:
     0.000,0.000,0.000,0.000,0.000:
0000
0000
0000
0000
;

//---------------dance-single - Copied from----------------
#NOTES:
     dance-single:
     Copied from:
     Hard:
     12:
     0.533,0.660,0.270,0.460,0.034: // measure 1
0000
0000
0000
0000
,  // measure 2
0000
0000
0000
0000
,  // measure 3
0000
0000
0000
0000
,  // measure 4
0000
0000
0000
0000
,  // measure 5
0000
0000
0000
0000
,  // measure 6
0000
0100
0010
0001
,  // measure 7
1001
0000
0010
0000
0010
2010
0000
0000
,  // measure 8
3000
0100
0010
1000
,  // measure 9
0001
0000
0100
0000
0001
0102
0000
0000
,  // measure 10
0003
0000
0000
1000
0000
1000
0010
0000
,  // measure 11
1010
0000
0010
0000
0100
0001
1000
0010
,  // measure 12
0100
0000
0001
0010
1000
0001
0010
0000
,  // measure 13
1000
0010
0001
0000
0100
0010
0001
1000
,  // measure 14
0001
0010
0100
0100
0010
0001
1000
0010
,  // measure 15
1000
0010
1000
0010
0100
0001
0100
0001
,  // measure 16
0100
0001
0010
0100
0010
0100
0010
1000
,  // measure 17
0001
0100
0010
1000
0010
0001
0101
0000
,  // measure 18
0000
0000
0000
0000
0000
0000
1000
0001
,  // measure 19
0100
2000
0000
3020
0000
0130
1000
0001
,  // measure 20
0010
0200
0000
0000
0000
0300
1000
0010
,  // measure 21
0100
0002
0000
2003
0000
3001
0010
0100
,  // measure 22
1000
0020
0000
0000
0000
0000
1030
0010
,  // measure 23
0100
0002
0000
2003
0000
3001
0010
0001
,  // measure 24
0100
0010
0001
1000
0001
0100
1000
0010
,  // measure 25
0100
0001
0010
0100
1000
0010
0100
0001
,  // measure 26
1000
0001
1000
0000
2001
0000
3010
0000
,  // measure 27
0100
0001
1000
0000
0020
0000
1030
0000
,  // measure 28
0200
0301
0020
0130
,  // measure 29
1001
1000
0010
0100
,  // measure 30
0001
0000
0100
0000
0010
0000
1000
0010
,  // measure 31
1000
0000
1000
0010
0100
0000
0001
0100
,  // measure 32
0010
0000
0100
0001
0010
0000
0200
0000
,  // measure 33
0000
0300
1001
1010
,  // measure 34
1000
0020
0000
0000
0130
0000
0110
0000
,  // measure 35
1001
0000
0101
0000
1000
0002
0000
0000
,  // measure 36
0000
0000
0000
0000
1003
0000
0000
0010
0000
0000
0010
0000
0001
0000
0000
0000
,  // measure 37
0001
1000
0100
0010
0001
0100
0010
0000
,  // measure 38
0001
1000
0000
1001
0000
0000
2002
0000
,  // measure 39
0000
3003
0001
0100
2000
0000
3010
0000
,  // measure 40
0002
0000
0103
0000
0010
0100
0010
0000
,  // measure 41
1010
0110
0101
0100
,  // measure 42
1010
0000
0100
0000
0101
0000
1000
0010
,  // measure 43
0100
0000
0100
0010
0001
0000
0100
0001
,  // measure 44
1000
0000
0010
0100
0001
0000
0002
0000
,  // measure 45
0000
0000
0003
0000
1000
0010
1000
0000
,  // measure 46
0001
0101
0000
0000
2000
0000
0100
0000
,  // measure 47
0001
0000
0100
0000
3001
0002
0000
0000
,  // measure 48
0003
0000
0000
0000
0100
0000
0000
0010
0000
0000
0100
0000
0010
0000
0000
0000
,  // measure 49
1000
0010
0000
0100
0001
0010
0100
0000
,  // measure 50
1000
0010
0000
0010
0000
2020
0000
0000
,  // measure 51
0000
0000
0000
0000
,  // measure 52
3030
0000
0000
0000
1000
0000
0000
0001
0000
0000
1000
0000
1002
0000
0000
0000
,  // measure 53
0100
0000
0100
0103
,  // measure 54
0000
0000
0000
0000
0010
0000
0000
0010
0000
0000
0010
0000
2010
0000
0000
0000
,  // measure 55
0100
0000
0100
0000
0100
0100
3100
0000
,  // measure 56
0000
0000
0000
0000
1000
0000
0000
0001
0000
0000
1000
0000
0010
0000
0000
0000
,  // measure 57
0100
0000
0000
0000
0010
0000
0000
0100
0000
0000
1000
0000
0001
0000
0000
0000
,  // measure 58
0100
0000
0000
0000
0001
0000
0000
0100
0000
0000
0001
0000
1000
0000
0001
0000
,  // measure 59
0000
0000
0000
0000
1000
0000
0000
0001
0000
0000
0100
0000
0010
0000
0220
0000
,  // measure 60
0000
0000
0000
0330
0000
0000
1000
0010
,  // measure 61
0100
0001
0100
0010
1000
0010
0100
0001
,  // measure 62
0100
0010
1000
0001
0100
0010
2002
0000
,  // measure 63
0000
0000
0000
0000
0000
0000
3003
0110
,  // measure 64
0110
1001
1010
0110
,  // measure 65
0001
0000
2001
0000
0100
3200
0000
0000
,  // measure 66
0310
2000
3020
0230
,  // measure 67
0302
0000
2003
0000
0100
0010
0002
0000
,  // measure 68
3003
1010
0110
0101
,  // measure 69
0010
0000
2000
0000
3010
1010
0000
0000
,  // measure 70
0100
0002
0203
1300
,  // measure 71
2000
0000
3002
0000
0103
0102
0000
0000
,  // measure 72
0003
0000
1000
0100
0010
1000
0001
1000
,  // measure 73
0001
0101
0010
0010
1000
0010
0100
0001
,  // measure 74
0100
0010
0001
0010
0100
0001
1000
0100
,  // measure 75
0010
0100
0010
0001
1000
0010
0100
0001
,  // measure 76
0010
0100
0001
0010
1000
0010
0100
0001
,  // measure 77
1000
0010
0100
0001
0010
0100
1000
0010
,  // measure 78
0001
0100
1000
0001
0100
0010
1000
0010
,  // measure 79
0001
0100
0001
1000
0100
0010
1001
0000
,  // measure 80
0000
1000
0001
0000
0001
2000
0000
0000
,  // measure 81
0000
0020
0000
0000
,  // measure 82
0000
0000
3030
1000
,  // measure 83
0010
0102
0100
2003
,  // measure 84
0010
3020
0100
2030
,  // measure 85
0001
0000
0100
0000
0010
3020
0000
0000
,  // measure 86
0000
0000
0000
0030
,  // measure 87
0100
2000
0010
3200
,  // measure 88
0010
0302
1000
0203
,  // measure 89
0000
0000
0000
0000
,  // measure 90
0000
0000
0300
0100
,  // measure 91
0010
0002
0100
0023
,  // measure 92
1000
0230
0001
0302
,  // measure 93
1000
0000
0203
0000
0010
0020
0000
0000
,  // measure 94
0000
0000
0330
1000
,  // measure 95
0010
2000
0010
3200
,  // measure 96
0010
0000
0302
0000
1000
0000
1003
0010
,  // measure 97
0100
0001
0010
0100
1000
0001
0100
0001
,  // measure 98
0010
0000
1000
0000
0001
0100
0001
0100
0001
0000
1000
0000
0001
0000
0010
0000
,  // measure 99
0100
0001
0010
0100
1000
2002
0000
0000
,  // measure 100
0000
0000
0000
0000
,  // measure 101
0000
0000
0000
0000
,  // measure 102
0000
0000
0000
0000
,  // measure 103
0000
0000
0000
0000
0000
0000
0000
3003
;
