#TITLE:Sway;
#SUBTITLE:(Mucho Mambo);
#ARTIST:shaft;
#TITLETRANSLIT:;
#SUBTITLETRANSLIT:;
#ARTISTTRANSLIT:;
#CREDIT:;
#BANNER:Sway (Mucho Mambo) BN.png;
#BACKGROUND:Sway (Mucho Mambo) BG.png;
#LYRICSPATH:;
#CDTITLE:CDTITLE.png;
#MUSIC:Sway (Mucho Mambo).ogg;
#OFFSET:0.380;
#SAMPLESTART:51.000;
#SAMPLELENGTH:15.000;
#SELECTABLE:YES;
#BPMS:0.000=128.000;
#STOPS:;
#BGCHANGES:0.813=Sway (Mucho Mambo).avi=1.000=1=1=0,
99999=-nosongbg-=1.000=0=0=0 // don't automatically add -songbackground-
;

//---------------dance-single - ----------------
#NOTES:
     dance-single:
     :
     Beginner:
     2:
     0.157,0.185,0.031,0.000,0.000:
0000
0000
0000
0000
,
0000
0000
0000
0000
,
0000
0000
0000
0000
,
0000
0000
0000
0000
,
0000
0000
0100
0000
,
0100
0000
0100
0100
,
0100
0000
1000
0000
,
1000
0000
1000
1000
,
1000
0000
0010
0000
,
0010
0000
0010
0010
,
0010
0000
0001
0000
,
0001
0000
0001
0001
,
0001
0000
0010
0000
,
0010
0000
0010
0010
,
0010
0000
0100
0000
,
0100
0000
0010
0000
,
0010
0000
1000
0000
,
1000
0000
0001
0000
,
0001
0000
0100
0000
,
0010
0000
0000
0000
,
0000
0100
0000
0100
,
0000
0010
0000
0010
,
0000
1000
0000
1000
,
0000
0001
0000
0001
,
0000
0100
0000
0100
,
0000
0010
0000
0010
,
0000
1000
0000
0000
,
1001
0000
0000
0000
,
0000
0001
0000
0001
,
0001
0100
0000
0100
,
0100
1000
0000
1000
,
1000
0001
0000
0001
,
0001
1000
0000
1000
,
1000
0010
0000
0010
,
0010
0100
0000
0000
,
0110
0000
0000
0000
,
0000
0010
0000
0010
,
0010
1000
0000
1000
,
1000
0001
0000
0001
,
0001
1000
0000
1000
,
1000
0100
0000
0100
,
0100
0001
0000
0001
,
0001
1000
0000
0000
,
1001
0000
0000
0000
,
0000
1000
0000
1000
,
0000
0001
0000
0001
,
0000
0100
0000
0100
,
0000
0010
0000
0010
,
0000
1000
0000
1000
,
0000
0001
0000
0001
,
0000
0100
0000
0100
,
0000
0010
0000
0010
;

//---------------dance-single - ----------------
#NOTES:
     dance-single:
     :
     Easy:
     5:
     0.259,0.237,0.122,0.000,0.000: // measure 1
0000
0000
0000
0000
,  // measure 2
0000
0000
0000
0000
,  // measure 3
0000
0000
0000
0000
,  // measure 4
0000
0000
0000
0000
,  // measure 5
0000
0100
0010
0010
,  // measure 6
0100
0000
0001
0001
,  // measure 7
1000
1000
0100
0010
,  // measure 8
0010
0100
0001
0001
,  // measure 9
0100
0100
0010
0010
,  // measure 10
1000
1000
0100
0100
,  // measure 11
0001
0001
0010
0010
,  // measure 12
1000
1000
0001
0001
,  // measure 13
0010
0010
0100
0100
,  // measure 14
1000
1000
0001
0001
,  // measure 15
1000
1000
0100
0100
,  // measure 16
0001
0001
1000
1000
,  // measure 17
0010
0010
0000
0000
,  // measure 18
0000
1000
1001
0000
0000
0000
0000
0000
,  // measure 19
0000
0010
0110
0000
0000
1000
1010
0000
,  // measure 20
0000
0001
0101
0000
0000
0000
0000
0000
,  // measure 21
0000
1000
0001
0001
,  // measure 22
0001
0100
0010
0010
,  // measure 23
0010
0100
0001
0001
,  // measure 24
0001
0001
1000
1000
,  // measure 25
1000
0100
0010
0010
,  // measure 26
0010
1000
0100
0100
,  // measure 27
0100
0001
1000
0001
,  // measure 28
1000
0000
0000
0000
,  // measure 29
0000
1000
0010
1000
,  // measure 30
0010
0001
0100
0001
,  // measure 31
0100
0001
0010
0001
,  // measure 32
0010
0100
0010
0100
,  // measure 33
1000
0100
1000
0100
,  // measure 34
0010
0001
0010
0001
,  // measure 35
1000
0010
1000
0010
,  // measure 36
1000
0010
0000
0000
,  // measure 37
0000
0100
0001
0100
,  // measure 38
0001
1000
0010
1000
,  // measure 39
0010
0100
0010
0100
,  // measure 40
0010
0001
0100
0001
,  // measure 41
0100
1000
0100
1000
,  // measure 42
0100
0010
0001
0010
,  // measure 43
0001
1000
0010
1000
,  // measure 44
0010
1000
0000
0000
,  // measure 45
0000
1000
1000
1001
,  // measure 46
0000
0100
0100
0110
,  // measure 47
0000
0010
0010
0110
,  // measure 48
0000
0001
0001
0101
,  // measure 49
0000
0010
0010
1010
,  // measure 50
0000
0001
0001
1001
,  // measure 51
0000
1000
1000
1100
,  // measure 52
0000
0010
0010
0110
;

//---------------dance-single - Copied from----------------
#NOTES:
     dance-single:
     Copied from:
     Medium:
     7:
     0.316,0.318,0.051,0.000,0.000:
0000
0000
0000
0000
,
0000
0000
0000
0000
,
0000
0000
0000
0000
,
0000
0000
0000
0000
,
0000
0000
0100
0010
,
0100
0000
0010
0000
1000
0001
1000
0001
,
1000
0001
1000
0000
0100
0000
0001
0000
,
0100
0000
0001
0000
0100
0001
0100
0001
,
0100
0001
0100
0000
0010
0000
0100
0000
,
0010
0000
0100
0000
0100
0010
0100
0010
,
0100
0010
0100
0000
1000
0000
0010
0000
,
1000
0000
0010
0000
1000
0010
1000
0010
,
1000
0010
1000
0000
0100
0000
0001
0000
,
0100
0000
0001
0000
0001
0100
0001
0100
,
0001
0100
0001
0000
0010
0000
0001
0000
,
0010
0001
0010
0100
,
1000
1001
0000
0000
,
0000
0011
0000
0000
,
0000
0110
0000
1001
,
0000
0000
0110
0000
0100
0010
0100
0000
,
0100
0010
1000
0000
0000
0000
0010
1000
,
0010
0000
0100
0000
0000
0000
0100
0001
,
0100
0000
0010
0000
0000
0000
0100
0010
,
0100
0000
0001
0000
0010
0100
0010
0000
,
0001
0000
1000
0000
0000
0000
0100
0010
,
0100
0000
0001
0000
0000
0000
0100
0001
,
0100
0000
0010
0000
0100
0000
0000
0010
,
0010
0010
0000
0000
0100
0010
0100
0000
,
0100
0010
0001
0000
0000
0000
1000
0100
,
0010
0000
0001
0000
0000
0000
0001
0010
,
0100
0000
0010
0000
0000
0000
0001
0010
,
0100
0000
0100
0000
0010
1000
0010
0000
,
0010
0000
0100
0000
0000
0000
0100
0010
,
0100
0000
0001
0000
0000
0000
1000
0010
,
1000
0000
0100
0000
0010
0000
0000
0001
,
0001
0001
0000
0000
0100
0001
0100
0000
,
0001
0010
0100
0000
0000
0000
1000
0010
,
1000
0000
0010
0000
0000
0000
0100
0001
,
0100
0000
0100
0000
0000
0000
1000
0100
,
1000
0000
0000
0000
0100
0010
0100
0000
,
0001
0010
0100
0000
0000
0000
1000
0010
,
1000
0000
0001
0000
0000
0000
0001
1000
,
0001
0000
0100
0000
0010
0000
0000
0100
,
0100
0100
0000
0000
0000
0000
0000
0000
,
0000
0000
1000
0100
0000
0000
1000
0100
,
1000
0000
0001
0010
0000
0000
0001
0010
,
0001
0000
0100
0010
0000
0000
0100
0010
,
0100
0000
0010
1000
0000
0000
0010
1000
,
0010
0000
0100
0001
0000
0000
0001
0100
,
0001
0000
0010
1000
0000
0000
0010
1000
,
0010
0000
0100
0010
0000
0000
0100
0010
,
0100
0000
0010
0001
0000
0000
0001
0010
,
0001
0000
0000
0000
;

//---------------dance-single - Copied from----------------
#NOTES:
     dance-single:
     Copied from:
     Hard:
     9:
     0.438,0.397,0.153,0.031,0.041:
0000
0000
0000
0000
,
0000
0000
0000
0000
,
0000
0000
0000
0000
,
0000
0000
0000
0000
,
0000
0000
0100
0000
0001
0100
0010
0000
,
1000
0010
0100
0000
0001
0100
0001
0100
,
0001
0100
0001
0000
0100
0010
1000
0000
,
0100
1000
0010
0000
1000
0010
1000
0010
,
1000
0010
1000
0000
0001
0010
1000
0000
,
0100
1000
0001
0000
0100
0010
0100
0010
,
0100
0010
0100
0000
0100
0010
0001
0000
,
0001
0100
1000
0000
0100
1000
0100
1000
,
0100
1000
0100
0000
0100
0010
0001
0000
,
0100
0010
1000
0000
0100
0001
0100
0001
,
0100
0001
0100
0000
0100
0010
1000
0000
,
0100
0010
0100
0000
0001
1000
0001
0000
,
0100
0001
0101
0000
0010
0110
0000
0000
,
0010
0011
0000
0000
1000
1100
0000
0000
,
1000
1001
0000
0000
0001
0101
0000
0000
,
0010
0110
0000
0000
0100
0010
0100
0010
,
0100
0010
0100
0000
0001
0000
0100
0010
,
0001
0010
0100
0000
0100
0000
0010
0100
,
1000
0100
0010
0000
0001
0000
0001
0010
,
0100
1000
0100
0000
0010
0100
0010
0100
,
0010
0100
0010
0000
0001
0000
0001
0010
,
0100
0010
0100
0000
0001
0000
0010
0100
,
1000
0100
0010
0000
0001
0000
0010
0100
,
0010
0100
0010
0000
0100
0001
0100
0001
,
0100
0001
0100
0000
0010
0000
0100
0010
,
0100
1000
0100
0000
0010
0000
0001
1000
,
0001
1000
0001
0000
0010
0000
0100
0010
,
0100
0010
0100
0000
0001
0100
0001
0100
,
0001
0100
0001
0000
0010
0000
0100
0010
,
0001
0010
0100
0000
1000
0000
0010
0001
,
0010
0100
0010
0000
0100
0000
0010
0001
,
0010
0001
0010
0000
0001
0010
0001
0010
,
0001
0010
0001
0000
0010
0000
1000
0100
,
0010
0001
1000
0000
0001
0000
1000
0010
,
0100
0010
0001
0000
0100
0000
0010
0100
,
1000
0100
0010
0000
1000
0010
1000
0010
,
1000
0010
1000
0000
0001
0200
0000
0000
,
0310
0000
0001
0000
0100
0020
0000
0000
,
1030
0000
0100
0000
0001
2000
0000
0001
,
0001
3001
0000
0000
0000
0000
0000
0000
,
0000
0000
0000
0000
1000
0000
1010
0000
0000
0000
0000
0000
1000
0000
1000
0010
,
1000
0000
0000
0000
0001
0000
0101
0000
0000
0000
0000
0000
0001
0000
0001
0010
,
0001
0000
0000
0000
0100
0000
0110
0000
0000
0000
0000
0000
0010
0000
0010
0100
,
0010
0000
0000
0000
1000
0000
1001
0000
0000
0000
0000
0000
0001
0000
0001
1000
,
0001
0000
0000
0000
0010
0000
0011
0000
0000
0000
0000
0000
0001
0000
0100
0001
,
0100
0000
0000
0000
0010
0000
1010
0000
0000
0000
0000
0000
1000
0000
1000
0001
,
1000
0000
0000
0000
0001
0000
0101
0000
0000
0000
0000
0000
0001
0000
0001
0010
,
0001
0000
0000
0000
0100
0000
0110
0000
0000
0000
0000
0000
0001
0000
1000
0001
,
1000
0000
0000
0000
;

//---------------dance-single - Copied from----------------
#NOTES:
     dance-single:
     Copied from:
     Challenge:
     12:
     0.642,0.609,0.255,0.000,0.275:
0000
0000
0000
0000
,
0000
0000
0000
0000
,
0000
0000
0000
0000
,
0000
0000
0000
0000
,
0000
0000
1000
0010
0100
0001
0010
0100
,
1000
0100
0001
0010
0001
0100
1000
0010
,
0100
0001
0010
0000
0100
0010
1000
0010
,
0100
0001
0010
0100
1000
0001
0100
0001
,
0010
0000
0100
0000
1010
0000
0010
1000
0010
0000
0100
0000
0001
0000
0001
0100
,
0001
0000
0100
0000
0010
0000
0100
0010
0100
0000
0001
0000
1000
0000
1000
0001
,
1000
0000
0100
0000
0001
0000
0001
0100
0001
0000
0010
0000
1000
0000
0100
0001
,
0100
0000
0010
0000
0100
0000
1000
0100
1000
0000
0100
0000
0001
0000
0001
0100
,
0001
0000
0010
0000
1000
0000
1000
0001
1000
0000
0100
0000
0001
0000
1000
0010
,
1000
0000
0100
0000
0010
0000
0100
0010
0100
0000
0001
0000
0100
0000
0001
0100
,
0001
0000
1000
0000
0100
0000
0100
0010
0100
0000
0010
0000
0001
0000
0001
0100
,
0001
0000
0010
1000
0010
0000
0010
0100
0010
0000
0001
0100
0001
0000
0010
1000
,
0010
0100
0110
0000
1000
1001
0000
0000
,
0001
1000
1001
0000
0100
0110
0000
0000
,
0010
0100
0110
0000
1000
0001
1001
0000
,
0100
0001
0101
0000
0100
0010
0100
0001
,
0100
0001
1000
0010
1000
0100
0001
0010
,
0100
1000
0010
0001
0100
0001
0010
1000
,
0010
0100
0010
0001
0010
1000
0001
0100
,
1000
0010
1010
0000
0100
0001
0100
1000
,
0001
0100
0010
1000
0001
0100
0010
0001
,
0010
1000
0010
0100
0001
0010
1000
0100
,
0001
0010
0110
0000
0100
0101
0000
1001
,
1001
1001
1001
0000
0100
0010
1000
0001
,
1000
0000
0001
0000
1000
0000
0100
0010
0100
0000
0001
0000
0010
0000
1000
0010
,
1000
0000
0100
0000
0001
0000
0001
0010
0001
0000
0010
0000
1000
0000
0100
0010
,
0100
0000
0010
0000
1000
0000
0100
0010
0100
0000
0001
0000
1000
0000
0100
0001
,
0100
0000
0010
0000
1000
0000
0100
0000
0010
0000
1000
0000
0001
0000
0100
1000
,
0100
0000
0010
0000
0100
0000
0100
0001
0100
0000
0010
0000
1000
0000
0100
0001
,
0100
0000
0010
0000
0100
0000
1000
0100
1000
0000
0100
0000
0001
0000
0010
0001
,
0010
1000
1001
0000
1000
0010
0000
1010
,
1010
1010
1010
0000
1000
0010
0100
0001
,
0010
0000
0100
0000
1001
0000
0001
0100
0010
0000
0001
0000
0010
0000
0100
1000
,
0100
0000
0010
0000
0001
0000
0100
1000
0100
0000
0010
0000
0001
0000
0010
0100
,
0010
0000
1000
0000
0001
0000
0100
0001
0100
0000
0010
0000
1000
0000
0100
0001
,
0100
0000
0010
0000
0100
0000
1000
0000
0001
0000
0100
0000
0010
0000
0100
0001
,
0100
0000
0010
0000
1000
0000
0100
0010
0100
0000
1000
0000
0001
0000
0100
0001
,
0100
0000
0010
0000
1000
0000
0100
0010
0100
0000
0010
0000
0100
0000
1000
0000
,
0001
0100
0010
0100
0010
0100
0010
0110
,
0110
0110
0110
0000
0100
0000
0001
0000
,
1000
0000
0000
0000
0100
0000
0001
0000
1000
0010
1000
0000
0100
0000
0010
0000
,
0100
0010
0100
0000
0001
0000
0100
0000
0001
0100
0001
0000
1000
0000
0010
0000
,
0100
0001
0100
0000
0010
0000
1000
0000
0100
0010
0100
0000
0001
0000
0100
0000
,
0001
0100
0001
0000
0010
0000
1000
0000
0100
0010
0100
0000
0010
0000
0100
0000
,
0010
0001
0010
0000
1000
0000
0010
0000
1000
0100
1000
0000
1000
0000
0010
0000
,
0010
0100
0010
0000
1000
0000
0001
0000
0100
0001
0100
0000
0010
0000
0100
0000
,
1000
0100
1000
0000
0100
0000
0010
0000
0100
0001
0100
0000
0001
0000
0100
0000
,
0001
0100
0001
0000
0010
0000
1000
0000
0100
1000
0100
0000
0010
0000
0010
0000
,
0010
0000
0000
0000
;
