#TITLE:Stick Em Up;
#SUBTITLE:(Instrumental);
#ARTIST:Speaker Junkkies;
#TITLETRANSLIT:;
#SUBTITLETRANSLIT:;
#ARTISTTRANSLIT:;
#CREDIT:;
#BANNER:Stick Em Up (Instrumental) BN.png;
#BACKGROUND:Stick Em Up (Instrumental) BG.png;
#LYRICSPATH:;
#CDTITLE:CDTITLE.png;
#MUSIC:Stick Em Up (Instrumental).mp3;
#OFFSET:0.280;
#SAMPLESTART:85.740;
#SAMPLELENGTH:12.000;
#SELECTABLE:YES;
#BPMS:0.000=140.000;
#STOPS:;
#BGCHANGES:0.750=Stick Em Up (Instrumental).avi=1.000=1=1=0,
99999=-nosongbg-=1.000=0=0=0 // don't automatically add -songbackground-
;

//---------------dance-single - ----------------
#NOTES:
     dance-single:
     :
     Hard:
     14:
     0.695,0.728,0.108,0.616,0.433:
0000
0000
0000
0000
,
0000
0000
0000
0000
,
0000
0000
0000
0000
,
0000
0000
0000
0000
,
0000
0000
1000
0001
0010
1000
0001
0100
,
0001
0100
0001
0100
1000
0001
0100
0001
,
1000
0000
1000
0100
0010
0001
0001
0010
,
0100
1000
0100
0000
1000
0001
2000
0000
,
0000
0000
3002
0000
1003
0010
0100
0001
,
1000
0001
0100
0001
0010
1000
0001
0100
,
1000
0001
0100
0010
0001
0010
0100
1000
,
0100
0010
0002
0000
1003
0010
2000
0000
,
0000
0000
3020
0000
0031
1000
0001
0100
,
0001
0010
1000
0001
0100
0001
1000
0001
,
0100
0001
0001
1000
0001
1000
0001
1000
,
0010
1000
0020
0000
1030
0100
2000
0000
,
0000
0000
3002
0000
1003
0001
0010
1000
,
0001
0100
0001
1000
0001
0100
0001
0010
,
1000
0001
0100
0001
0010
1000
0001
1000
,
0001
1000
0200
0000
0301
0010
2000
0000
,
0000
0000
3010
0001
1000
0001
0100
0001
,
0100
1000
0001
1000
0001
0100
0001
0010
,
1000
0001
1000
0010
0100
0001
0001
0100
,
0010
1000
1001
0000
1000
0010
1000
0000
,
1000
1010
2010
0000
3200
0000
0302
0000
,
0203
0000
0000
0000
2300
0000
3001
1000
0001
1000
0010
1000
0010
1000
0010
1000
,
0010
1000
0001
0000
2001
0000
0000
0000
3102
0000
0000
0000
2013
0000
0000
0000
,
3020
0000
0000
0000
2030
0000
0000
0000
0000
0000
0000
0000
3002
0003
2000
3000
,
0002
0003
2000
3000
1020
0000
0000
0000
0230
0000
0000
0000
0302
0000
0000
0000
,
2003
0000
0000
0000
3010
0000
1000
0010
1000
0010
1000
0010
1000
0010
1000
0010
,
1000
0010
1000
0010
2000
0000
0000
0000
3020
0000
0000
0000
0032
0000
0000
0000
,
2003
0000
3001
1000
0100
0001
0010
1000
,
1001
0000
0000
2000
0000
0000
0000
0000
0000
3010
0100
0001
,
1000
0000
0000
0000
0001
0000
0000
0000
0100
0000
0000
0000
0001
0000
0000
0000
0000
0000
0001
0000
0000
1000
0000
0000
0001
0000
0000
1000
0000
0000
0001
0000
0000
1000
0000
0000
0001
0000
0000
1000
0000
0000
0001
0000
0000
1000
0000
0000
,
0001
0000
0000
1000
0000
0000
0001
0000
0000
1000
0000
0000
0002
0000
0000
0000
0000
0000
0000
0000
0000
0000
0000
0000
0000
0000
0000
0000
0000
0000
0000
0000
0000
0000
0000
0000
1003
0000
0000
0000
0010
0000
0000
0000
1000
0000
0000
0000
,
0001
0000
0000
0000
0100
0000
0000
0000
0010
0000
0000
0000
0002
0000
0000
0000
0000
0000
0000
0000
0000
0000
0000
0000
0000
0000
0000
0000
0000
0000
0000
0000
0000
0000
0000
0000
0203
0000
0000
0300
0000
0000
0020
0000
0000
0030
0000
0000
,
2000
0000
0000
3000
0000
0000
0002
0000
0000
0003
0000
0000
2000
0000
0000
0000
0000
0000
0000
0000
0000
0000
0000
0000
0000
0000
0000
0000
0000
0000
0000
0000
0000
0000
0000
0000
3100
0000
0000
0000
0010
0000
0000
0000
1000
0000
0000
0000
,
0001
0000
0000
0000
0100
0000
0000
0000
1000
0000
0000
0000
0001
0000
0000
0000
0000
0000
0001
0000
0000
1000
0000
0000
0001
0000
0000
1000
0000
0000
0001
0000
0000
1000
0000
0000
0001
0000
0000
1000
0000
0000
0001
0000
0000
1000
0000
0000
,
0001
0000
0000
1000
0000
0000
0001
0000
0000
1000
0000
0000
0002
0000
0000
0000
0000
0000
0000
0000
0000
0000
0000
0000
0000
0000
0000
0000
0000
0000
0000
0000
0000
0000
0000
0000
1003
0000
0000
0000
0001
0000
0000
0000
1000
0000
0000
0000
,
0001
0000
0100
0000
0001
0000
1000
0000
0000
0001
0000
0000
1000
0000
0000
0001
0000
0000
0100
0000
0000
0001
0000
0000
,
0100
0000
0001
0000
0100
0000
1000
0010
0000
0000
1000
0000
0010
0000
0000
1000
,
0001
0000
1000
0000
0001
0000
0000
1000
0001
0000
1000
0000
0001
0000
0000
0100
,
0010
0000
0100
0000
0010
0000
0000
1000
0001
0000
1000
0000
0010
0000
0000
0100
,
0001
0000
0100
0000
0010
0000
0000
0010
1000
0000
1000
0000
0100
0000
0000
0000
,
0000
0000
0000
0000
1001
0000
0000
1000
0010
0000
0100
0000
0010
0000
0000
0001
,
0100
0000
0001
0000
0100
0000
0000
0010
1000
0000
1000
0000
0010
0000
0000
0100
,
0010
1000
0001
0010
0100
1000
0100
0010
,
0001
0000
0010
0000
1000
0001
1000
0001
1000
0001
1000
0001
1000
0001
1000
0001
,
1000
1000
0010
1000
,
0001
1000
0001
0100
,
0110
0100
0210
0000
2300
0000
3020
0000
,
0032
0000
0000
0000
1003
0000
0001
1000
0001
1000
0001
1000
0001
1000
0001
1000
,
0001
1000
0001
1000
0002
0000
0000
0000
0023
0000
0000
0000
0230
0000
0000
0000
,
2300
0000
0000
0000
3002
0000
0000
0000
0000
0000
0000
0000
2003
3000
0020
0030
,
0200
0300
0002
0003
0200
0000
0000
0300
0002
0000
0000
0000
2003
0000
0000
0000
,
3020
0000
0000
0000
0130
0000
0010
0100
0010
0100
0010
0100
0010
0100
0010
0100
,
0010
0100
0010
0100
0020
0000
0000
0000
2030
0000
0000
0000
3002
0000
0000
0000
,
0203
0000
0310
0001
1000
0001
0100
0010
,
0001
0000
0000
0000
0000
0000
2002
0000
0000
0000
0000
0000
0000
0000
0000
3003
0000
0000
1000
0000
0010
0000
1000
0000
,
0001
0000
0000
0000
0100
0000
0000
0000
0001
0000
0000
0000
0100
0000
0000
0000
0000
0000
0100
0000
0000
0010
0000
0000
0100
0000
0000
0010
0000
0000
0100
0000
0000
0010
0000
0000
0100
0000
0000
0010
0000
0000
0100
0000
0000
0010
0000
0000
,
0100
0000
0000
0010
0000
0000
0100
0000
0000
0010
0000
0000
0200
0000
0000
0000
0000
0000
0000
0000
0000
0000
0000
0000
0000
0000
0000
0000
0000
0000
0000
0000
0000
0000
0000
0000
0310
0000
0000
0000
0001
0000
0000
0000
1000
0000
0000
0000
,
0001
0000
0000
0000
0100
0000
0000
0000
0001
0000
0000
0000
2000
0000
0000
0000
0000
0000
0000
0000
0000
0000
0000
0000
0000
0000
0000
0000
0000
0000
0000
0000
0000
0000
0000
0000
3002
0000
0000
0003
0000
0000
0200
0000
0000
0300
0000
0000
,
0020
0000
0000
0030
0000
0000
2000
0000
0000
3000
0000
0000
0020
0000
0000
0000
0000
0000
0000
0000
0000
0000
0000
0000
0000
0000
0000
0000
0000
0000
0000
0000
0000
0000
0000
0000
0130
0000
0000
0000
0010
0000
0000
0000
0001
0000
0000
0000
,
1000
0000
0000
0000
0001
0000
0000
0000
0100
0000
0000
0000
0001
0000
0000
0000
0000
0000
1000
0000
0000
0001
0000
0000
1000
0000
0000
0001
0000
0000
1000
0000
0000
0001
0000
0000
1000
0000
0000
0001
0000
0000
1000
0000
0000
0001
0000
0000
,
1000
0000
0000
0001
0000
0000
1000
0000
0000
0001
0000
0000
2000
0000
0000
0000
0000
0000
0000
0000
0000
0000
0000
0000
0000
0000
0000
0000
0000
0000
0000
0000
0000
0000
0000
0000
3100
0000
0000
0000
0001
0000
0000
0000
1000
0000
0000
0000
,
0001
0000
0100
0000
0001
0000
0100
0000
0000
1000
0000
0000
0001
0000
0000
0100
0000
0000
0001
0000
0000
0100
0000
0000
,
0001
0100
1001
0010
0001
1000
0001
0100
,
0001
1000
0100
0001
0001
0010
0100
1000
,
0001
0100
1000
0001
0100
0001
0010
1000
,
0010
1000
0002
0000
1003
0100
0020
0000
,
0030
0000
0000
0000
;

//---------------dance-single - ----------------
#NOTES:
     dance-single:
     :
     Challenge:
     16:
     0.791,0.874,0.250,0.017,0.666: // measure 1
0000
0000
0000
0000
,  // measure 2
0000
0000
0000
0000
,  // measure 3
0000
0000
0000
0000
,  // measure 4
0000
0000
0000
0000
,  // measure 5
0000
0000
0000
0000
1000
0100
0001
1000
,  // measure 6
0001
0100
0000
0010
1000
0100
0010
0001
,  // measure 7
0100
0000
0010
0000
1000
0000
0100
0010
0100
0000
0010
0000
0001
0000
0001
0100
,  // measure 8
0001
0010
1000
0000
0100
0001
0100
0000
,  // measure 9
0000
0000
0000
0000
1000
0000
0010
0000
0100
0000
0001
0100
0001
0000
0010
0000
,  // measure 10
1000
0000
0100
0010
0100
0000
0010
0100
0010
0000
0010
0000
1000
0000
0010
0000
,  // measure 11
0100
0000
0001
0000
0001
0000
1000
0010
1000
0000
0100
0000
0001
0000
0001
1000
,  // measure 12
0001
0100
0010
0000
0001
0100
1000
0010
,  // measure 13
0100
0000
0000
0000
1000
0000
0010
0000
0100
0000
0001
0100
0001
0000
0010
0000
,  // measure 14
1000
0000
0100
0000
0000
0000
0001
0000
0100
0000
0010
0000
1000
0000
0010
0100
,  // measure 15
0010
0000
0010
0000
0100
0000
0010
0100
0010
0000
0100
0000
0001
0000
0001
0100
,  // measure 16
0001
0001
1000
0000
0100
0010
0001
0000
,  // measure 17
0100
0000
0010
0000
0100
0000
0010
0000
1000
0000
0100
0000
0010
0001
0010
0000
,  // measure 18
0100
0000
1000
0010
1000
0000
0100
0000
0010
0000
0001
0100
0001
0000
0010
0000
,  // measure 19
0100
0000
0010
0000
1000
0000
0100
0010
0100
0000
0001
0000
1000
0000
0100
0001
,  // measure 20
0100
0010
1000
0000
0100
0001
1001
0000
,  // measure 21
0100
0000
0000
0000
1000
0000
0010
0000
0100
0000
0001
0100
0001
0000
1000
0000
,  // measure 22
0010
0000
0100
0000
0000
0000
0001
0000
0010
0000
0100
0000
1000
0000
1000
0010
,  // measure 23
1000
0000
0100
0000
1000
0000
0100
1000
0100
0000
0100
0000
0010
0000
0001
0010
,  // measure 24
0001
0010
1000
0000
0100
0001
1000
0000
,  // measure 25
0010
0000
1010
0000
1000
0010
1000
0000
0100
0001
0100
0000
0010
0100
0010
0000
,  // measure 26
1000
0010
1000
0000
0100
0000
0010
0100
0010
0000
0010
0000
0001
0000
0001
1000
,  // measure 27
0001
0000
0000
0000
1000
0001
1000
0000
0100
0001
0100
0000
0010
1000
0010
0000
,  // measure 28
0100
0010
0100
0000
0002
0000
0000
0000
0003
0000
0000
0000
1010
0000
1010
0000
,  // measure 29
1010
0000
1010
0000
1000
0001
1000
0000
0100
0001
0100
0000
0010
1000
0010
0000
,  // measure 30
0100
0010
0100
0000
1000
0000
1000
0010
1000
0000
0010
0000
0100
0000
0100
0001
,  // measure 31
0100
0000
0010
0000
1000
0100
1000
0000
0100
0001
0100
0000
0010
0001
0010
0000
,  // measure 32
1000
0010
1000
0000
0100
0000
0010
0000
1000
0000
0001
0000
0100
0000
0010
0000
,  // measure 33
1001
0000
0000
0000
0000
0000
0000
0000
0000
0000
0000
0000
1000
0000
0000
0001
0000
0000
1000
0000
0000
0001
0000
0000
1000
0000
0000
0001
0000
0000
1000
0000
0000
0000
0000
0000
1000
0000
0000
0000
0100
0000
0000
0000
0010
0000
0000
0000
,  // measure 34
0001
0000
0000
0000
0010
0000
0000
0000
0100
0000
0000
0000
1000
0000
0000
0000
0000
0000
0010
0000
0000
1000
0000
0000
0010
0000
0000
0000
0000
0000
0100
0000
0000
0000
0000
0000
0001
0000
0000
0000
0000
0000
0001
0000
0000
0100
0000
0000
,  // measure 35
0001
0000
0000
0000
0000
0000
0010
0000
0000
0000
0000
0000
1000
0000
0000
0100
0000
0000
1000
0000
0000
0100
0000
0000
1000
0000
0000
0100
0000
0000
1000
0000
0000
0000
0000
0000
1000
0000
0000
0000
0100
0000
0000
0000
0010
0000
0000
0000
,  // measure 36
0001
0000
0000
0000
0010
0000
0000
0000
0100
0000
0000
0000
1000
0000
0000
0001
0000
0000
1000
0000
0000
0001
0000
0000
1000
0000
0000
0001
0000
0000
1000
0000
0000
0001
0000
0000
1001
0000
0000
0000
0000
0000
1010
0000
0000
0000
0000
0000
,  // measure 37
0110
0000
0000
0000
0000
0000
0101
0000
0000
0000
0000
0000
0100
0000
0000
0001
0000
0000
0100
0000
0000
0001
0000
0000
0100
0000
0000
0001
0000
0000
0100
0000
0000
0000
0000
0000
0001
0000
0000
0000
0010
0000
0000
0000
0100
0000
0000
0000
,  // measure 38
1000
0000
0000
0000
0100
0000
0000
0000
0010
0000
0000
0000
0001
0000
0000
0000
0000
0000
1000
0000
0000
0010
0000
0000
1000
0000
0000
0000
0000
0000
0100
0000
0000
0000
0000
0000
0010
0000
0000
0000
0000
0000
0001
0000
0000
0100
0000
0000
,  // measure 39
0001
0000
0000
0000
0000
0000
0001
0000
0000
0000
0000
0000
1000
0000
0000
0100
0000
0000
1000
0000
0000
0100
0000
0000
1000
0000
0000
0100
0000
0000
1000
0000
0000
0100
0000
0000
1000
0000
0000
0000
0010
0000
0000
0000
0100
0000
0000
0000
,  // measure 40
0001
0000
0010
0000
0100
0000
1000
0000
0000
0010
0000
0000
0100
0000
0000
0001
0000
0000
1000
0000
0000
0001
0000
0000
,  // measure 41
1001
0000
0000
0000
0100
0000
0010
0000
1000
0000
0100
0010
0100
0000
0001
0000
,  // measure 42
0100
0000
1000
0000
0000
0000
0001
0000
0100
0000
0010
0000
1000
0000
0100
0001
,  // measure 43
0100
0000
0010
0000
1000
0000
0100
0010
0100
0000
0001
0000
1000
0000
0100
0001
,  // measure 44
0100
0010
1000
0000
0100
0010
0110
0000
,  // measure 45
1000
0000
0000
0000
0001
0000
0100
0000
1000
0000
0100
0001
0100
0000
0010
0000
,  // measure 46
0100
0000
1000
0000
0000
0000
0100
0000
0001
0000
0100
0000
1000
0000
0100
0001
,  // measure 47
0100
0000
0010
0000
1000
0000
0010
1000
0010
0000
0100
0000
0001
0000
1000
0010
,  // measure 48
1000
0000
0100
0000
1000
0100
1000
0100
0010
0100
0010
0001
0010
0001
0010
0001
,  // measure 49
0010
0100
0110
0000
0101
0000
1010
0000
,  // measure 50
1001
1010
0110
1001
,  // measure 51
0001
0000
1001
0000
1000
0010
1000
0000
0100
0010
0100
0000
1000
0001
1000
0000
,  // measure 52
0001
0100
0001
0000
0010
0000
1000
0010
1000
0000
0100
0000
0001
0000
0001
0100
,  // measure 53
0001
0000
0010
0000
1000
0001
1000
0000
0100
0001
0100
0000
0010
1000
0010
0000
,  // measure 54
0100
0010
0100
0000
1000
0010
1000
0010
1000
0010
1000
0000
1010
0000
0110
0000
,  // measure 55
0101
0000
0110
0000
1000
0010
1000
0000
0100
0001
0100
0000
0010
0100
0010
0000
,  // measure 56
0001
0100
0001
0000
1000
0000
0010
1000
0010
0000
0100
0000
0001
0000
0001
0100
,  // measure 57
0001
0000
0001
0000
1000
0010
1000
0000
0100
0001
0100
0000
0010
0001
0010
0000
,  // measure 58
1000
0010
1000
0000
0100
0000
0010
0000
1000
0000
0001
0000
0100
0000
0010
0000
,  // measure 59
0110
0000
0000
0000
0000
0000
0000
0000
0000
0000
0000
0000
1000
0000
0000
0010
0000
0000
1000
0000
0000
0010
0000
0000
1000
0000
0000
0010
0000
0000
1000
0000
0000
0010
0000
0000
1000
0000
0000
0000
0010
0000
0000
0000
0100
0000
0000
0000
,  // measure 60
0001
0000
0000
0000
0100
0000
0000
0000
0010
0000
0000
0000
1000
0000
0000
0000
0000
0000
0100
0000
0000
0010
0000
0000
0100
0000
0000
0000
0000
0000
0001
0000
0000
0000
0000
0000
0100
0000
0000
0000
0000
0000
0001
0000
0000
0100
0000
0000
,  // measure 61
0001
0000
0000
0000
0000
0000
0010
0000
0000
0000
0000
0000
0100
0000
0000
0001
0000
0000
0100
0000
0000
0001
0000
0000
0100
0000
0000
0001
0000
0000
0100
0000
0000
0001
0000
0000
0100
0000
0000
0000
1000
0000
0000
0000
0010
0000
0000
0000
,  // measure 62
0100
0000
0000
0000
0001
0000
0000
0000
0010
0000
0000
0000
1000
0000
0000
0001
0000
0000
1000
0000
0000
0001
0000
0000
1000
0000
0000
0001
0000
0000
1000
0000
0000
0001
0000
0000
1001
0000
0000
0000
0000
0000
1010
0000
0000
0000
0000
0000
,  // measure 63
0101
0000
0000
0000
0000
0000
0110
0000
0000
0000
0000
0000
0100
0000
0000
0010
0000
0000
0100
0000
0000
0010
0000
0000
0100
0000
0000
0010
0000
0000
0100
0000
0000
0010
0000
0000
1000
0000
0000
0000
0010
0000
0000
0000
0100
0000
0000
0000
,  // measure 64
0001
0000
0000
0000
0100
0000
0000
0000
0010
0000
0000
0000
1000
0000
0000
0000
0000
0000
0010
0000
0000
0100
0000
0000
0010
0000
0000
0000
0000
0000
0001
0000
0000
0000
0000
0000
1000
0000
0000
0000
0000
0000
0010
0000
0000
1000
0000
0000
,  // measure 65
0010
0000
0100
0000
1000
0010
0100
0000
0100
0001
0010
0000
1000
0010
0001
0000
,  // measure 66
0100
0010
0100
0000
1000
0100
1000
0100
0010
0100
0010
0100
0001
0100
0001
0100
,  // measure 67
0001
0010
0001
0010
0001
0000
0100
0000
1000
0000
0100
0000
0001
0000
0010
0000
,  // measure 68
1000
0100
0000
0010
0001
0100
1000
0100
,  // measure 69
0001
0000
0010
0000
1000
0000
0010
1000
0010
0000
0100
0000
0001
0000
0100
0001
,  // measure 70
0100
0010
1000
0000
0100
0010
0002
0000
,  // measure 71
1003
0000
0000
0000
;

//---------------dance-single - ----------------
#NOTES:
     dance-single:
     :
     Medium:
     1:
     0.000,0.000,0.000,0.000,0.000:
0000
0000
0000
0000
;

//---------------dance-single - ----------------
#NOTES:
     dance-single:
     :
     Easy:
     1:
     0.000,0.000,0.000,0.000,0.000:
0000
0000
0000
0000
;

//---------------dance-single - Copied from----------------
#NOTES:
     dance-single:
     Copied from:
     Beginner:
     1:
     0.000,0.000,0.000,0.000,0.000:
0000
0000
0000
0000
;
