#TITLE:StaRt;
#SUBTITLE:(Cover);
#ARTIST:Hello, Happy World!;
#TITLETRANSLIT:;
#SUBTITLETRANSLIT:;
#ARTISTTRANSLIT:;
#CREDIT:;
#BANNER:StaRt (Cover) BN.png;
#BACKGROUND:StaRt (Cover) BG.png;
#LYRICSPATH:;
#CDTITLE:cdtitle.png;
#MUSIC:StaRt (Cover).ogg;
#OFFSET:0.460;
#SAMPLESTART:32.940;
#SAMPLELENGTH:15.000;
#SELECTABLE:YES;
#BPMS:0.000=190.000;
#STOPS:;
#BGCHANGES:;

//---------------dance-single - ----------------
#NOTES:
     dance-single:
     :
     Beginner:
     1:
     0.000,0.000,0.000,0.000,0.000:
0000
0000
0000
0000
;

//---------------dance-single - ----------------
#NOTES:
     dance-single:
     :
     Easy:
     1:
     0.000,0.000,0.000,0.000,0.000:
0000
0000
0000
0000
;

//---------------dance-single - Copied from----------------
#NOTES:
     dance-single:
     Copied from:
     Medium:
     1:
     0.000,0.000,0.000,0.000,0.000:
0000
0000
0000
0000
;

//---------------dance-single - Copied from----------------
#NOTES:
     dance-single:
     Copied from:
     Hard:
     14:
     0.758,0.891,0.260,0.503,0.085: // measure 1
0000
0000
0000
0000
,  // measure 2
0000
0000
0000
0000
,  // measure 3
0000
0000
0000
0000
1000
0100
0001
0010
,  // measure 4
0100
0000
0010
0001
0010
0000
2000
0000
,  // measure 5
3200
0000
0302
0000
0013
0100
1000
0001
,  // measure 6
0100
0000
0010
0100
0001
0000
1000
0000
,  // measure 7
1001
1001
1001
0000
0100
0010
1000
0001
,  // measure 8
0100
0000
1000
0001
0100
0000
0020
0000
,  // measure 9
2030
0000
3002
0000
0103
0010
0001
1000
,  // measure 10
0001
0000
1000
0010
0100
0010
1000
0010
,  // measure 11
0100
0001
0010
0100
2000
0000
0000
0000
,  // measure 12
3100
0000
0001
0100
0001
0010
0100
1000
,  // measure 13
1100
0000
0100
0001
0100
0000
0010
0100
,  // measure 14
0110
0000
1000
0010
0100
0010
0002
0000
,  // measure 15
2003
0000
3020
0000
0130
0000
0100
0010
,  // measure 16
0000
2000
0000
3010
0100
0001
0010
0100
,  // measure 17
1000
0000
0001
0010
0100
0100
1000
0010
,  // measure 18
0001
0100
0010
0010
0100
0010
0001
0010
,  // measure 19
0100
0000
0110
0000
1000
0010
0100
0001
,  // measure 20
0100
0010
1000
0001
0100
0010
0001
0000
,  // measure 21
1001
0000
0001
0000
0010
0100
1000
0001
,  // measure 22
0100
0010
0001
0010
1000
0010
0100
0010
,  // measure 23
0110
0000
0001
0010
0100
0000
1000
0010
,  // measure 24
1000
0000
0010
0100
0010
0001
1000
0001
,  // measure 25
0100
0010
0100
0001
0010
0100
1000
0001
,  // measure 26
0010
0100
0010
0001
0010
1000
0001
0010
,  // measure 27
2000
3020
2030
3020
,  // measure 28
0032
0203
2300
3020
,  // measure 29
0230
0000
0320
0000
0030
0000
1000
0010
,  // measure 30
1000
0000
0100
0001
0100
0010
0100
0001
,  // measure 31
0200
0000
0310
0000
0001
0100
0010
1000
,  // measure 32
0001
0100
0010
0001
0200
0000
0310
0001
,  // measure 33
0010
1000
0010
0000
0010
0100
0000
0000
,  // measure 34
0010
0000
1000
0010
0100
0010
1000
0001
,  // measure 35
0100
0110
0110
0101
,  // measure 36
1010
0000
1000
0010
1000
0010
0100
0001
,  // measure 37
0100
0101
1010
0101
,  // measure 38
0011
0000
1000
0100
0001
0001
0010
1000
,  // measure 39
0010
0100
0001
0010
1000
0100
0010
1000
,  // measure 40
0100
0010
1000
0100
0010
1000
0100
0010
,  // measure 41
1000
0000
0100
0000
0010
0000
0001
0000
0100
0001
0100
0000
0001
1000
0001
0000
,  // measure 42
1000
0100
1000
0000
0100
0010
0100
0000
0001
0000
0000
0000
0000
0000
0000
0000
,  // measure 43
0000
0000
0000
0000
1000
0010
0000
0100
,  // measure 44
0001
0000
0010
0100
0000
0000
1000
0100
,  // measure 45
0001
0010
0000
0000
,  // measure 46
0000
0000
0000
0000
,  // measure 47
0000
0000
0000
0000
1000
0010
0000
0100
,  // measure 48
0001
0000
0001
1000
0000
1000
0100
0010
,  // measure 49
0001
0000
0010
0000
0100
0000
0001
0000
0001
1000
0001
0000
0100
0010
0100
0000
,  // measure 50
0001
0010
0001
0000
1000
0100
1000
0000
0100
0001
0100
0000
0010
1000
0010
0000
,  // measure 51
0100
0001
0100
0000
0100
0000
0001
0000
0000
0000
0000
0000
0200
0000
0000
0000
,  // measure 52
0000
0302
0000
0000
0023
0000
0000
1030
,  // measure 53
0010
0100
0001
0010
1000
0100
0010
0001
,  // measure 54
1000
0100
0010
0001
1000
0010
0100
0010
,  // measure 55
0001
0010
0100
0000
1000
0100
0010
1000
,  // measure 56
0100
0010
1000
0100
0010
1000
0100
0010
,  // measure 57
1000
0100
0010
1000
0020
0000
0000
0230
,  // measure 58
0000
0310
0110
0220
,  // measure 59
0000
0330
0000
0010
1000
0001
0100
0010
,  // measure 60
0001
0010
1000
0001
0100
0010
1000
0001
,  // measure 61
0001
0000
0012
0000
0000
0000
1003
0001
,  // measure 62
0100
0000
0010
1000
0001
0100
0010
0100
,  // measure 63
0001
2002
0000
0000
,  // measure 64
0003
0010
0100
0010
0002
0000
0000
0000
,  // measure 65
3003
0000
0100
0000
0010
0000
0100
0010
,  // measure 66
0001
0100
0010
1000
0001
0100
0010
0001
,  // measure 67
0010
0100
0010
0000
0110
0000
0110
0000
,  // measure 68
0110
0000
0100
0001
1000
0001
0010
1000
,  // measure 69
0001
0101
1010
1010
,  // measure 70
1010
0000
1000
0001
0100
0010
0001
0010
,  // measure 71
1000
0001
0100
0010
0001
0100
0010
0001
,  // measure 72
0100
0010
0001
0100
0010
0001
0010
0100
,  // measure 73
0010
0000
1000
0000
0010
0000
0100
0000
1000
0010
1000
0000
0100
0001
0100
0000
,  // measure 74
0010
0100
0010
0000
1000
0010
1000
0000
0100
0001
0100
0000
2000
0000
0000
0000
,  // measure 75
3020
0032
0200
0000
,  // measure 76
0000
0303
0000
0000
1000
0010
0100
0001
,  // measure 77
0010
0000
1000
0100
0020
0000
0032
0000
,  // measure 78
2003
0000
3200
0000
0301
1000
0001
0100
,  // measure 79
0010
0000
0001
0100
0001
0000
1000
0001
,  // measure 80
0010
1010
1010
0000
0010
0100
0001
1000
,  // measure 81
0200
0000
0301
1000
0002
0000
0203
0000
,  // measure 82
0302
0000
2003
0000
3001
0010
0100
1000
,  // measure 83
0002
0000
0000
0000
0013
0000
0100
0000
0010
0000
0100
0000
1000
0010
1000
0000
,  // measure 84
0100
0001
0100
0000
0010
0100
0010
0000
0200
0000
0000
0000
0000
0000
0000
0000
,  // measure 85
0000
0000
2300
3002
,  // measure 86
0023
2030
3002
0203
,  // measure 87
0320
0130
0000
0000
;
