#TITLE:SamPhanth Mi Tid;
#SUBTITLE:;
#ARTIST:ThefunfactoryRMX;
#TITLETRANSLIT:;
#SUBTITLETRANSLIT:;
#ARTISTTRANSLIT:;
#CREDIT:;
#BANNER:SamPhanth Mi Tid BN.png;
#BACKGROUND:SamPhanth Mi Tid BG.png;
#LYRICSPATH:;
#CDTITLE:CDTITLE.png;
#MUSIC:SamPhanth Mi Tid.ogg;
#OFFSET:0.600;
#SAMPLESTART:22.060;
#SAMPLELENGTH:12.000;
#SELECTABLE:YES;
#BPMS:0.000=136.000;
#STOPS:;
#BGCHANGES:1.333=SamPhanth Mi Tid.avi=1.000=1=1=0,
246.000=SamPhanth Mi Tid BG.png=1.000=0=0=1,
99999=-nosongbg-=1.000=0=0=0 // don't automatically add -songbackground-
;

//---------------dance-single - ----------------
#NOTES:
     dance-single:
     :
     Hard:
     13:
     0.647,0.562,0.522,0.000,0.287: // measure 1
0000
0000
0000
0000
,  // measure 2
0000
0000
0100
0010
,  // measure 3
1000
0000
1000
0010
1000
0000
0001
0000
,  // measure 4
0010
0000
0100
0000
1000
0001
1000
0001
1000
0000
0000
0000
0100
0000
0000
0000
,  // measure 5
1000
0000
0000
0000
0010
0000
1000
0000
0100
0001
0100
0001
0100
0001
0100
0001
,  // measure 6
0100
0001
0100
0000
0000
1000
0010
0000
1010
0000
0000
0000
0000
0000
1000
0000
,  // measure 7
0010
0000
0000
0001
0100
0000
0101
0000
0000
0000
1001
0000
0000
0000
0100
0000
,  // measure 8
0010
0000
0000
0001
0100
0000
0101
0000
0000
0000
1001
0000
0000
0000
0000
0000
,  // measure 9
0000
0100
0000
0000
0010
0000
0110
0000
0000
0000
1001
0000
0000
0000
0100
0000
,  // measure 10
0010
0000
0000
1000
0010
0000
1010
0000
0000
0000
0101
0000
0000
0000
0000
0000
,  // measure 11
0000
0001
1001
0000
0110
0000
1010
0000
,  // measure 12
0101
0000
0110
0000
1000
0010
0100
0010
,  // measure 13
0001
0100
0001
0100
0001
0100
0001
0100
0001
0000
0000
0000
0000
0000
1000
0000
,  // measure 14
0001
0000
0000
0100
0001
0000
0101
0000
1001
0000
1000
0000
0100
0000
0010
0000
,  // measure 15
0100
0001
1000
0001
0000
0100
0010
1000
,  // measure 16
0001
0000
0010
0000
0100
0010
0100
0010
0100
0000
0010
0000
0010
0000
1000
0000
,  // measure 17
0001
0100
1000
0001
1001
0001
1000
0010
,  // measure 18
0100
0001
0100
0010
1000
0010
0100
0001
,  // measure 19
0010
0100
1000
1001
0000
0001
0100
1000
,  // measure 20
0010
0000
0100
0000
0001
1000
0001
1000
0001
0000
0100
0000
0010
0000
1000
0000
,  // measure 21
0001
0100
1000
0010
0000
0110
0100
0010
,  // measure 22
0100
0000
1000
0000
0001
0000
0100
0000
1000
0000
0010
0000
0100
0000
0001
0100
,  // measure 23
0001
0000
0010
0000
1000
0000
0010
0100
0010
0000
0100
0000
0001
0000
1000
0001
,  // measure 24
1000
0000
0000
0000
1001
0000
0000
0000
1000
0000
0010
0000
0100
0000
1000
0010
,  // measure 25
1000
0000
0100
0000
0001
0000
0010
0100
0010
0000
1000
0000
0001
0000
0000
0000
,  // measure 26
1001
0000
0000
0000
1001
0000
0000
0000
1000
0000
0010
0000
0100
0000
0001
1000
,  // measure 27
0001
0000
0100
0000
0010
0000
1000
0100
1000
0000
0100
0000
0001
0000
0001
0100
,  // measure 28
0001
0000
0000
0000
1001
0000
0000
0000
0100
0000
0010
0000
0001
0000
1000
0010
,  // measure 29
1000
0100
0001
0010
1010
0000
0110
0000
,  // measure 30
0101
0000
0001
0000
1001
0000
0000
0000
0100
0000
0010
0000
0001
0000
1000
0010
,  // measure 31
1000
0000
0100
0000
0001
0000
1000
0001
1000
0000
0100
0000
0001
0000
0100
0001
,  // measure 32
0100
0000
0010
0000
1010
0000
0000
0000
0100
0000
0010
0000
0001
0000
1000
0010
,  // measure 33
1000
0000
0100
0000
0001
0000
0100
1000
0100
0000
0100
0000
0010
0000
1000
0000
,  // measure 34
1000
0000
0001
0000
1000
0000
1001
0000
0100
0000
0010
0000
0001
0000
1000
0010
,  // measure 35
1000
0000
0100
0000
0010
0000
1000
0100
1000
0000
0100
0000
0001
0000
0010
0000
,  // measure 36
1000
0000
0001
0000
0101
0000
0000
0000
0100
0000
0001
0000
1000
0000
0010
0100
,  // measure 37
0010
1000
0010
0100
0101
0000
0100
0000
,  // measure 38
1010
0000
0000
0000
0010
0000
0110
0000
0001
0000
1000
0000
0010
0000
0100
0010
,  // measure 39
0100
0000
0001
0000
1000
0000
0100
0001
0100
0000
0010
0000
1000
0000
0100
1000
,  // measure 40
0100
0000
0001
0000
0101
0000
0000
0000
0100
0000
0010
0000
1000
0000
0100
0001
,  // measure 41
0100
0000
0001
0000
0100
0000
1000
0010
1000
0000
0100
0000
0010
0000
0100
0000
,  // measure 42
0100
0000
0010
0000
0100
0000
0110
0000
1000
0000
0001
0000
0100
0000
0010
1000
,  // measure 43
0010
0000
0100
0000
0010
0000
1000
0100
1000
0000
0001
0000
0100
0000
0010
0100
,  // measure 44
0010
0000
0001
0000
0101
0000
0000
0000
0001
0000
1000
0000
0010
0000
0100
0010
,  // measure 45
0100
1000
0010
1000
1001
0000
1100
0000
,  // measure 46
1010
0000
0000
0000
0010
0000
1010
0000
1000
0000
0001
0000
0100
0000
0010
1000
,  // measure 47
0010
0000
0100
0000
0001
0000
0010
0100
0010
0000
0001
0000
0100
0000
0010
0000
,  // measure 48
1000
0000
0001
0000
1001
0000
0000
0000
0100
0000
0001
0000
1000
0000
0010
1000
,  // measure 49
0010
0000
0100
0000
0001
0000
0010
0100
0010
0000
1000
0000
0100
0000
0010
0100
,  // measure 50
0010
0000
1000
0000
1010
0000
0000
0000
0001
0000
0100
0000
1000
0000
0100
0001
,  // measure 51
0100
0000
0010
0000
1000
0000
0100
0010
0100
0000
0001
0000
1000
0000
0010
0001
,  // measure 52
0010
0000
1000
0000
1001
0000
0000
0000
1000
0000
0001
0000
0100
0000
0010
1000
,  // measure 53
0010
0000
0100
0000
0001
0000
0100
1000
0100
0000
0010
0000
0100
0000
1000
0000
,  // measure 54
0010
0000
0010
0000
0000
0001
1000
0000
1001
0000
0000
0000
0000
0000
1000
0000
,  // measure 55
0010
0000
0000
0100
0001
0000
0101
0000
0000
0000
1001
0000
0000
0000
0001
0000
,  // measure 56
1000
0000
0000
1000
0100
0000
1100
0000
0000
0000
1010
0000
0000
0000
0000
0000
,  // measure 57
1001
0000
0100
1100
0000
0101
0000
0001
,  // measure 58
1000
0000
0000
0010
0100
0000
0110
0000
0000
0000
1001
0000
0000
0000
0000
0000
,  // measure 59
0000
1000
1001
0000
1001
0000
1010
0000
,  // measure 60
0110
0000
0110
0000
1000
0100
0010
0001
,  // measure 61
0010
0100
0010
0100
0010
0100
0010
0100
0010
0000
0000
0000
0000
0000
0001
0000
,  // measure 62
0100
0000
0000
1000
0010
0000
1010
0000
1001
0000
0000
0000
0000
0000
0000
0000
;

//---------------dance-single - ----------------
#NOTES:
     dance-single:
     :
     Medium:
     1:
     0.000,0.000,0.000,0.000,0.000:
0000
0000
0000
0000
;

//---------------dance-single - ----------------
#NOTES:
     dance-single:
     :
     Easy:
     1:
     0.000,0.000,0.000,0.000,0.000:
0000
0000
0000
0000
;

//---------------dance-single - Copied from----------------
#NOTES:
     dance-single:
     Copied from:
     Beginner:
     1:
     0.000,0.000,0.000,0.000,0.000:
0000
0000
0000
0000
;
