#TITLE:SamPhanth Mi Tid;
#ARTIST:Unknown artist;
#FILE:SamPhanth Mi Tid.ogg;
#BPM:136.000;
#GAP:-600;
#SAMPLESTART:22.060;
#SAMPLELENGTH:12.000;
#CDTITLE:CDTITLE.png;
#SINGLE:MANIAC:13:
00000000
00002080
40484060
(8020464640002000)
(4000804026262626)
(2620048070000040)
(8006203000B00020)
(8006203000B00000)
(020080A000B00020)
(8004807000300000)
06B0A070
30A04828
(6262626260000040)
(60026030B0402080)
26460284
(6080282820808040)
6246B648
26284826
824B0624
(8020646460208040)
62480A28
(2040602040802062)
(6080408280206046)
(4000B00040802048)
(4020608280406000)
(B000B00040802064)
(6020804240206062)
(6000B00020806048)
426870A0
(3060B00020806048)
(4020604640206026)
(2080700020806048)
(4020602420208040)
(406040B020806048)
(4020804240206080)
(4060300020604082)
84823020
(700080A060408028)
(2060402620804024)
(2060300020804026)
(2060204840208020)
(208020A040602084)
(8020804240602082)
(8060300060408028)
2484B010
(7000807040602084)
(8020608280602080)
(4060B00020604084)
(8020608280402082)
(8040700060204026)
(2080402820604086)
(8040B00040602084)
(8020602420802040)
(80800640B0000040)
(8002603000B00060)
(4004201000700000)
B0210306
(400820A000B00000)
04B0B070
A0A04286
(8282828280000060)
(20048070B0000000)
;
#SINGLE:ANOTHER:1:
00000000
;
#SINGLE:BASIC:1:
00000000
;
#SINGLE:BEGINNER:1:
00000000
;
