#TITLE:Raspberry;
#SUBTITLE:;
#ARTIST:Yoshihiko Koezuka;
#TITLETRANSLIT:;
#SUBTITLETRANSLIT:;
#ARTISTTRANSLIT:;
#CREDIT:;
#BANNER:Raspberry BN.png;
#BACKGROUND:Raspberry BG.png;
#LYRICSPATH:;
#CDTITLE:CDTITLE.png;
#MUSIC:Raspberry.ogg;
#OFFSET:0.120;
#SAMPLESTART:79.220;
#SAMPLELENGTH:15.000;
#SELECTABLE:YES;
#BPMS:0.000=256.001;
#STOPS:;
#BGCHANGES:;

//---------------dance-single - Copied from----------------
#NOTES:
     dance-single:
     Copied from:
     Hard:
     14:
     0.669,0.784,0.417,0.152,0.000:
0000
0000
0000
0000
,
0000
0000
0000
0000
,
0000
0000
0000
0000
,
0000
0000
0000
0000
,
0000
0000
0000
0000
,
0000
0000
0000
0000
,
0000
0000
0000
0000
,
0000
0000
0000
0000
,
0000
0000
0000
0000
0000
0000
0000
1001
,
0000
0000
1010
0000
0000
1001
0000
0000
,
0101
0000
0000
0000
0000
0000
0000
0110
,
0000
0000
1010
0000
0000
0101
0000
0000
,
0220
0000
0000
0000
,
0000
0000
0000
0000
,
0000
0000
0330
1001
,
0000
0000
0000
0000
,
0000
0000
0000
0000
0000
0000
1000
0010
,
1000
0000
1000
0100
1000
0000
0100
0001
,
0100
0000
0010
0100
0010
0000
1000
0010
,
1000
0000
0100
0010
0100
0000
0001
0100
,
0001
0000
0001
1000
0001
0000
1000
0000
,
0010
0100
0001
0100
,
0001
0000
1000
0010
0000
2020
0000
0000
,
0000
0000
3030
1001
,
0000
0000
0101
0000
0000
0000
0001
1000
,
0001
0000
0100
0010
0100
0000
1000
0001
,
1000
0000
0100
0001
0100
0000
0010
1000
,
0010
0000
0100
0010
0100
0000
0001
0100
,
0001
0000
0010
1000
0010
0000
0100
0001
,
0100
0001
0000
0000
0100
0010
0100
0010
,
0000
0000
1000
0001
1000
0001
0000
0000
,
0000
0000
0000
0000
,
0000
0000
0000
0000
,
0000
0000
1000
0010
1000
0010
2000
0000
,
0000
0000
3001
0100
,
0000
0010
0000
0000
1000
0000
1010
0000
,
0000
0000
1000
0000
0001
0000
0100
0010
,
0100
0010
0100
0000
0000
0000
1001
0000
,
1000
0001
0100
0010
,
0001
1000
0000
1000
0001
0000
0100
0000
,
0000
0100
0010
0000
1000
0000
0000
0000
,
1000
0010
1000
0010
0001
0010
1000
0100
,
0010
0001
0010
1000
0001
0000
0000
0000
,
0100
0001
1000
0100
0001
0010
0100
1000
,
0010
0100
1000
0010
0100
0000
0000
0000
,
1000
0001
0100
0010
0100
1000
0100
0001
,
0010
0100
0010
1000
0001
0000
1001
0000
,
0000
1010
0000
0000
0101
0000
0000
0110
,
0000
0110
0000
0110
0000
0000
1010
0000
,
0000
2020
0000
0000
0000
0000
0000
0000
,
0000
0000
0000
0000
3030
0000
1000
0001
,
1000
0000
0100
0010
0100
0000
0001
0100
,
0001
0000
0010
1000
0010
0000
0100
0001
,
0100
0000
0010
0100
0010
0000
0100
1000
,
0100
0000
0100
0001
0100
0000
1000
0000
,
0001
0100
0010
1000
,
0010
0000
0100
0001
0000
0202
0000
0000
,
0000
0000
0303
1001
,
0000
0000
1010
0000
0000
0000
1000
0010
,
1000
0000
0100
0010
0100
0000
0001
0100
,
0001
0000
0010
1000
0010
0000
0100
0010
,
0100
0000
0001
1000
0001
0000
0100
0001
,
0100
0000
0010
1000
0010
0000
1000
0001
,
1000
0001
0000
0000
0001
0100
0001
0100
,
0000
0000
1000
0010
1000
0010
0000
0000
,
0000
0000
0000
0000
,
0000
0000
0000
0000
0000
0000
1000
0100
,
0000
0100
1000
0000
1000
0000
0001
0000
,
0010
0000
0010
0000
1000
0001
0000
0001
,
1000
0000
0100
0010
0000
0010
0100
0000
,
0010
0000
1000
0000
0001
0000
0100
0010
,
1000
0001
1000
0100
0010
0001
0010
1000
,
0100
1000
0010
0100
0001
0000
1000
0000
,
0010
1000
0000
1000
0010
0000
0100
0000
,
0001
0100
0000
0000
0000
0000
0000
0000
,
1000
0001
0100
0010
1000
0100
0010
0001
,
0200
0000
0300
0100
,
0001
1000
0100
0010
0001
0010
0100
1000
,
0001
0000
0100
0000
0010
0000
1000
0010
,
0100
0001
0010
0100
1000
0100
0010
0000
,
0001
1000
0001
0100
,
0010
0100
0010
0000
0100
0000
0001
0000
,
1000
0001
0100
1001
,
0000
1001
0000
0000
1001
0000
0000
1000
,
0010
1000
0010
1000
0010
0100
1000
0010
,
1000
0000
0100
0010
0100
0000
0001
0100
,
0001
0000
1000
0001
1000
0000
0100
0001
,
0100
0000
0010
0100
0010
0000
1000
0001
,
1000
0000
0100
0001
0100
0000
0001
0010
,
0100
1000
0010
0100
1000
0010
0100
0000
,
1000
0000
1000
0010
0000
2020
0000
0000
,
0000
0000
3030
1001
,
0000
1001
0000
0000
1001
0000
1000
0001
,
1000
0000
0100
0010
0100
0000
0001
0100
,
0001
0000
0010
1000
0010
0000
0100
0001
,
0100
0000
1000
0010
1000
0000
0100
0010
,
0100
0000
0001
0100
0001
0000
1000
0010
,
1000
0010
0000
0000
0100
0010
0100
0010
,
0000
0000
0001
0100
0001
0100
0000
1000
,
0000
0010
0000
0100
0000
0000
1000
0001
,
1000
0001
0000
0000
0100
0010
0100
0010
,
0000
0000
1000
0010
1000
0010
0000
1010
,
0000
0000
0110
0000
0000
0101
0000
0000
,
2002
0000
0000
0000
0000
3003
0000
0110
,
0000
0000
1010
0000
0000
1001
0000
0000
,
2002
0000
0000
0000
,
0000
0000
0000
0000
,
0000
0000
3003
0110
,
0100
0010
0000
0010
1000
0010
0000
0010
,
1000
0000
1000
0001
0000
1010
0000
0000
,
1001
0000
0000
0101
0000
0000
0000
0000
;
