#TITLE:Panama;
#SUBTITLE:;
#ARTIST:Matteo;
#TITLETRANSLIT:;
#SUBTITLETRANSLIT:;
#ARTISTTRANSLIT:;
#CREDIT:;
#BANNER:Panama BN.png;
#BACKGROUND:Panama BG.png;
#LYRICSPATH:;
#CDTITLE:CDTITLE.png;
#MUSIC:Panama.ogg;
#OFFSET:0.400;
#SAMPLESTART:52.800;
#SAMPLELENGTH:12.000;
#SELECTABLE:YES;
#BPMS:0.000=100.000;
#STOPS:;
#BGCHANGES:0.667=Panama.avi=1.000=1=1=0,
218.000=Panama BG.jpg=1.000=0=0=1,
99999=-nosongbg-=1.000=0=0=0 // don't automatically add -songbackground-
;

//---------------dance-single - ----------------
#NOTES:
     dance-single:
     :
     Beginner:
     1:
     0.000,0.000,0.000,0.000,0.000:
0000
0000
0000
0000
;

//---------------dance-single - ----------------
#NOTES:
     dance-single:
     :
     Easy:
     1:
     0.000,0.000,0.000,0.000,0.000:
0000
0000
0000
0000
;

//---------------dance-single - Copied from----------------
#NOTES:
     dance-single:
     Copied from:
     Medium:
     1:
     0.000,0.000,0.000,0.000,0.000:
0000
0000
0000
0000
;

//---------------dance-single - Copied from----------------
#NOTES:
     dance-single:
     Copied from:
     Hard:
     11:
     0.436,0.431,0.391,0.015,0.000:
0000
0000
0000
0000
,
0000
0000
0000
0000
,
0000
0000
0110
0000
1000
1000
0010
0100
,
0100
0001
1000
0100
0010
0010
0100
1000
,
1000
0100
0001
0010
1000
0100
0010
0001
,
1000
0010
0100
0001
0010
1000
1000
0010
,
0001
0010
0010
0010
1000
0010
0001
1000
,
0010
0010
0100
0010
1000
0001
0100
0010
,
0100
0001
0100
0000
0010
1000
0010
0100
,
0001
0100
0010
0100
0010
1000
0001
0010
,
0100
0010
0100
0010
0110
0000
1000
1000
,
1010
0000
0100
0010
0110
0000
0001
0100
,
0001
0100
1000
0001
0100
0000
0010
1000
,
1001
0000
0100
0001
1001
0000
0001
0000
,
1000
0000
0010
0100
0001
0100
0001
0010
,
1000
0100
0001
1000
0010
0100
0001
0001
,
1000
0000
1000
0010
0100
0010
1000
0001
,
0100
0001
0010
0100
1000
0010
0100
0001
,
0100
0000
0010
1000
0001
0000
0010
1010
,
0001
0000
0010
0100
2000
0000
3001
1001
,
0000
0001
0100
0010
1000
0010
0100
0001
,
0100
0010
0100
0010
1000
0100
0010
0001
,
1001
0000
1000
0010
1010
0000
1000
0001
,
0101
0000
0010
1000
1010
0000
0010
0100
,
0010
0100
0010
0110
0110
0000
0001
1000
,
1010
0000
0100
0010
1010
0000
0100
1000
,
0001
1000
1001
1001
1001
0000
0001
0101
,
0101
0000
1000
1010
1010
0000
0100
0100
,
0010
0100
0110
0110
0110
0000
0010
1000
,
1010
0000
0100
0001
0101
0000
0000
1000
,
0010
0000
0000
0000
1000
0001
0100
0010
,
1000
0000
0002
0000
1003
0000
0100
0001
,
0001
0000
0100
0000
0001
0010
0100
1000
,
0001
0010
1000
0100
0010
0001
0100
0110
,
0010
0000
0100
0000
0010
0000
1000
0001
,
1001
0000
0100
0000
0001
0010
1000
0001
,
1000
0000
0000
0100
0010
1000
0001
0010
,
0100
1000
0001
0100
0010
0010
0000
0001
,
1001
0000
1000
0010
0100
0001
0010
0100
,
0010
0100
0010
1000
0010
0100
0001
0010
,
0001
0000
0100
1000
0010
0001
0100
0001
,
0100
1000
0010
0100
0001
1000
0010
0100
,
1000
0000
0010
0100
0001
0000
0010
1010
,
0000
0000
0100
0001
0100
0000
0001
0101
,
0000
0000
0010
1000
0100
0010
0001
1000
,
0100
0001
0010
0100
0001
1000
0010
0100
,
0110
0000
1000
0010
0110
0000
0100
0001
,
1001
0000
1000
1000
1010
0000
0100
0100
,
0010
0001
0011
0011
0011
0000
0100
1000
,
1100
0000
0010
0001
0101
0000
0001
0010
,
0100
0010
1000
0001
1001
0010
0100
0100
,
0101
1000
0001
0100
0110
0000
0100
0010
,
0100
0010
0110
0110
0110
0000
0100
0100
,
0110
0000
0001
0001
1001
0010
0100
0010
,
0100
0110
1001
0000
;

//---------------dance-single - Copied from Copied f----------------
#NOTES:
     dance-single:
     Copied from Copied f:
     Challenge:
     13:
     0.576,0.595,0.557,0.000,0.323: // measure 1
0000
0000
0000
0000
,  // measure 2
0000
0000
0000
0000
,  // measure 3
0000
0000
0000
0000
0110
0000
0000
0000
1000
0010
1000
0010
1000
0000
0100
0010
,  // measure 4
0100
0000
0001
0000
1000
0000
0100
0000
0010
0100
0010
0100
0010
0000
1000
0001
,  // measure 5
1000
0000
0100
0000
0001
0000
0010
0000
1000
0001
1000
0001
1000
0000
0001
0000
,  // measure 6
1000
0000
0010
0000
0100
0000
0001
0000
0010
0000
1000
0010
1000
0000
0010
0000
,  // measure 7
0001
0000
0010
0100
0010
0100
0010
0000
1000
0010
0000
0000
0010
1000
0000
0000
,  // measure 8
0010
0000
0010
0000
0100
0000
0010
0100
1000
0000
0001
0000
0100
0000
0010
0001
,  // measure 9
0010
0000
0001
0000
0100
0000
0000
0000
0010
0000
0000
0010
1000
0000
0100
0000
,  // measure 10
0001
0100
0001
0100
0001
0000
0001
0000
0001
0000
1000
0000
0001
0000
0010
0000
,  // measure 11
0100
0010
0100
0010
0100
0000
0010
0000
0110
0000
0100
0000
1000
0000
1000
0000
,  // measure 12
1010
0010
0100
0010
0110
0100
0001
0100
,  // measure 13
0001
0100
0001
0100
0001
0000
0010
0000
0100
0000
0100
0000
0010
0000
1000
0000
,  // measure 14
1001
1000
0100
0001
1001
0001
0001
0001
,  // measure 15
1000
0010
0010
0100
0001
0100
0001
0010
,  // measure 16
1000
0100
0001
1000
0010
0100
0001
1001
,  // measure 17
1001
0000
1000
0010
0100
0010
1000
0001
,  // measure 18
0100
0001
0010
0100
1000
0010
0100
0101
,  // measure 19
0101
0000
0000
0000
0010
0000
1000
0000
0001
0000
0100
0010
1000
0000
1010
0000
,  // measure 20
1010
0000
0000
0000
0010
0000
0100
0000
1000
0000
0100
0010
0001
0000
1001
0000
,  // measure 21
1001
0001
0100
0010
1000
0010
0100
0001
,  // measure 22
0100
0000
0010
0000
0100
0000
0010
0000
1000
0001
1000
0001
1000
0001
1000
0001
,  // measure 23
1001
0000
0000
0010
1000
0000
0010
0000
1010
0000
1000
0010
1000
0000
0001
0000
,  // measure 24
0101
0000
0001
0100
0001
0000
1000
0000
1010
0000
0010
0100
0010
0000
1000
0000
,  // measure 25
0010
0000
0001
0000
1010
0000
0110
0000
0011
0000
1000
0001
1000
0000
1000
0000
,  // measure 26
1010
0000
1000
0010
1000
0000
0010
0000
1010
0000
0100
0001
0100
0000
1010
0000
,  // measure 27
0101
0000
1010
0000
1001
0000
0011
0000
1001
0000
0001
0100
0001
0000
0101
0000
,  // measure 28
0101
0000
1000
0010
1000
0000
1010
0000
1010
0000
0010
0100
0010
0000
0100
0000
,  // measure 29
0010
0000
0100
0000
1010
0000
0011
0000
1010
0000
1000
0010
1000
0000
1000
0000
,  // measure 30
1010
0000
0100
0001
0100
0000
0001
0000
0101
0000
0010
1000
0010
0000
1000
0000
,  // measure 31
0010
0000
1000
0000
0010
0000
0100
0000
1000
0010
0001
0000
0100
1000
0100
0000
,  // measure 32
1000
0010
1000
0000
0100
0001
0100
0000
0010
1000
0010
0000
0100
0010
0100
0000
,  // measure 33
0010
0001
0010
0000
0001
1000
0001
0000
0100
0010
0100
0000
1000
0100
1000
0000
,  // measure 34
0100
0001
0100
0000
0010
1000
0010
0000
0100
0001
0100
0000
0010
0100
0010
0000
,  // measure 35
1000
0010
1000
0000
0100
0001
0100
0000
0010
0100
0010
0000
1000
0001
1000
0000
,  // measure 36
0100
0001
0100
0000
0010
0100
0010
0000
1000
0010
1000
0000
0100
0001
0100
0000
,  // measure 37
0001
1000
0001
0000
0100
0010
0100
0000
0010
1000
0010
0000
0100
0001
0100
0000
,  // measure 38
0001
1000
0001
0000
0100
0010
0100
0000
1000
0100
1000
0000
0010
0100
0010
0000
,  // measure 39
0001
0010
0001
0000
1000
0000
0010
0000
1010
0000
0100
0000
0010
0000
0001
0000
,  // measure 40
0101
0010
1000
0010
1010
0100
0001
0010
,  // measure 41
0110
0000
0100
0010
1001
0001
0100
0100
,  // measure 42
1100
0010
0001
0010
0110
1000
0100
0010
,  // measure 43
0110
0000
0000
0000
,  // measure 44
0000
0000
0000
0000
,  // measure 45
0000
0000
0000
0000
,  // measure 46
0000
0000
0000
0000
,  // measure 47
0000
0000
0000
0010
0100
0000
0010
0000
0110
0000
0100
0010
0100
0000
0010
0000
,  // measure 48
1010
0000
1000
0010
1000
0000
1000
0000
1010
0000
1000
0010
1000
0000
0110
0000
,  // measure 49
0101
0000
1010
0000
0110
0000
0011
0000
0011
0000
0010
0001
0010
0000
0010
0000
,  // measure 50
0110
0000
0100
0010
0100
0000
0001
0000
0101
0000
1000
0001
1000
0000
1010
0000
,  // measure 51
0110
0000
0011
0000
1001
0000
0101
0000
1001
0000
0010
0100
0010
0000
0100
0000
,  // measure 52
0101
0000
1000
0001
1000
0000
1000
0000
1010
0000
0010
0001
0010
0000
1010
0000
,  // measure 53
0101
0000
1010
0000
0011
0000
1010
0000
0110
0000
0100
0010
0100
0000
0100
0000
,  // measure 54
1100
0000
1000
0001
1000
0000
0001
0000
1001
0000
1000
0001
1000
0000
0010
0100
,  // measure 55
0010
0100
1000
0100
1001
0000
0000
0000
;
