#TITLE:PRANK;
#SUBTITLE:;
#ARTIST:BEMANI Sound Team "SYUNN";
#TITLETRANSLIT:;
#SUBTITLETRANSLIT:;
#ARTISTTRANSLIT:;
#CREDIT:;
#BANNER:PRANK BN.png;
#BACKGROUND:PRANK BG.png;
#LYRICSPATH:;
#CDTITLE:CDTITLE.png;
#MUSIC:PRANK.ogg;
#OFFSET:1.700;
#SAMPLESTART:16.740;
#SAMPLELENGTH:15.000;
#SELECTABLE:YES;
#BPMS:0.000=130.000;
#STOPS:;
#BGCHANGES:;

//---------------dance-single - ----------------
#NOTES:
     dance-single:
     :
     Beginner:
     1:
     0.000,0.000,0.000,0.000,0.000:
0000
0000
0000
0000
;

//---------------dance-single - ----------------
#NOTES:
     dance-single:
     :
     Easy:
     1:
     0.000,0.000,0.000,0.000,0.000:
0000
0000
0000
0000
;

//---------------dance-single - Copied from----------------
#NOTES:
     dance-single:
     Copied from:
     Medium:
     1:
     0.000,0.000,0.000,0.000,0.000:
0000
0000
0000
0000
;

//---------------dance-single - Copied from----------------
#NOTES:
     dance-single:
     Copied from:
     Hard:
     13:
     0.605,0.632,0.137,0.253,0.426: // measure 1
0000
0000
0000
0000
,  // measure 2
0000
0000
0000
0000
,  // measure 3
0000
0000
0000
0000
,  // measure 4
0000
0000
0000
0000
,  // measure 5
0000
0000
0000
0000
,  // measure 6
0000
0000
0000
0000
1000
0010
1000
0010
1000
0000
0010
0000
0100
0000
1000
0000
,  // measure 7
0001
0000
0010
0000
0100
0000
0010
0100
0010
0100
0010
0000
0100
0000
0001
0000
,  // measure 8
0010
0000
1000
0000
0100
0010
0100
0010
0100
0000
0010
0000
0100
0000
1000
0000
,  // measure 9
0010
0001
0010
0001
0010
0000
0010
0000
0100
0000
1000
0000
0010
0000
1010
0000
,  // measure 10
1000
0000
0000
0100
0000
0000
1000
0000
0010
0000
0100
0000
0010
0000
0001
0000
0010
0000
0100
0000
0000
0000
0000
0000
,  // measure 11
0110
0000
0000
0000
1001
0000
0000
0000
1010
0000
0000
0110
0000
0000
0101
0000
,  // measure 12
0001
0000
0100
0001
0010
0000
1000
0000
0100
0000
0100
0010
0100
0000
0010
0000
,  // measure 13
0110
2010
3002
0203
,  // measure 14
0302
0203
2300
3020
,  // measure 15
0032
0000
0000
0000
0103
0000
0000
0000
1010
0000
0000
0110
0000
0000
0101
0000
,  // measure 16
0001
0000
0100
0001
0100
0000
0010
0000
0100
0000
0010
0100
0010
0000
0010
0000
,  // measure 17
0011
0002
2003
3200
,  // measure 18
0301
0000
0001
1000
0001
1000
0001
1000
0001
1000
0001
1000
0001
1000
0001
1000
,  // measure 19
0001
0000
0001
1000
0010
0001
0010
0100
,  // measure 20
0010
0000
0000
0010
0100
1000
0001
0010
,  // measure 21
0100
0000
0000
0000
0000
0000
0100
0010
0100
0000
0001
0010
0001
0000
1000
0100
,  // measure 22
1000
0000
0000
0000
0010
0000
0100
0010
0100
0000
0001
1000
0001
0000
0100
0001
,  // measure 23
0100
0000
0010
0100
0001
0100
1000
0100
,  // measure 24
0010
0000
1000
0100
0010
0001
0010
0001
,  // measure 25
0100
0000
0000
0000
0000
0000
1000
0010
1000
0000
0100
0001
0100
0000
0010
0001
,  // measure 26
0010
0000
1000
0000
0100
0010
0100
0010
,  // measure 27
2000
0010
0000
0010
,  // measure 28
3020
0100
0230
0001
,  // measure 29
0302
1000
2003
0010
,  // measure 30
3020
0100
0230
0010
,  // measure 31
0310
0000
1000
0010
1000
0000
0100
0000
0001
0000
0001
0100
0001
0000
0010
0000
,  // measure 32
0100
0000
1000
0100
1000
0000
0100
0000
0010
0000
0001
0010
0001
0000
0001
0000
,  // measure 33
0100
0000
0100
0010
0100
0000
0010
0001
0010
0000
1000
0001
1000
0000
0001
0010
,  // measure 34
0001
0000
0001
1000
0001
1000
0001
0000
0001
0000
0010
0000
0001
0100
0010
0000
,  // measure 35
0100
0000
0000
0000
0010
0000
0000
0000
0001
0000
0000
0000
0100
0000
0000
0000
1000
0000
0000
0000
0100
0000
0000
0000
0010
0000
0000
0000
0000
0000
1000
0000
0000
0100
0000
0000
0000
0000
0000
0100
0000
0000
1000
0000
0000
0000
0000
0000
,  // measure 36
0010
0000
0100
1000
0000
1000
0100
0000
0010
0000
0001
0010
0000
0010
0001
0000
,  // measure 37
1000
0000
0010
0100
0010
0000
0100
0000
0001
0000
0001
1000
0001
0000
0100
0000
,  // measure 38
0001
0000
0001
1000
0001
0000
0100
0000
1000
0000
0100
0001
0100
0000
0010
0000
,  // measure 39
0100
0000
0001
0000
0010
0000
0100
0000
1000
0000
1000
0010
0000
0010
1000
0000
,  // measure 40
0010
0000
0001
0100
0000
0100
0001
0000
1000
0000
0100
0010
0000
0010
0100
0000
,  // measure 41
2000
3002
2003
3020
,  // measure 42
0230
0000
0000
0000
0302
0000
0000
0000
1003
0000
1000
0010
1000
0010
1000
0010
,  // measure 43
1000
0000
0100
0010
0001
0100
0001
1000
,  // measure 44
0100
0000
0000
0010
0100
0010
0001
0100
,  // measure 45
1000
0000
0000
0000
0000
0000
1000
0100
1000
0000
0010
0001
0010
0000
0100
0010
,  // measure 46
0100
0000
1000
0010
1000
0000
0100
0001
0100
0000
0010
0001
0010
0000
1000
0100
,  // measure 47
1000
0000
0100
0001
0100
0000
1000
0000
0001
0000
0100
0000
0010
0000
0100
0000
,  // measure 48
0001
0000
0000
0001
0010
0100
1000
0001
,  // measure 49
0100
0000
0000
0000
0000
0000
1000
0001
1000
0000
0100
0001
0100
0000
0010
1000
,  // measure 50
0010
0000
0100
0010
0100
0000
0001
0010
0001
0000
0100
0000
1000
0000
0100
0000
,  // measure 51
1001
0000
0000
0000
;
