#TITLE:Onna ga Medatte Naze Ikenai;
#SUBTITLE:;
#ARTIST:Morning Musume.;
#TITLETRANSLIT:;
#SUBTITLETRANSLIT:;
#ARTISTTRANSLIT:;
#CREDIT:;
#BANNER:Onna Ga Medatte Naze Ikenai BN.png;
#BACKGROUND:Onna Ga Medatte Naze Ikenai BG.png;
#LYRICSPATH:;
#CDTITLE:CDTITLE.png;
#MUSIC:Onna ga Medatte Naze Ikenai.ogg;
#OFFSET:0.480;
#SAMPLESTART:55.440;
#SAMPLELENGTH:15.000;
#SELECTABLE:YES;
#BPMS:0.000=129.000;
#STOPS:;
#BGCHANGES:1.000=Onna Ga Medatte Naze Ikenai.avi=1.000=1=1=0,
99999=-nosongbg-=1.000=0=0=0 // don't automatically add -songbackground-
;

//---------------dance-single - ----------------
#NOTES:
     dance-single:
     :
     Hard:
     13:
     0.553,0.527,0.473,0.300,0.436: // measure 1
0000
0000
0000
0000
,  // measure 2
0000
0000
0000
0000
0000
0000
0000
0000
0110
0000
0000
0110
0000
0000
0110
0000
,  // measure 3
0000
0000
0000
0000
0000
0000
1000
0010
2000
0000
0000
0000
0000
0010
0000
3010
,  // measure 4
0000
0000
0100
0000
0010
0000
0001
0000
0020
0000
0000
0000
0000
0100
0000
0130
,  // measure 5
0000
1000
0010
1000
0010
0000
0100
0001
0200
0000
0000
0000
0000
0001
0000
0301
,  // measure 6
0000
1000
0010
0001
1010
0000
0110
0000
,  // measure 7
0101
0000
0000
0000
0001
0100
0001
0100
0002
0000
0000
0000
0000
1000
0000
1003
,  // measure 8
0000
0000
0100
0000
0010
0000
1000
0000
0002
0000
0000
0000
0000
0010
0000
0013
,  // measure 9
0000
0010
1000
0010
1000
0000
0100
0001
0200
0000
0000
0000
0000
1000
0000
1300
,  // measure 10
0000
0100
0001
1000
0110
0000
1010
0000
,  // measure 11
0101
0000
0000
0000
0100
0001
0100
0000
0101
0000
0000
0110
0000
0000
1010
0000
,  // measure 12
0100
0000
0000
0000
0010
0000
0000
0000
0100
0000
0010
0100
0000
0100
0010
0000
,  // measure 13
0000
0000
1000
0000
0001
0000
0100
0000
0010
0000
0010
1000
0000
1000
0010
0000
,  // measure 14
0100
0000
0000
0000
0010
0000
0000
0000
1000
0000
0100
0001
0000
0001
0100
0000
,  // measure 15
0000
0000
1000
0000
0100
0000
0001
0000
1010
0000
0000
0110
0000
0000
0001
0000
,  // measure 16
1001
0000
0000
0000
0100
0000
0000
0000
1000
0000
0001
0100
0000
0100
0001
0000
,  // measure 17
0000
0000
0010
0000
1000
0000
0100
0000
0010
0000
0001
0010
0000
0010
0001
0000
,  // measure 18
0100
0000
0000
0000
0010
0000
1000
0000
0100
0000
0010
1000
0000
1000
0010
0000
,  // measure 19
0000
0000
0100
0000
0001
0000
1000
0000
1010
0000
0000
0110
0000
0000
0001
0000
,  // measure 20
0101
0000
0100
0000
1000
0010
0100
0001
,  // measure 21
0010
0000
0100
0000
1000
0000
0010
0000
0100
0000
0100
0010
0000
0010
0100
0000
,  // measure 22
0000
0000
1000
0000
0010
0000
0100
0000
0002
0000
0000
0203
0000
0000
0010
0000
,  // measure 23
0320
0000
0000
0001
0000
0000
0031
0000
0001
0000
0010
0000
0100
0000
1000
0000
,  // measure 24
0010
0000
1000
0000
0010
0000
0001
0000
2000
0000
0000
3020
0000
0000
1000
0000
,  // measure 25
2030
0000
0000
0100
0000
0000
0100
0000
3100
0000
0010
0000
0001
0000
0100
0000
,  // measure 26
1000
0000
0100
0000
0001
0000
1000
0000
0100
0000
0001
0100
0000
0101
0000
0101
,  // measure 27
0000
0000
0000
0000
0000
0000
0000
0000
1000
0000
0010
1000
0000
0010
0000
1010
,  // measure 28
0000
0000
1010
0000
0000
0000
0000
0000
1000
0000
0000
0010
0000
0000
0100
0000
,  // measure 29
0010
0000
0000
0100
0000
0000
0001
0000
1100
0000
0000
0000
2002
0000
0000
0000
,  // measure 30
0000
0000
0000
0000
3003
0000
0000
0000
1000
0010
1000
0010
1000
0010
1000
0010
,  // measure 31
1000
0000
0100
0000
0010
0000
1000
0000
0001
0000
0000
1001
0000
0000
0100
0000
,  // measure 32
1000
0000
0000
1100
0000
0000
0010
0000
0001
0000
1000
0100
1000
0000
0100
0000
,  // measure 33
0210
0000
0000
0000
0301
0000
0000
0000
1000
0000
0000
0010
0000
0000
0100
0000
,  // measure 34
0001
0000
0000
0010
0000
0000
1000
0000
0001
0000
0000
0000
1001
0000
0000
0000
,  // measure 35
0110
0000
0000
0000
1010
0000
0000
0000
0100
0000
0000
0110
0000
0000
0001
0000
,  // measure 36
1000
0000
0000
1010
0000
0000
0100
0000
0001
0000
0001
0100
0001
0000
0010
0000
,  // measure 37
0120
0000
1030
0000
0200
0000
0300
0001
,  // measure 38
0100
0000
0000
1000
0000
0000
0010
0000
0100
0000
0000
0000
0010
0000
0000
0000
,  // measure 39
1001
0000
0110
0000
0010
0000
0000
0010
,  // measure 40
0100
0000
0010
0000
1000
0000
0010
0000
0100
0000
0000
0010
0000
0000
0100
0000
,  // measure 41
1000
0000
0000
0010
0000
0000
0100
0000
2000
0000
0000
0000
3002
0000
0000
0000
,  // measure 42
0203
0320
2030
3002
,  // measure 43
0203
0020
0000
0000
,  // measure 44
0000
0000
0000
0000
,  // measure 45
0330
0000
0000
0000
0110
0000
0000
0110
0000
0000
0000
0000
1000
0000
0000
1001
,  // measure 46
0000
0000
0000
0000
0001
0000
0000
0000
0101
0000
0000
0101
0000
0000
0101
0000
,  // measure 47
0000
1000
0001
1000
0001
0000
0100
0010
0200
0000
0000
0000
0000
0001
0000
0301
,  // measure 48
0000
0000
0010
0000
1000
0000
0001
0000
0200
0000
0000
0000
0000
0001
0000
0301
,  // measure 49
0000
0010
1000
0010
1000
0000
0100
0001
0200
0000
0000
0000
0000
1000
0000
1000
,  // measure 50
0300
0100
0010
1000
0110
0000
0101
0000
,  // measure 51
0110
0000
0000
0000
1000
0010
1000
0010
2000
0000
0000
0000
0000
0010
0000
3010
,  // measure 52
0000
0000
0100
0000
0010
0000
0001
0000
0002
0000
0000
0000
0000
1000
0000
1003
,  // measure 53
0000
0010
1000
0010
1000
0000
1000
0010
2000
0000
0000
0000
0000
0100
0000
3100
,  // measure 54
0000
0100
0010
1000
1001
0000
0110
0000
,  // measure 55
1010
0000
0000
0000
0100
0001
0100
0000
0010
0000
0000
1010
0000
0000
0110
0000
,  // measure 56
1000
0000
0100
0000
0001
0000
1000
0000
0110
0000
0000
0110
0000
0000
2002
0000
,  // measure 57
0000
0000
0000
0000
,  // measure 58
0000
0000
0000
0000
,  // measure 59
3003
0000
0000
0000
;

//---------------dance-single - ----------------
#NOTES:
     dance-single:
     :
     Medium:
     1:
     0.000,0.000,0.000,0.000,0.000:
0000
0000
0000
0000
;

//---------------dance-single - ----------------
#NOTES:
     dance-single:
     :
     Easy:
     1:
     0.000,0.000,0.000,0.000,0.000:
0000
0000
0000
0000
;

//---------------dance-single - Copied from----------------
#NOTES:
     dance-single:
     Copied from:
     Beginner:
     1:
     0.000,0.000,0.000,0.000,0.000:
0000
0000
0000
0000
;
