#TITLE:MANIFESTO;
#SUBTITLE:;
#ARTIST:GYROAXIA;
#TITLETRANSLIT:;
#SUBTITLETRANSLIT:;
#ARTISTTRANSLIT:;
#CREDIT:;
#BANNER:MANIFESTO BN.png;
#BACKGROUND:MANIFESTO BG.png;
#LYRICSPATH:;
#CDTITLE:CDTITLE.png;
#MUSIC:MANIFESTO.ogg;
#OFFSET:0.400;
#SAMPLESTART:38.700;
#SAMPLELENGTH:15.000;
#SELECTABLE:YES;
#BPMS:0.000=120.000;
#STOPS:;
#BGCHANGES:0.813=MANIFESTO.avi=1.000=1=1=0,
99999=-nosongbg-=1.000=0=0=0 // don't automatically add -songbackground-
;

//---------------dance-single - Copied from----------------
#NOTES:
     dance-single:
     Copied from:
     Hard:
     11:
     0.496,0.498,0.386,0.121,0.090:
0000
0000
0000
0000
,
0000
0000
0000
0000
,
0000
0000
0000
0000
,
0000
0000
0000
0000
0110
0000
0000
0110
0000
0000
0110
0000
0000
0000
0001
0000
,
1001
0000
1000
0010
1000
0100
0010
0001
,
0100
0000
0001
1000
0010
0100
0010
0001
,
0100
0000
0100
0010
1000
0001
0100
0010
,
0001
0000
0000
0000
1010
0000
0000
1001
0000
0000
1010
0000
1010
0000
0000
1001
,
0000
1010
1000
0010
0100
0001
0010
0000
,
0100
0000
1000
0001
0100
0010
0001
1000
,
0010
0000
0100
0010
1000
0001
0100
0010
,
0001
0000
0100
0010
1000
0001
0100
0010
,
1000
0001
0100
0000
0010
1000
0100
0010
,
0001
0100
0010
0000
0001
1000
0010
0100
,
0001
0000
0010
0000
0001
1000
0100
0001
,
0010
0000
0100
0000
1001
0000
0000
1010
0000
0000
1100
0000
0000
1010
0000
0000
,
1001
0000
1000
0001
1000
0001
1002
0000
,
1000
1003
0001
0100
0001
0100
0002
0100
,
0100
0103
1000
0010
1000
0100
0001
0010
,
0100
0000
1000
0000
1001
0000
0000
1001
0000
0000
1001
0000
1001
0000
0000
1001
,
0000
1001
0000
1001
0000
0000
0000
0000
1010
0000
0000
0000
1000
0000
0100
0000
,
0010
1000
2001
0000
3001
0000
0100
0010
,
1000
0001
0100
0010
0100
0001
0010
0100
,
2010
0000
3020
0000
0130
0000
1000
0010
,
0100
0001
0102
0000
1003
0100
1000
0001
,
0100
0010
0210
0000
0310
0000
1000
0001
,
0100
0010
0001
0010
1000
0001
0010
0100
,
0010
0000
0000
1010
0000
0000
0000
0000
0020
0000
0000
0000
0130
0000
0000
0000
,
1000
0001
0100
1000
0010
0100
0001
0100
,
1000
0010
0100
0010
1000
0001
0100
0000
,
0100
0001
0010
0000
1000
0010
0100
0100
,
0001
0010
2000
0000
0001
3001
0000
1000
,
0010
0100
0001
0001
0100
1000
0010
0100
,
0001
1000
0001
0100
0010
0100
0001
1000
,
0010
0100
0001
0000
1000
0010
0100
0001
,
0010
0000
0100
0000
1000
0000
0000
0000
0010
0000
0001
0000
0110
0000
0000
0110
,
0000
0110
1000
0010
0100
0001
0010
1000
,
0010
0100
0001
0010
0010
0100
0100
1000
,
1000
0000
0001
0000
0001
0000
0000
1000
0000
0000
0010
0000
0000
0100
0000
0000
,
0100
0010
0100
0010
0200
0000
0000
0000
0000
0000
0000
0000
0000
0000
0000
0000
,
0000
0000
0000
0000
,
0000
0300
0000
0000
;
