#TITLE:ラムのラブソング;
#SUBTITLE:;
#ARTIST:Pastel*Palettes;
#TITLETRANSLIT:Lum no Love Song;
#SUBTITLETRANSLIT:;
#ARTISTTRANSLIT:;
#CREDIT:;
#BANNER:;
#BACKGROUND:;
#LYRICSPATH:;
#CDTITLE:;
#MUSIC:Lum no Love Song.ogg;
#OFFSET:0.180;
#SAMPLESTART:47.620;
#SAMPLELENGTH:15.000;
#SELECTABLE:YES;
#BPMS:0.000=180.000;
#STOPS:;
#BGCHANGES:;

//---------------dance-single - ----------------
#NOTES:
     dance-single:
     :
     Hard:
     12:
     0.611,0.587,0.241,0.589,0.000: // measure 1
0000
0000
0000
0000
,  // measure 2
0000
0000
0000
0000
,  // measure 3
0000
0000
0000
0000
,  // measure 4
0000
0000
0000
0000
,  // measure 5
0000
0000
0000
0000
1000
0010
1000
0010
,  // measure 6
1000
0010
1000
0010
0100
0001
0000
0102
,  // measure 7
0000
0000
0000
0003
0100
0010
0001
0010
,  // measure 8
0100
0010
0001
0010
0100
0010
0100
0020
,  // measure 9
0000
0000
0030
0000
1000
0010
1000
0010
,  // measure 10
1000
0100
0010
0001
0100
0010
0001
0020
,  // measure 11
0000
0000
0030
0000
1000
0010
1000
0010
,  // measure 12
1000
0010
0001
0010
0001
0010
0100
0010
,  // measure 13
0000
0000
0000
0000
1000
0010
1010
0000
,  // measure 14
0100
0001
0101
0000
0010
0100
0110
0000
,  // measure 15
0010
0000
0010
0000
1000
0010
1010
0000
,  // measure 16
0100
0010
0110
0000
0001
1000
1001
0000
,  // measure 17
1000
0000
1000
0000
1000
0001
1001
0000
,  // measure 18
0100
0001
0101
0000
0010
0100
0110
0000
,  // measure 19
0010
0000
0010
0000
1000
0010
1010
0000
,  // measure 20
0100
0010
0110
0000
0001
0100
0101
0000
,  // measure 21
1000
1000
0002
0203
,  // measure 22
0320
0000
1030
0001
0000
0001
0000
1000
,  // measure 23
0020
0000
0130
0000
0020
0000
1030
0001
,  // measure 24
1000
0000
0001
0000
1000
0000
0001
1000
,  // measure 25
0001
0010
2000
3020
,  // measure 26
0230
0000
0301
0100
0000
0001
0000
1000
,  // measure 27
0001
0000
1001
0000
1000
0000
0010
1000
,  // measure 28
0010
0000
1000
0010
1000
0000
0100
0000
,  // measure 29
0010
0001
2000
3020
,  // measure 30
0130
0001
0000
1000
0000
0010
0000
1000
,  // measure 31
0010
0000
0100
0000
0001
1000
0000
0001
,  // measure 32
1000
0000
1000
0010
0000
1000
0100
0010
,  // measure 33
0001
1001
0002
2003
,  // measure 34
3010
1000
0000
1000
0000
0100
0000
0010
,  // measure 35
1000
0000
0010
0000
0210
0000
0000
0301
,  // measure 36
0000
1000
0001
1000
1001
0000
0000
0000
,  // measure 37
2000
0000
0002
0000
,  // measure 38
0000
0000
0000
3003
0000
0100
0001
0100
,  // measure 39
0002
0000
1000
0000
2003
0000
0000
3020
,  // measure 40
0000
0100
0001
0100
,  // measure 41
0001
0030
1000
0000
0010
1000
0001
0200
,  // measure 42
0000
0000
0000
0000
0000
1300
0000
1000
,  // measure 43
0010
0000
0020
0000
1030
0010
1000
0020
,  // measure 44
0000
1000
0100
1000
,  // measure 45
0100
0030
2000
0000
0020
0000
0000
0000
,  // measure 46
0000
0000
0000
3030
0000
1000
0000
0001
,  // measure 47
1000
0000
0010
0000
1000
0000
0010
2000
,  // measure 48
0000
0000
3010
0002
0000
0000
0000
0003
,  // measure 49
0000
0000
2000
0000
3002
0000
0103
0200
,  // measure 50
0000
0000
0000
0000
0000
0301
1000
0001
,  // measure 51
2000
3020
0032
0000
,  // measure 52
0000
0000
2003
3020
,  // measure 53
0230
0000
0302
0000
0103
0010
0100
0010
,  // measure 54
0100
0010
0001
0010
0001
1000
0000
1002
,  // measure 55
0000
0000
0000
0003
1000
0010
1000
0010
,  // measure 56
1000
0010
1000
0100
1000
0100
0010
0002
,  // measure 57
0000
0000
0000
0003
1000
0001
1000
0001
,  // measure 58
1000
0001
1000
0010
1000
0010
1000
0020
,  // measure 59
0000
0000
0000
0000
0031
1000
0001
1000
,  // measure 60
0001
0100
0010
0001
0100
0010
0100
0010
,  // measure 61
0000
0000
0000
0000
1000
0010
1000
0020
,  // measure 62
0000
0031
0100
0002
0000
1003
0010
2000
,  // measure 63
0000
3010
0001
0010
0100
1000
0100
2000
,  // measure 64
0000
3010
0100
0020
0000
1030
0100
2000
,  // measure 65
0000
3001
0100
0001
0100
0010
0001
0020
,  // measure 66
0000
1030
0001
2000
0000
3100
1000
0200
,  // measure 67
0000
0310
0001
0010
0100
1000
0100
2000
,  // measure 68
0000
3001
0100
0002
0000
1003
0010
2000
,  // measure 69
0000
3010
0001
0010
2000
0000
3020
0000
,  // measure 70
0032
2003
3020
0032
,  // measure 71
2003
0000
3001
0000
0100
0010
0110
0000
,  // measure 72
0001
1000
1001
0000
1000
0010
1010
0000
,  // measure 73
0010
0000
1010
0000
1000
0010
1010
0000
,  // measure 74
0100
0010
0110
0000
0010
0001
0011
0000
,  // measure 75
1000
0010
1000
0000
0100
0001
0100
0001
,  // measure 76
0000
0001
0000
1000
0020
0000
0000
0000
,  // measure 77
1030
0000
0000
0000
;
