#TITLE:LOVE! HUG!GROOVY!!;
#SUBTITLE:(Full Ver.);
#ARTIST:D4DJ ALL STAR;
#TITLETRANSLIT:;
#SUBTITLETRANSLIT:;
#ARTISTTRANSLIT:;
#CREDIT:;
#BANNER:LOVE! HUG! GROOVY!! (Full Ver.) BN.png;
#BACKGROUND:LOVE! HUG!GROOVY!! (Full Ver.) BG.png;
#LYRICSPATH:;
#CDTITLE:CDTITLE.png;
#MUSIC:LOVE! HUG!GROOVY!! (Full Ver.).ogg;
#OFFSET:0.200;
#SAMPLESTART:96.100;
#SAMPLELENGTH:12.000;
#SELECTABLE:YES;
#BPMS:0.000=157.000;
#STOPS:;
#BGCHANGES:0.563=LOVE! HUG!GROOVY!! (Full Ver.).avi=1.000=1=1=0,
99999=-nosongbg-=1.000=0=0=0 // don't automatically add -songbackground-
;

//---------------dance-single - ----------------
#NOTES:
     dance-single:
     :
     Challenge:
     16:
     0.749,0.774,0.604,0.371,0.372: // measure 1
0000
0000
0000
0000
,  // measure 2
0000
0000
0000
0000
,  // measure 3
0000
0000
0000
0000
0000
0000
0000
0000
1000
0000
0010
0000
0100
0000
0000
0001
,  // measure 4
0000
0000
0000
0000
0000
0000
0100
0000
1000
0000
0001
0000
0010
0000
0000
1000
,  // measure 5
0000
0000
0000
0000
0000
0000
0100
0000
0002
0000
0000
0000
2003
0000
0000
3000
,  // measure 6
0020
0000
0000
0200
0030
0000
0302
0000
2000
0000
0000
0000
0000
0000
0000
0000
,  // measure 7
3003
1000
0001
1000
0000
0000
1001
0000
,  // measure 8
0100
0000
0001
0000
0100
0000
0001
0000
0101
0000
0000
0110
0000
0000
0110
0000
,  // measure 9
0000
0000
1000
0000
0001
0000
1000
0000
0010
0000
1000
0010
0000
0010
1000
0000
,  // measure 10
1001
0000
0100
0001
0000
0001
0100
0000
2002
0000
0000
0000
0000
0000
0000
0000
,  // measure 11
0000
0000
0000
3003
1000
0100
0001
0010
,  // measure 12
0100
0000
1000
0000
0001
0000
0100
0000
0001
0000
0100
0000
0001
0100
0000
0101
,  // measure 13
0000
1000
0010
0100
0001
0010
1000
0000
,  // measure 14
1000
0000
0010
1000
0000
0010
1000
0000
0010
0000
0100
0000
0001
0000
1000
0000
,  // measure 15
0110
0000
1001
0000
1000
0010
0100
0001
,  // measure 16
1000
0000
0000
1001
0000
0000
1000
0000
0001
0000
0000
0000
1001
0000
0000
0000
,  // measure 17
1010
0000
0110
0000
1001
0000
1000
0010
,  // measure 18
1000
0010
0001
0100
1000
0000
0010
0000
,  // measure 19
1010
0000
1010
0000
1000
0010
1000
0010
,  // measure 20
1000
0010
1000
0000
0000
0000
1001
0000
0101
0000
0001
0000
0010
0000
0100
0000
,  // measure 21
1000
0001
1000
0000
0100
0000
0010
0000
0001
0000
0100
0001
0000
0000
0001
0000
,  // measure 22
1000
0000
0010
1000
0000
0000
0000
0000
0100
0000
0001
0000
1000
0000
0001
0000
,  // measure 23
0100
0000
0010
0000
0110
0000
0000
0000
1000
0010
1000
0000
0100
0010
0001
0000
,  // measure 24
0010
0100
1000
0000
0100
0010
0001
0000
1001
0000
0000
1010
0000
0000
0110
0000
,  // measure 25
0000
0010
0110
0000
2001
0000
0100
0010
,  // measure 26
0001
0000
0010
0001
3010
0000
0000
0100
,  // measure 27
0001
0000
0010
0000
1000
0000
0010
0000
1001
0000
0000
0101
0000
0000
0110
0000
,  // measure 28
0000
1010
0000
0000
0110
0000
1000
0000
0001
0000
0100
0000
0010
0000
0001
0000
,  // measure 29
0100
1000
0010
0001
0101
0000
0100
0010
,  // measure 30
0001
0000
1000
0000
0100
0000
0001
0000
1001
0000
0000
1010
0000
0000
0110
0000
,  // measure 31
0110
0110
0000
0100
0001
0010
1000
0100
,  // measure 32
0001
0000
0100
0001
0000
0000
0010
0000
1000
0000
0000
0001
0000
0000
1001
0000
,  // measure 33
0000
0000
1000
0000
0001
0000
0010
0000
0100
0000
0000
0110
0000
0000
1000
0000
,  // measure 34
0001
0000
0000
1001
0000
0000
0100
0000
0001
0000
0000
0000
2001
0000
0000
0000
,  // measure 35
3020
0230
0302
1003
,  // measure 36
0010
0000
1000
0000
0010
0000
0000
0000
0101
0000
0000
0110
0000
0000
1010
0000
,  // measure 37
0000
0110
0000
0000
0101
0000
0000
0000
1000
0000
0010
1000
0000
1000
0010
0000
,  // measure 38
0100
0000
0001
0100
0000
0100
0001
0000
1000
0000
0100
0010
0000
0010
0100
0000
,  // measure 39
0010
0000
0000
0110
0000
0000
1001
0000
0000
0000
0100
0000
0010
0000
0100
0000
,  // measure 40
0001
0010
0100
1000
0000
1000
0001
0100
,  // measure 41
0010
0000
0000
0110
0000
0000
0110
0000
0220
0000
0000
0000
0000
0000
0000
0000
,  // measure 42
0000
0000
0000
0000
0330
0000
0100
0010
,  // measure 43
0100
0010
0100
0010
1000
0010
0100
0001
,  // measure 44
0010
0000
0100
0000
1000
0000
0100
0000
0101
0000
0000
0110
0000
0000
1010
0000
,  // measure 45
1010
0000
0000
0000
1000
0000
0100
0000
0010
0000
0101
0000
0000
1010
0000
0000
,  // measure 46
0110
0000
0100
0010
0000
0000
1000
0000
0001
0000
0101
0000
0000
1010
0000
0000
,  // measure 47
0110
0000
0000
0100
0010
0000
0001
0000
0100
0000
0010
0000
1000
0000
0001
0010
,  // measure 48
0100
0000
1000
0000
0010
0000
0100
0000
0001
0010
0100
0000
1000
0000
0001
0000
,  // measure 49
0100
0000
0010
0000
0100
0000
1000
0000
0001
0000
0000
0100
0000
0000
0010
0000
,  // measure 50
0000
0100
0000
0000
0001
0000
0010
0000
0100
0000
0000
0110
0000
0000
0010
0000
,  // measure 51
1000
0000
0100
0000
0010
0000
0001
0000
1000
0001
0000
0001
1000
0000
0010
0000
,  // measure 52
1000
0000
0010
0000
0100
0000
0010
0000
1000
0010
0000
0010
1000
0000
0100
0000
,  // measure 53
0010
0001
0010
0000
0110
0000
1010
0000
,  // measure 54
0101
0000
0000
0101
0000
0000
0110
0000
0000
0000
0100
0000
0010
0000
0001
0000
,  // measure 55
0010
0100
1000
0010
1000
0010
1000
0010
,  // measure 56
1000
0010
0001
0010
0001
0010
0001
0010
,  // measure 57
1000
0010
1000
0010
1000
1000
0010
1010
,  // measure 58
0000
0100
0001
0100
0101
0000
0010
0000
,  // measure 59
1010
0000
0000
0010
0000
0000
1010
0000
0000
0000
0000
0100
0000
0000
0101
0000
,  // measure 60
0000
0000
1000
0010
1000
0000
0000
0000
0110
0000
0000
0100
0010
0000
0010
0100
,  // measure 61
0000
0000
0010
0000
0001
0000
0010
0000
0100
0010
0000
0010
0100
0000
0010
0000
,  // measure 62
0001
0000
0010
0000
0100
0000
1000
0000
1010
0000
1000
0010
1000
0000
0100
0000
,  // measure 63
0110
0000
0010
0001
0010
0000
0010
0000
0110
0000
0010
0000
0100
0000
0010
0100
,  // measure 64
0000
1000
0001
0100
0010
0000
1010
0000
,  // measure 65
0010
0000
1000
0010
0000
0000
0200
0000
0000
0000
0302
0000
0000
0000
2003
0000
,  // measure 66
0000
3020
0000
0200
0000
0330
0110
0000
,  // measure 67
1000
0000
0001
0100
0000
0000
0002
0000
0000
0000
2003
0000
0000
0000
3020
0000
,  // measure 68
0000
0000
0230
0000
0000
0000
0302
0000
0000
0000
0000
0000
1003
0000
1000
0001
,  // measure 69
1000
0000
1000
0001
0000
0000
0000
0000
1001
0000
0000
0000
0000
0000
1000
0010
,  // measure 70
1000
0000
0010
1000
0000
0000
0000
0000
0101
0000
0000
0000
0110
0000
0000
0000
,  // measure 71
1010
0000
1010
1010
0000
0110
0000
0110
,  // measure 72
1000
0001
0100
0010
0110
0000
0001
0000
,  // measure 73
1000
0000
0010
1000
0000
0000
0020
0000
0000
0000
0230
0000
0000
0000
2300
0000
,  // measure 74
0000
3002
0000
0023
0000
0000
0130
0000
,  // measure 75
1000
0000
0010
1000
0000
0000
0200
0000
0000
0000
0302
0000
0000
0000
2003
0000
,  // measure 76
0000
3020
0000
0200
0000
0330
0000
1000
,  // measure 77
0001
0000
0100
0001
0000
0000
0000
0000
1001
0000
0000
0000
0000
0000
0010
0000
,  // measure 78
1000
0000
0010
1000
0000
0000
0000
0000
0100
0000
0001
0100
0000
0000
0010
0000
,  // measure 79
1000
0000
0010
0100
0000
0000
0001
0000
1001
0000
0000
1010
0000
0000
0110
0000
,  // measure 80
0010
0000
1000
0000
0010
0000
0100
0000
1000
0000
0001
0000
1000
0000
0000
0020
,  // measure 81
0000
0000
0000
0000
0030
0000
0100
0000
0001
0000
0010
0000
0100
0010
0000
0200
,  // measure 82
0000
0000
0300
0001
2000
0000
3020
0000
,  // measure 83
0230
0000
0000
0302
0000
0000
2003
0000
0002
0000
0000
0000
0000
0000
0000
0000
,  // measure 84
3003
0000
1000
0000
0001
0000
1000
0000
1001
0000
0000
1010
0000
0000
1100
0000
,  // measure 85
0000
0000
1000
0000
0100
0000
0010
0000
1001
0000
0000
0101
0000
0000
0011
0000
,  // measure 86
0000
0000
1000
0000
0001
0000
0100
0000
1000
0000
0001
1000
0000
1000
0001
0000
,  // measure 87
1000
0000
0010
1000
0000
1000
0010
0000
1001
0000
0000
0110
0000
0000
0110
0000
,  // measure 88
0110
0000
0010
0000
0100
0000
0010
0000
1000
0010
1000
0000
0100
0010
0100
0000
,  // measure 89
0010
0001
0010
0000
1000
0001
1000
0000
0100
0001
0100
0000
0010
0100
0010
0000
,  // measure 90
0100
0001
0010
0100
1000
0100
0010
0002
,  // measure 91
0000
2003
0000
0020
0000
3030
0000
0200
,  // measure 92
0000
0301
0010
0100
1000
0100
0001
0020
,  // measure 93
0000
0230
0000
0000
0301
1000
0010
0100
,  // measure 94
0000
0000
0000
0000
0001
0000
1001
0000
1000
0000
0010
1000
0010
0000
0100
0000
,  // measure 95
0010
0000
0010
0001
0010
0000
1000
0000
0010
0000
0100
0001
0100
0000
0010
0000
,  // measure 96
1000
0000
0100
0001
0100
0000
1000
0000
2001
0000
0000
0000
0000
0000
3100
0000
,  // measure 97
0102
0000
2003
3020
,  // measure 98
0230
0000
0000
0000
0300
0000
0000
0000
1000
0000
0010
1000
0000
0000
0010
0000
,  // measure 99
0000
1010
0000
0000
0000
0000
0000
0000
0100
0000
0001
0100
0000
0000
0102
0000
,  // measure 100
0000
0000
0000
0000
0000
0000
0000
0000
1003
0000
0010
1000
0000
1000
0010
0000
,  // measure 101
0000
0000
0100
0000
0010
0000
0001
0000
0100
0000
1000
0010
0000
0010
0001
0000
,  // measure 102
0100
0000
0001
0000
0010
0000
0100
0000
1000
0000
0010
0100
0000
0010
0000
0100
,  // measure 103
0010
0000
0000
0000
0000
0000
0000
0000
0000
0000
0000
0000
1000
0000
0000
0000
0010
0000
0000
0000
1000
0000
0000
0000
0010
0000
0000
0000
0000
0000
1000
0000
0000
0010
0000
0000
0000
0000
0000
0000
0000
0000
1000
0000
0000
0000
0000
0000
,  // measure 104
0000
0000
0000
0000
1000
0000
0001
0000
0100
0001
0100
0000
0010
1000
0010
0000
,  // measure 105
0100
0010
0100
0000
0010
0001
0010
0000
0002
0000
0000
0000
0000
0000
0000
0000
,  // measure 106
1003
0000
0100
0000
0010
0000
0000
0000
1000
0100
1000
0000
0100
0010
0100
0000
,  // measure 107
0010
0001
0010
0000
0010
0100
0010
0000
1000
0000
0100
0000
0010
0000
0001
0000
,  // measure 108
0010
0000
0000
0000
2000
0000
0000
0000
3001
0010
0001
0010
0001
0000
0010
0000
,  // measure 109
0010
0100
0010
0100
0010
0000
0100
0000
0220
0000
0000
0000
0000
0000
0330
0000
,  // measure 110
2000
0000
3020
0000
0230
0000
0301
0001
,  // measure 111
0001
0000
0100
0000
0010
0000
1000
0001
1000
0000
0100
0001
0000
0000
0001
0000
,  // measure 112
0010
0100
1000
0010
1000
0010
1000
0001
,  // measure 113
0100
0010
0001
0010
0100
0010
0100
0010
,  // measure 114
0110
0000
0000
0110
0000
0000
0110
0000
1000
0000
0010
1000
0010
0000
0100
0000
,  // measure 115
0001
0000
0100
0001
0100
0000
0010
0000
1000
0000
0100
0010
0100
0000
0001
0000
,  // measure 116
1000
0000
0100
0001
0100
0000
0010
0000
1000
0000
0100
0001
0100
0000
0001
0000
,  // measure 117
0101
0000
0000
0101
0000
0000
0101
0000
0100
0000
0010
0000
0100
0000
0001
0000
,  // measure 118
0200
0000
0000
0000
0310
0000
0001
0000
1001
0000
0000
1010
0000
0000
0100
0000
,  // measure 119
0101
0000
0000
0101
0000
0000
0001
0000
1001
0000
0000
1010
0000
0000
1000
0000
,  // measure 120
1010
0000
0000
1010
0000
0000
0000
0000
1000
0000
0010
1000
0010
0000
0100
0010
,  // measure 121
0100
0000
0001
0000
0010
0000
0100
0000
1000
0000
0010
1000
0010
0000
0100
0001
,  // measure 122
0100
0000
0010
0000
1000
0000
0001
0000
0100
0000
0000
0101
0000
0000
0100
0000
,  // measure 123
0101
0000
0000
0001
0000
0000
1001
0000
1000
0000
0000
1000
0000
0000
1001
0000
,  // measure 124
0001
0010
0100
1000
0020
0000
2030
0000
,  // measure 125
3001
0020
0000
0230
0000
0301
0010
0100
,  // measure 126
1000
0000
0000
0000
1010
0000
0000
0000
1010
0000
0000
1000
0000
0000
0100
0000
,  // measure 127
0001
0000
0000
0010
0000
0000
0100
0000
1000
0000
0000
0010
0000
0000
0100
0000
,  // measure 128
1000
0000
0010
0000
0001
0000
0000
0000
0010
0000
0000
0110
0000
0000
1000
0000
,  // measure 129
0001
0000
1000
0000
0100
0000
0010
0000
0001
0100
0001
0000
0101
0000
0000
0000
,  // measure 130
0101
0000
0110
0000
1000
0010
0100
0001
,  // measure 131
0010
0000
0000
0100
0000
0000
1000
0000
0000
0000
0100
0000
0001
0000
0100
0000
,  // measure 132
0001
0000
0000
0000
0101
0000
1000
0000
0100
0000
0000
0110
0000
0000
0001
0000
,  // measure 133
0100
0000
0000
0110
0000
0000
0010
0000
0100
0000
0000
0101
0000
0000
0010
0000
,  // measure 134
1000
0000
0000
0000
0000
0000
0001
0100
0001
0000
0000
1000
0000
0000
1000
0000
,  // measure 135
1001
0000
0000
0101
0000
0000
1010
0000
1000
0000
0000
0010
0000
0000
1000
0000
,  // measure 136
0001
0100
1000
0001
0100
0010
0001
1000
,  // measure 137
0001
0000
0100
0000
0010
0000
0100
0000
0010
0001
0000
0001
0010
0000
0100
0000
,  // measure 138
1000
0000
0001
0000
0100
0000
0001
0000
0010
1000
0000
1000
0010
0000
0100
0000
,  // measure 139
0001
0000
0010
0000
0100
0000
1000
0000
0001
0000
1000
0001
1000
0000
0100
0000
,  // measure 140
0101
0000
0001
0100
0001
0000
0001
0000
1001
0000
1000
0001
1000
0000
0001
0000
,  // measure 141
1000
0100
0010
0001
0100
1000
0001
0100
,  // measure 142
0001
0000
0100
0001
0000
0000
2000
0000
0000
0000
3020
0000
0000
0000
0230
0000
,  // measure 143
0000
0302
0000
2000
0000
3003
1001
0000
,  // measure 144
1000
0000
0010
1000
0000
0000
0200
0000
0000
0000
0302
0000
0000
0000
2003
0000
,  // measure 145
0000
0000
3020
0000
0000
0000
0200
0000
0000
0000
0330
0000
0110
0000
1000
0001
,  // measure 146
1000
0000
0001
1000
0000
0000
0000
0000
1001
0000
0000
0000
0000
0000
0100
0001
,  // measure 147
0100
0000
0001
0100
0000
0000
0000
0000
1001
0000
0000
0000
0110
0000
0000
0000
,  // measure 148
1010
0000
0101
0110
0000
1001
0000
1001
,  // measure 149
0000
1000
0100
0010
0001
0000
1000
0010
,  // measure 150
1000
0000
0010
1000
0000
0000
0200
0000
0000
0000
0302
0000
0000
0000
2003
0000
,  // measure 151
0000
3020
0000
0200
0000
0330
0110
0000
,  // measure 152
1000
0000
0010
1000
0000
0000
0200
0000
0000
0000
0302
0000
0000
0000
2003
0000
,  // measure 153
0000
0000
3020
0000
0000
0000
0200
0000
0000
0000
0330
0000
0110
0000
1000
0001
,  // measure 154
1000
0000
0001
1000
0000
0000
0000
0000
1001
0000
0000
0000
0000
0000
1000
0010
,  // measure 155
1000
0000
0010
1000
0000
0000
0000
0000
0100
0000
0001
0100
0000
0000
0010
0000
,  // measure 156
1000
0000
0010
1000
0000
0000
0100
0000
0101
0000
0000
0110
0000
0000
1010
0000
,  // measure 157
0000
0000
1000
0001
1000
0000
0000
0000
1000
0000
0010
0000
0100
0000
0000
0002
,  // measure 158
0000
0000
0000
0000
1003
0000
1000
0000
0010
0000
0100
0000
0001
0100
0000
0200
,  // measure 159
0000
0000
0000
0310
0200
0000
0302
0000
,  // measure 160
2003
0000
0000
0020
3000
0000
0100
0000
0200
0000
0000
0000
0000
0000
0330
0000
,  // measure 161
0000
0000
1000
0000
0010
0000
0100
0000
0101
0000
0000
0110
0000
0000
1010
0000
,  // measure 162
0000
0000
1000
0000
0010
0000
0100
0000
0011
0000
0000
1010
0000
0000
0101
0000
,  // measure 163
0000
0000
1000
0000
0010
0000
0100
0000
0110
0000
0100
0010
0000
0010
0100
0000
,  // measure 164
0110
0000
0100
0001
0000
0001
0100
0000
0101
0000
0000
0101
0000
0000
0101
0000
,  // measure 165
0101
0000
1000
0010
1000
0000
1010
0000
1000
0000
0010
0000
1000
0000
0001
0000
,  // measure 166
0100
1000
0100
0010
0001
0100
0010
0001
,  // measure 167
0100
1000
0001
0100
1000
0001
1000
0100
,  // measure 168
0010
0001
0010
0100
1000
0001
0100
0010
,  // measure 169
0001
0000
0100
0000
0010
0000
0100
0000
0010
0100
0010
0100
0010
0000
0100
0001
,  // measure 170
0100
0001
0100
0000
0010
1000
0010
1000
0020
0000
0000
0000
0000
0000
0000
0000
,  // measure 171
0000
0000
0000
0000
0100
0000
0000
0000
0130
0000
0100
0001
0100
0000
0010
1000
,  // measure 172
0010
0000
0100
0010
0100
0000
0001
0100
0001
0000
0010
1000
0010
0000
0100
0010
,  // measure 173
0100
0000
0010
0001
0010
0000
0000
0000
0110
0000
0000
0000
0101
0000
0000
0000
,  // measure 174
1010
0000
0110
0000
1000
0100
0010
1010
,  // measure 175
0000
1000
0010
1000
0010
1000
0100
0010
,  // measure 176
0001
0100
1000
0010
0000
0100
1000
0010
,  // measure 177
0001
0000
0100
0000
0110
0000
0000
0000
1000
0001
1000
0000
0100
0001
0100
0000
,  // measure 178
0010
1000
0010
0000
0100
0000
0010
0000
0001
0000
0010
0000
0100
0000
1000
0000
,  // measure 179
1010
0000
0110
0000
1000
0100
0010
0001
,  // measure 180
0002
0000
0013
0100
1000
0100
0010
0001
,  // measure 181
0200
0000
0000
0000
0000
0000
0301
0010
0001
0000
0000
0000
0001
0000
0202
0000
,  // measure 182
0000
0303
1000
2020
0000
3030
1000
2002
,  // measure 183
0000
0000
3003
0000
0001
0000
0101
0000
1000
0010
1000
0010
1000
0010
1000
0000
,  // measure 184
0100
0010
0001
0010
0100
1000
0100
0000
1000
0001
1000
0000
0100
0001
0100
0000
,  // measure 185
0010
0000
0000
1000
0010
1000
0010
0000
0000
1000
0000
0010
,  // measure 186
1000
0000
0000
0100
0010
0001
0020
0000
0000
1030
0010
1000
,  // measure 187
0002
0000
0000
0003
0000
0000
1000
0010
1000
0100
0001
0010
,  // measure 188
0100
0000
0000
0100
0010
0100
0020
0000
0000
0000
0000
0000
,  // measure 189
0000
0000
1030
1010
,  // measure 190
0020
0000
0030
0001
0000
1001
1000
0000
,  // measure 191
1010
0000
0010
0000
1000
0100
0010
0001
,  // measure 192
0001
0010
0100
0010
0100
0010
1000
0010
,  // measure 193
0100
0010
0001
0010
0100
1000
0001
0100
,  // measure 194
0010
0001
0010
1000
0101
0000
0000
1000
,  // measure 195
0001
1000
1001
0000
0100
0001
0010
0100
,  // measure 196
1000
0000
0100
0000
0010
0000
0001
0000
0010
0100
0010
0000
1000
0001
1000
0000
,  // measure 197
0100
0001
0100
0000
0010
1000
0010
0000
0100
0000
0010
0000
0001
0000
1000
0000
,  // measure 198
0100
0000
0101
0000
0000
0000
1000
0100
1000
0000
0100
0000
0010
0000
0001
0000
,  // measure 199
0100
1000
0000
0010
1000
0001
0100
0010
,  // measure 200
0001
0100
1000
0001
0010
1000
0001
0100
,  // measure 201
0010
1000
0100
0010
0201
0000
0302
0000
,  // measure 202
2003
0000
0000
3020
0000
0230
0000
0301
,  // measure 203
0010
0100
1000
0100
1000
0001
0100
0010
,  // measure 204
1000
0001
0100
0010
0001
0010
0100
1000
,  // measure 205
0001
0100
0010
0001
0010
1000
0100
0010
,  // measure 206
0001
1000
0001
0100
0010
0001
0100
1000
,  // measure 207
1010
0000
0110
0000
1000
0100
0010
0001
,  // measure 208
0020
0000
0130
1000
0100
0001
0010
0100
,  // measure 209
1000
0000
0000
0000
1010
0000
1000
0000
0001
0000
0000
0100
0000
0000
0010
0000
,  // measure 210
1000
0000
0000
0010
0000
0000
0001
0000
0100
0000
0000
0010
0000
0000
1000
0000
,  // measure 211
0100
0010
0100
0001
0010
1000
0100
0001
,  // measure 212
0010
0000
0000
0100
0000
0000
1000
0000
0000
0001
0000
0000
1000
0000
0001
0000
1000
0000
0001
0000
1000
0000
0010
0000
,  // measure 213
1000
0010
1000
0010
1000
0010
2000
0000
0000
3200
0000
0000
,  // measure 214
0302
0003
1001
1010
,  // measure 215
0110
0000
0000
0000
0101
0000
0000
0000
0010
0100
0000
0100
0010
0000
0100
0000
,  // measure 216
0001
0000
0100
0000
0010
0000
0100
0000
1000
0001
0000
0001
1000
0000
0010
0000
,  // measure 217
1000
0000
0001
0000
1000
0000
1000
0000
1001
0000
1000
0010
1000
0000
1000
0000
,  // measure 218
1010
0000
0100
0001
0100
0000
0001
0000
0101
0000
0100
0000
0010
0000
0100
0010
,  // measure 219
0100
1000
0100
0000
1001
0000
1010
0000
,  // measure 220
1000
0000
0001
1000
0000
0000
0200
0000
0000
0000
0302
0000
0000
0000
2003
0000
,  // measure 221
0000
3020
0000
0200
0000
0330
0110
0000
,  // measure 222
1000
0000
0001
1000
0000
0000
0020
0000
0000
0000
0230
0000
0000
0000
2300
0000
,  // measure 223
0000
0000
3002
0000
0000
0000
0200
0000
0000
0000
0303
0000
0101
0000
0100
0001
,  // measure 224
0100
0000
0001
0100
0000
0000
0000
0000
1010
0000
0000
0000
0000
0000
1000
0010
,  // measure 225
1000
0000
0010
1000
0000
0000
0000
0000
1001
0000
0000
0000
0101
0000
0000
0000
,  // measure 226
1010
0000
0100
0101
0000
1001
0000
1001
,  // measure 227
0000
1000
0010
0100
0101
0000
1001
0000
,  // measure 228
0100
0000
0001
0100
0000
0000
0020
0000
0000
0000
2030
0000
0000
0000
3002
0000
,  // measure 229
0000
0203
0000
0020
0000
0330
0110
0000
,  // measure 230
1000
0000
0001
1000
0000
0000
0200
0000
0000
0000
0320
0000
0000
0000
0032
0000
,  // measure 231
0000
2003
0000
0200
0000
3300
1100
1000
,  // measure 232
0001
0000
1000
0001
0000
0000
0000
0000
1001
0000
0000
0000
0000
0000
0100
0010
,  // measure 233
0100
0000
0010
0100
0000
0000
0000
0000
1000
0000
0010
1000
0000
0000
0100
0000
,  // measure 234
0001
0000
0100
0001
0000
0000
0001
0000
1001
0000
0000
1001
0000
0000
1010
0000
,  // measure 235
0000
0000
1000
0001
1000
0000
1010
0000
1000
0000
0001
0000
0100
0000
0000
0020
,  // measure 236
0000
0000
0030
0000
0000
0000
1000
0000
0001
0000
0100
0000
0010
0100
0000
2000
,  // measure 237
0000
3000
0001
0100
0002
0000
2003
0000
,  // measure 238
3020
0000
0000
0200
0030
0000
0001
0000
0302
0000
0000
0000
0000
0000
0000
0000
,  // measure 239
0003
0000
1000
0000
0001
0000
1000
0000
1001
0000
0000
1010
0000
0000
1100
0000
,  // measure 240
0000
0000
1000
0000
0100
0000
0010
0000
0101
0000
0000
0011
0000
0000
0101
0000
,  // measure 241
0000
0000
1000
0000
0100
0000
0001
0000
0010
0000
0100
0010
0000
0000
0010
0000
,  // measure 242
1000
0000
0001
0100
0000
0001
0100
0000
0101
0000
0000
1010
0000
0000
0100
0000
,  // measure 243
0110
0000
0100
0010
0100
0000
0110
0000
1000
0000
0010
0000
0100
0000
0000
0001
,  // measure 244
0000
0000
0000
0000
0000
0000
1000
0000
0010
0000
0100
0000
0001
0000
0000
0010
,  // measure 245
0000
0000
0000
1000
0001
0000
0100
0000
,  // measure 246
0010
0000
0000
1000
0000
0000
0010
0000
0100
0000
0000
0000
0010
0000
0000
0000
,  // measure 247
0100
0100
0010
0001
0000
0000
1001
0000
,  // measure 248
0100
0000
0010
0000
1000
0000
0001
0000
0101
0000
0000
0101
0000
0000
0101
0000
,  // measure 249
0000
0000
0001
0000
0010
0000
0100
0000
1000
0000
0010
1000
0000
1000
0010
0000
,  // measure 250
0100
0000
0100
0001
0000
0001
0100
0000
0101
0000
0001
0000
0100
0000
0001
0000
,  // measure 251
1000
0000
0010
0000
0100
0000
0001
0000
1000
0000
0010
1000
0000
1000
0010
0000
,  // measure 252
0110
0000
0100
1000
0000
1000
0100
0000
0110
0000
0000
0110
0000
0000
0110
0000
,  // measure 253
0220
0330
0000
0000
;
