#TITLE:Kimi ga Inakucha!;
#SUBTITLE:;
#ARTIST:Hello, Happy World!;
#TITLETRANSLIT:;
#SUBTITLETRANSLIT:;
#ARTISTTRANSLIT:;
#CREDIT:;
#BANNER:Kimi ga Inakucha! BN.png;
#BACKGROUND:Kimi ga Inakucha! BG.png;
#LYRICSPATH:;
#CDTITLE:CDTITLE.png;
#MUSIC:Kimi ga Inakucha!.ogg;
#OFFSET:0.280;
#SAMPLESTART:64.340;
#SAMPLELENGTH:15.000;
#SELECTABLE:YES;
#BPMS:0.000=124.000;
#STOPS:;
#BGCHANGES:0.583=Kimi ga Inakucha!.avi=1.000=1=1=0,
99999=-nosongbg-=1.000=0=0=0 // don't automatically add -songbackground-
;

//---------------dance-single - ----------------
#NOTES:
     dance-single:
     :
     Beginner:
     1:
     0.000,0.000,0.000,0.000,0.000:
0000
0000
0000
0000
;

//---------------dance-single - ----------------
#NOTES:
     dance-single:
     :
     Easy:
     1:
     0.000,0.000,0.000,0.000,0.000:
0000
0000
0000
0000
;

//---------------dance-single - Copied from----------------
#NOTES:
     dance-single:
     Copied from:
     Medium:
     1:
     0.000,0.000,0.000,0.000,0.000:
0000
0000
0000
0000
;

//---------------dance-single - Copied from----------------
#NOTES:
     dance-single:
     Copied from:
     Hard:
     13:
     0.531,0.602,0.542,0.193,0.392: // measure 1
0000
0000
0000
0000
,  // measure 2
0000
0000
0000
0000
,  // measure 3
0000
0000
0000
0000
,  // measure 4
0000
0000
0000
0000
,  // measure 5
0000
0000
0000
0000
,  // measure 6
0000
0000
0000
0000
,  // measure 7
0010
0100
0000
0110
0000
0000
1000
0000
0010
1000
0000
1010
0000
0000
0100
0000
,  // measure 8
0001
0100
0000
0101
0000
0000
0010
0000
1000
0000
0001
0000
0002
0000
0000
0000
,  // measure 9
0000
0000
0003
0000
0000
0100
0010
0000
1000
0000
0001
0000
0010
0000
0100
0000
,  // measure 10
1000
0010
1000
0000
0001
0000
0100
0010
0000
0010
1000
0000
1001
0000
0000
1010
,  // measure 11
0000
0000
1100
0000
0001
0000
0010
0000
1000
0000
0001
1000
0000
0000
0010
0000
,  // measure 12
0100
0010
0000
0000
0010
0000
1000
0000
0001
0000
0010
0001
0000
0000
1000
0000
,  // measure 13
0010
0100
0100
1000
0100
1000
0100
0001
,  // measure 14
0100
0000
0001
0000
0100
0000
0000
0000
0010
0000
1000
0002
0000
0000
0010
0000
,  // measure 15
0100
0000
1000
0000
1003
0000
0010
0000
1000
0000
0001
0100
0000
0000
0010
0000
,  // measure 16
1000
0000
0001
0000
0000
0000
1000
0000
0010
0000
0100
0010
0000
0000
1000
0000
,  // measure 17
0001
0100
0020
0000
0000
0000
0000
0130
,  // measure 18
1000
0100
0000
0000
0110
0000
0000
0000
1010
0000
0000
1010
0000
0000
0000
0000
,  // measure 19
1000
0000
0002
0000
0000
0000
0003
0001
,  // measure 20
0100
0010
0000
0000
1010
0000
0000
0000
0110
0000
0000
0110
0000
0000
0000
0000
,  // measure 21
0001
0000
2000
0000
0000
0000
3000
0100
,  // measure 22
0001
0100
0000
0000
0110
0000
0000
0000
1010
0000
0000
1010
0000
0000
0000
0000
,  // measure 23
0000
0000
0000
0000
1000
0000
0010
0000
1000
0100
0000
1100
0000
0000
0001
0000
,  // measure 24
0100
0000
0000
0000
0001
0000
1000
0000
0001
1000
0000
1001
0000
0000
0000
0000
,  // measure 25
0000
0000
0200
0010
0320
0001
0032
1000
,  // measure 26
2003
0000
0000
0020
0000
0000
3030
0000
0100
0000
0001
0000
1000
0000
0010
0100
,  // measure 27
0000
0000
1010
0000
1001
0000
1000
0010
0000
0010
1000
0000
0101
0000
0100
0001
,  // measure 28
0000
0001
0100
0000
1010
0000
1000
0001
0000
0001
1000
0000
1001
0000
0010
0100
,  // measure 29
0000
0100
0010
0000
0110
0000
0100
1000
0000
1000
0100
0000
1100
0000
0100
0010
,  // measure 30
0000
0010
0100
0000
0110
0000
0010
0001
0000
0001
0010
0000
0011
0000
0001
1000
,  // measure 31
0000
1000
0001
0000
1001
0000
0001
0000
0100
0000
0001
1000
0000
0000
0010
0000
,  // measure 32
1010
0000
0000
0000
0100
0000
0001
0000
0010
0000
1000
0010
0000
0000
0100
0000
,  // measure 33
0101
0000
0000
0000
1010
0000
0000
0110
0000
0000
1100
0000
0011
0000
0000
1010
,  // measure 34
0000
0001
1001
0000
0200
0000
0320
0000
,  // measure 35
2030
0000
0000
0000
3001
0000
0100
0010
0000
0000
0001
0000
1000
0000
0010
0100
,  // measure 36
0000
0001
0100
1000
0001
2002
0000
0000
,  // measure 37
0000
0000
3003
0000
0000
0000
0010
0000
0100
0000
0010
1000
0000
0000
0100
0000
,  // measure 38
0001
0000
1000
0000
1010
0000
0000
0110
0000
0000
1001
0000
0000
0000
1000
0001
,  // measure 39
0000
0001
1000
0000
0001
0000
0100
0010
0000
0000
1000
0000
0001
0000
0100
1000
,  // measure 40
0000
0000
0001
0000
1010
0000
0000
0110
0000
0000
2002
0000
0000
0000
0000
0000
,  // measure 41
0000
0000
3003
0000
1000
0000
0001
0000
1000
0000
0000
0002
0000
0000
0000
0000
,  // measure 42
0010
0100
1000
0010
0103
1000
0000
0001
,  // measure 43
0010
0000
0000
0000
0100
0000
0010
0000
0100
0000
0000
0020
0000
0000
0000
0000
,  // measure 44
0130
0000
0100
0000
0010
0000
0000
0010
0000
0000
1000
0000
0001
0000
0000
1000
,  // measure 45
0000
0000
0010
0000
0110
0000
1000
0010
0000
0000
0100
0000
0001
0000
1000
0010
,  // measure 46
0000
0000
0001
0000
1000
0000
0010
0100
0000
0001
0000
1000
0000
0000
0100
0000
,  // measure 47
1000
0010
0000
1010
0000
0000
0010
0000
0001
0100
0000
0101
0000
0000
0010
0000
,  // measure 48
0100
0010
0000
0110
0000
0000
1000
0000
0010
0000
0100
0000
0002
0000
0000
0000
,  // measure 49
0003
0000
0000
0000
0000
0010
1000
0000
0010
0000
0100
0000
0001
0000
0010
0000
,  // measure 50
0010
0100
0010
0000
1000
0000
0010
1000
0000
1000
0001
0000
1001
0000
0000
1010
,  // measure 51
0000
0000
1100
0000
1001
0000
0000
0000
1010
0000
0000
0000
0110
0000
0000
0110
,  // measure 52
0000
0000
1010
0000
0000
0000
0100
0000
0010
1000
0000
1010
0000
0000
0110
0000
;
