#TITLE:Insane;
#SUBTITLE:;
#ARTIST:Ray Volpe ft. fknsyd;
#TITLETRANSLIT:;
#SUBTITLETRANSLIT:;
#ARTISTTRANSLIT:;
#CREDIT:;
#BANNER:Insane BN.png;
#BACKGROUND:Insane BG.png;
#LYRICSPATH:;
#CDTITLE:CDTITLE.png;
#MUSIC:Insane.ogg;
#OFFSET:0.340;
#SAMPLESTART:67.240;
#SAMPLELENGTH:15.000;
#SELECTABLE:YES;
#BPMS:0.000=150.000;
#STOPS:;
#BGCHANGES:;

//---------------dance-single - ----------------
#NOTES:
     dance-single:
     :
     Beginner:
     1:
     0.000,0.000,0.000,0.000,0.000:
0000
0000
0000
0000
;

//---------------dance-single - ----------------
#NOTES:
     dance-single:
     :
     Easy:
     1:
     0.000,0.000,0.000,0.000,0.000:
0000
0000
0000
0000
;

//---------------dance-single - Copied from----------------
#NOTES:
     dance-single:
     Copied from:
     Medium:
     1:
     0.000,0.000,0.000,0.000,0.000:
0000
0000
0000
0000
;

//---------------dance-single - Copied from----------------
#NOTES:
     dance-single:
     Copied from:
     Hard:
     12:
     0.411,0.526,0.217,0.358,0.000: // measure 1
0000
0000
0000
0000
,  // measure 2
0000
0000
0000
0000
,  // measure 3
0000
0000
0000
0000
,  // measure 4
0000
0000
0000
0000
,  // measure 5
0000
0100
0010
0001
,  // measure 6
0000
1000
0010
0001
,  // measure 7
0000
0010
0100
0010
,  // measure 8
0000
1000
0001
1000
,  // measure 9
0010
1010
0000
0100
,  // measure 10
0010
0101
0000
0010
,  // measure 11
1000
1010
0000
0100
,  // measure 12
0000
0001
0000
0100
,  // measure 13
0010
0110
0000
0001
,  // measure 14
0010
0011
0000
1000
,  // measure 15
0010
1010
0000
0100
,  // measure 16
0000
0001
0000
1000
,  // measure 17
0010
0100
0001
0010
,  // measure 18
0100
1000
0001
0100
,  // measure 19
0001
0101
0000
0010
,  // measure 20
0100
2000
0000
3002
,  // measure 21
0000
0103
0010
1000
,  // measure 22
0001
0010
0100
1000
,  // measure 23
0010
2010
0000
3100
,  // measure 24
0000
0010
0000
0001
,  // measure 25
0000
0000
1000
0010
1000
0000
0100
0010
,  // measure 26
0001
0000
0001
0100
0001
0000
0010
0100
,  // measure 27
1000
0000
0100
0010
0100
0000
0001
0010
,  // measure 28
0100
0000
1000
0010
1000
0000
0100
0010
,  // measure 29
0100
0001
1000
0001
,  // measure 30
1000
0100
0010
0000
0001
0000
0100
0000
,  // measure 31
0001
0010
1000
0000
0100
0000
0010
0000
,  // measure 32
1000
0010
1000
0000
0100
0010
0100
0000
,  // measure 33
0110
0000
0100
0010
0100
0000
0001
0010
,  // measure 34
0100
1000
0100
0001
0100
0000
0001
0010
,  // measure 35
0100
0010
0001
1000
0001
0000
0100
0010
,  // measure 36
0100
0010
0001
0010
0100
0010
0100
0000
,  // measure 37
1001
0000
1000
0010
1000
0000
0100
0010
,  // measure 38
0001
0010
0100
1000
0100
0000
0100
0001
,  // measure 39
0100
0110
1010
0110
,  // measure 40
0101
0000
1000
0001
1000
0001
1000
0000
,  // measure 41
1001
0000
1000
0010
1000
0000
0100
0010
,  // measure 42
0001
0000
0010
0100
1000
0000
0100
0010
,  // measure 43
0100
2000
3020
0230
,  // measure 44
0302
0203
2300
3002
,  // measure 45
0203
0320
2030
3002
,  // measure 46
0023
2030
3200
0302
,  // measure 47
1003
0000
0000
1000
0010
1000
0010
1000
,  // measure 48
0010
0000
0000
0100
0001
0100
0001
0100
,  // measure 49
0001
0000
1001
0000
1000
0010
1000
0000
,  // measure 50
0100
0001
0100
0000
1000
0010
1000
0000
,  // measure 51
0000
2000
3020
0230
,  // measure 52
0302
2003
3020
0230
,  // measure 53
0302
2003
3020
0230
,  // measure 54
0302
2003
3020
0230
,  // measure 55
0302
0000
1003
0000
1000
0010
1000
0000
,  // measure 56
0100
0010
0100
0000
0100
0001
0100
0000
,  // measure 57
0010
1000
0020
0000
0000
0030
0010
0010
,  // measure 58
0010
0010
0010
0100
0010
0100
0010
0000
,  // measure 59
0110
2001
0000
0010
,  // measure 60
0000
0001
0000
3010
,  // measure 61
0000
1002
0000
0010
,  // measure 62
0000
1000
0000
0013
,  // measure 63
0000
0210
0000
0001
,  // measure 64
0000
0010
0000
0301
,  // measure 65
0000
2010
0000
0001
,  // measure 66
0000
0010
0000
3001
,  // measure 67
0000
0102
0000
0010
,  // measure 68
0000
0100
0000
0013
,  // measure 69
0000
2010
0000
0001
,  // measure 70
0000
0010
0000
3001
,  // measure 71
0000
0210
0000
1000
,  // measure 72
0000
0010
0000
1300
,  // measure 73
0000
2001
0000
0010
,  // measure 74
0000
0001
0000
3010
,  // measure 75
0000
1010
0000
0000
;

//---------------dance-single - Copied from----------------
#NOTES:
     dance-single:
     Copied from:
     Challenge:
     14:
     0.556,0.773,0.200,0.558,0.104:
0000
0000
0000
0000
,
0000
0000
0000
0000
,
0000
0000
0000
0000
,
0000
0000
0000
0000
,
0000
2010
0000
0010
,
0100
3002
0000
0100
,
0100
2003
0000
3010
,
0100
0210
0000
0310
,
1000
1020
0000
0130
,
0010
0210
0000
0301
,
1000
2002
0003
3020
,
0000
0230
0000
0301
,
1000
2002
0003
3010
,
0010
0220
0300
0130
,
0100
0201
0000
0010
,
0000
0302
0000
0103
,
0100
1000
0100
0010
,
0001
0010
0100
0010
,
0100
0010
0220
0000
0330
0000
0100
0000
,
0001
0020
0100
2030
,
0001
0000
3010
0000
0100
0000
0010
0010
,
0001
0000
0100
0000
1000
0000
0001
0001
,
0100
0000
2000
0000
0010
0000
0010
0010
,
3010
0000
0002
0000
0010
0000
0010
0010
,
0013
0000
1000
0010
0100
0001
0020
0000
,
0130
0000
1000
0010
1000
0100
0002
0000
,
1003
1001
0100
0001
,
1000
0000
1000
0010
1000
0010
1000
0000
,
1010
0000
0100
0000
0001
0000
0010
0100
,
1000
0000
0100
0010
0001
0100
1000
0100
,
0010
0000
0001
0000
1000
0000
1000
0100
,
0001
0000
0100
0010
0100
0010
0100
0000
,
0110
0000
0000
0000
1000
0000
0010
0000
0100
0000
0010
0000
0100
0001
0010
0000
,
0001
0000
0010
0000
0100
0010
1000
0000
0100
0000
0001
0000
0010
0001
0100
0000
,
1000
0010
1000
0000
0100
0000
0001
0000
0010
0000
0100
0000
1000
0010
0100
0000
,
0100
0000
0010
0000
0001
0010
0100
0000
1000
0000
0010
0000
0100
0010
0100
0000
,
0010
0100
0010
0000
1000
0100
1000
0000
0001
0010
0001
0000
1000
0100
1000
0000
,
0010
0100
0010
0000
0010
1000
0010
0000
0001
0100
0001
0000
0010
0100
0010
0000
,
1000
0010
1000
0000
1000
0001
1000
0001
1000
0001
1000
0001
1000
0001
1000
0001
,
1000
0001
1000
0000
0100
0000
0010
0000
0100
0000
0010
0000
0100
0000
0000
0000
,
0110
0000
1000
0010
1000
0100
0001
0010
,
0100
0001
1000
0100
0010
0001
0100
0010
,
0100
0000
2000
0010
3020
0100
0230
0001
,
0302
1000
2003
0010
3020
0100
0230
0000
,
0301
0010
0001
0000
2000
0000
0010
3000
0020
0000
0001
0000
0032
0000
1000
0000
,
2003
0001
3002
0100
0203
0010
0310
0010
,
0110
0000
0000
1000
0010
1000
0010
0100
,
1100
0000
0000
0100
0001
0100
0001
0100
,
0001
0000
2000
0000
0100
0010
3002
0000
,
0010
0100
2003
0000
3020
0000
0130
0100
,
1001
0000
0200
0010
0320
1000
2030
0001
,
3002
0100
0203
0010
0320
1000
2030
0000
,
3100
0010
0100
0000
0020
0000
0001
0000
0032
0000
1000
0000
2003
0000
0010
0000
,
3020
0100
0230
0001
0302
1000
1003
1000
,
0010
0000
0200
0000
0010
0310
0020
0000
,
0001
0031
0020
0000
0100
0130
0200
0000
,
1000
1300
0200
0000
0000
0000
0301
0100
,
0001
0100
0101
0000
0010
0100
0010
0000
,
0110
2001
0010
0100
,
0001
0010
0100
0001
,
3010
1002
0010
0100
,
1000
0010
0100
1000
,
0013
0200
0010
1000
,
0001
0010
1000
0010
,
0301
0120
0001
1000
,
0100
0001
0100
1000
,
0031
2010
0100
0010
,
0001
0100
0010
0001
,
3010
0210
0000
1000
,
0000
0010
0000
0301
,
0000
0021
0000
1000
,
0000
0001
0000
1000
,
0031
0200
0000
0010
,
0000
0001
0000
0010
,
0000
0301
0000
0000
;
