#TITLE:Initial;
#SUBTITLE:;
#ARTIST:Poppin'Party;
#TITLETRANSLIT:;
#SUBTITLETRANSLIT:;
#ARTISTTRANSLIT:;
#CREDIT:;
#BANNER:Initial BN.png;
#BACKGROUND:Initial BG.png;
#LYRICSPATH:;
#CDTITLE:;
#MUSIC:Initial.ogg;
#OFFSET:0.620;
#SAMPLESTART:63.680;
#SAMPLELENGTH:12.000;
#SELECTABLE:YES;
#BPMS:0.000=193.000;
#STOPS:;
#BGCHANGES:2.000=Initial.avi=1.000=1=1=0,
99999=-nosongbg-=1.000=0=0=0 // don't automatically add -songbackground-
;

//---------------dance-single - ----------------
#NOTES:
     dance-single:
     :
     Hard:
     13:
     0.673,0.678,0.659,0.357,0.067: // measure 1
0000
0000
0000
0000
,  // measure 2
0000
0000
0000
0000
,  // measure 3
0000
0000
0000
0000
,  // measure 4
0000
0000
0000
0000
,  // measure 5
0000
0000
0000
0000
,  // measure 6
0000
0000
0000
0000
,  // measure 7
0000
0000
0000
0110
,  // measure 8
0000
1001
0000
0000
0202
0000
0000
0303
,  // measure 9
0100
0010
0100
0000
0001
0100
0010
0000
,  // measure 10
1001
0000
0000
1010
0000
0000
0110
0000
0202
0000
0000
0000
0000
0000
0000
0000
,  // measure 11
0000
0000
0303
0000
1000
0010
0000
0010
,  // measure 12
1000
0000
0100
0110
0000
0001
0010
0100
,  // measure 13
1000
0010
0100
0010
0100
0010
0000
0010
,  // measure 14
0100
0000
0010
0011
0000
1000
0100
0001
,  // measure 15
0010
0100
1000
0010
1000
0010
1010
0000
,  // measure 16
0001
0100
0101
0000
0010
0100
0110
0000
,  // measure 17
0001
0010
0011
0000
1000
0010
1010
0000
,  // measure 18
0100
0001
0101
0000
0001
1000
0010
0100
,  // measure 19
0001
0010
0100
0001
0000
1000
0010
1000
,  // measure 20
0010
1000
0010
1000
0010
1000
0010
1000
,  // measure 21
0010
0000
1010
0000
0000
0100
0001
0100
,  // measure 22
0001
0100
0001
0200
0000
1300
0010
0100
,  // measure 23
0010
0001
0010
0100
0000
0100
0010
0100
,  // measure 24
0010
0100
0010
0100
0010
0100
0010
0100
,  // measure 25
0010
0000
0110
0000
0000
0010
0001
0010
,  // measure 26
0001
0010
0001
0010
0000
1000
0100
0010
,  // measure 27
0001
1000
0001
1001
0000
0000
1000
1010
,  // measure 28
0000
0001
0101
0000
0100
0110
0000
0010
,  // measure 29
0110
0000
1001
0000
0000
0100
0010
0001
,  // measure 30
0010
1000
0001
2000
0000
0010
0001
0010
,  // measure 31
0010
0100
0010
3100
0000
0000
0100
0110
,  // measure 32
0000
0001
1000
1001
0000
1000
0001
1000
,  // measure 33
0002
0000
0000
0003
0000
1000
0010
0100
,  // measure 34
0001
0010
0100
2000
0000
0000
0000
0000
,  // measure 35
0000
0000
0000
3000
0000
0000
1001
0000
,  // measure 36
0000
1010
0000
0000
0202
0000
0000
0303
,  // measure 37
0001
0100
0001
0100
0000
0010
0100
0000
,  // measure 38
1001
0000
0000
1010
0000
0000
0110
0000
0000
0000
0001
0000
0010
0000
0200
0000
,  // measure 39
0000
0000
0300
0110
,  // measure 40
0000
0011
0000
0000
2020
0000
0000
3030
,  // measure 41
1000
0010
1000
0010
0000
0010
0001
0000
,  // measure 42
0101
0000
0000
0110
0000
0000
1010
0000
0220
0000
0000
0000
0000
0000
0000
0000
,  // measure 43
0000
0000
0330
1001
,  // measure 44
0000
1100
0000
0000
0220
0000
0000
0330
,  // measure 45
0100
0000
0010
0000
0100
0000
0010
0000
0100
0000
0000
0100
0000
0000
0010
0000
,  // measure 46
0100
0000
0000
0000
0000
0000
0000
0000
1000
0000
0000
0001
0000
0000
1000
0000
,  // measure 47
2020
0000
0000
0000
3030
0001
0000
0000
,  // measure 48
0001
0000
0100
0000
0001
0000
0100
0000
0001
0000
1000
0000
,  // measure 49
0010
0000
0000
0000
0100
0000
0000
0000
1000
0000
0000
0000
0001
0000
0000
1001
0000
0000
0000
0000
0000
0001
0000
0000
,  // measure 50
0011
0000
1000
1010
0000
0010
1010
0000
,  // measure 51
0100
2002
0000
0000
,  // measure 52
0000
3000
0000
0013
,  // measure 53
0100
0000
1000
0001
0000
1000
0010
1000
,  // measure 54
0010
0000
0000
0100
0000
0001
0100
0001
,  // measure 55
0100
0000
0000
0010
0100
0001
0100
1000
,  // measure 56
0010
0100
1000
0001
0010
0100
0001
1000
,  // measure 57
0002
0000
0000
0003
0000
0000
1000
0010
,  // measure 58
1000
0010
0100
0001
0100
0001
0100
0010
,  // measure 59
0200
0000
0000
0301
0000
0001
1000
0001
,  // measure 60
0000
0010
0010
0220
0000
0000
0000
0000
,  // measure 61
0330
0000
0000
1000
0010
1000
0010
1000
,  // measure 62
0010
0000
0000
0100
0000
0001
0100
0001
,  // measure 63
0100
0000
0000
0001
0000
0010
0100
1000
,  // measure 64
1001
0000
0000
1010
0000
0000
0110
0000
0101
0000
0000
0000
0001
0000
0101
0000
,  // measure 65
0000
1000
0010
2000
0000
3100
0010
0002
,  // measure 66
0000
0000
0103
2000
0000
0000
3020
0000
,  // measure 67
0230
0000
0301
0002
0000
1003
0002
0000
,  // measure 68
0100
0010
1000
0010
,  // measure 69
0103
1000
0010
1000
0100
0010
0001
0010
,  // measure 70
1000
0001
0100
0010
0001
0010
1000
0100
,  // measure 71
0001
0010
0100
0010
1010
1010
0000
0110
,  // measure 72
0110
0000
0101
0101
0000
0000
0000
0000
;

//---------------dance-single - ----------------
#NOTES:
     dance-single:
     :
     Medium:
     1:
     0.000,0.000,0.000,0.000,0.000:
0000
0000
0000
0000
;

//---------------dance-single - ----------------
#NOTES:
     dance-single:
     :
     Easy:
     1:
     0.000,0.000,0.000,0.000,0.000:
0000
0000
0000
0000
;

//---------------dance-single - Copied from----------------
#NOTES:
     dance-single:
     Copied from:
     Beginner:
     1:
     0.000,0.000,0.000,0.000,0.000:
0000
0000
0000
0000
;
