#TITLE:I Love My People;
#SUBTITLE:;
#ARTIST:Eddy Wata;
#TITLETRANSLIT:;
#SUBTITLETRANSLIT:;
#ARTISTTRANSLIT:;
#CREDIT:;
#BANNER:I Love My People BN.png;
#BACKGROUND:I Love My People BG.png;
#LYRICSPATH:;
#CDTITLE:CDTITLE.png;
#MUSIC:I Love My People.ogg;
#OFFSET:0.480;
#SAMPLESTART:82.320;
#SAMPLELENGTH:12.000;
#SELECTABLE:YES;
#BPMS:0.000=130.000;
#STOPS:;
#BGCHANGES:1.083=I Love My People.avi=1.000=1=1=0,
99999=-nosongbg-=1.000=0=0=0 // don't automatically add -songbackground-
;

//---------------dance-single - ----------------
#NOTES:
     dance-single:
     :
     Hard:
     12:
     0.579,0.535,0.430,0.167,0.191: // measure 1
0000
0000
0000
0000
,  // measure 2
0000
0000
0000
0000
,  // measure 3
0000
0000
0000
0000
,  // measure 4
0000
0000
0000
0000
,  // measure 5
0000
0100
0010
1000
,  // measure 6
0001
0010
1000
0100
,  // measure 7
0010
0001
0010
1000
,  // measure 8
0001
0000
0100
0000
0010
0000
0010
1000
,  // measure 9
0010
0000
0100
0000
0101
0000
0000
0000
0110
0000
0000
0000
1001
0000
0000
1010
,  // measure 10
0000
1001
1000
0001
0100
0001
1000
0100
,  // measure 11
0010
0100
1000
0000
1001
0000
1000
0000
,  // measure 12
0001
0010
0100
0000
1000
0100
0010
0000
,  // measure 13
0010
0000
0100
0000
1000
0000
0000
0000
1000
0000
0000
0000
1000
0000
0000
0010
,  // measure 14
0000
0000
1010
0000
0100
0000
1000
0010
1000
0000
0100
0000
0001
0000
0001
0100
,  // measure 15
0001
0000
0010
0000
0100
0000
0010
0000
1000
0000
0000
0000
0010
0000
0000
0100
,  // measure 16
0000
0000
0010
0000
1000
0000
0001
0100
0001
0000
0010
0000
1000
0000
1000
0010
,  // measure 17
1000
0000
0100
0000
0001
0000
0010
0000
1000
0000
0000
0000
0001
0000
0000
1000
,  // measure 18
0000
0000
0001
0000
0000
0000
0100
0010
0100
0000
0001
0000
1000
0000
0100
0001
,  // measure 19
0100
0000
0001
0000
0100
0000
0010
0000
0100
0000
0000
0000
0010
0000
0000
0001
,  // measure 20
0000
0000
1000
0000
0000
0000
0001
1000
0001
0000
0100
0000
0001
0000
0001
0100
,  // measure 21
0001
0000
0010
0000
1000
0000
0100
0000
0100
0000
0000
0000
0010
0000
0000
0001
,  // measure 22
0000
0000
1000
0000
0000
0000
1000
0001
1000
0000
1000
0000
0001
0000
0100
0010
,  // measure 23
0001
0010
1000
0001
0100
0001
1000
0010
,  // measure 24
1000
0000
0001
0000
0100
0000
0001
0100
1000
0000
0001
0000
0100
0000
0001
0010
,  // measure 25
1000
0001
0100
0010
0001
1000
0010
0100
,  // measure 26
0010
0000
0001
0000
0010
0000
0100
1000
0100
0000
0010
0000
0100
0000
0010
0001
,  // measure 27
0010
1000
0001
0001
1000
0010
0100
0001
,  // measure 28
0100
0000
0010
0000
0100
0000
1000
0010
1000
0000
0100
0001
0100
0000
0010
0100
,  // measure 29
0010
0000
1000
0000
0020
0000
0000
0000
2030
0000
0000
0000
3001
0000
0000
1000
,  // measure 30
0000
0001
0100
0010
0100
1000
0100
0001
,  // measure 31
0001
0010
0100
0010
0100
0000
0001
0010
,  // measure 32
0100
0001
0010
1000
0001
0100
0010
0100
,  // measure 33
1000
0010
0002
0000
2003
0000
3010
0100
,  // measure 34
0010
0000
0001
0000
1000
0000
0001
0000
0010
0000
0100
0000
1000
0000
0000
0001
,  // measure 35
0000
0001
0102
0000
1003
0000
0100
0010
,  // measure 36
0001
0001
0010
1000
0001
0100
0010
0000
,  // measure 37
0100
0000
0000
0000
0020
0000
0000
0000
2030
0000
0000
0000
3001
0000
0000
1010
,  // measure 38
0000
1001
1000
0010
0100
0010
0001
0010
,  // measure 39
0001
1000
0010
0100
0001
0010
0100
0001
,  // measure 40
1000
0100
0001
0010
0100
0001
1000
0100
,  // measure 41
0001
0100
0010
1000
0001
0100
0010
0100
,  // measure 42
0010
0100
0010
0000
0100
0000
0010
0000
,  // measure 43
1000
0000
0001
0000
0010
0000
0100
0010
,  // measure 44
0001
0000
0100
0000
1000
0000
0000
0000
0100
0000
0010
0000
0100
0000
0000
0010
,  // measure 45
0000
0000
0100
0000
0020
0000
0000
0030
1000
0010
1000
0010
1000
0000
0100
0000
,  // measure 46
0010
0000
0100
0000
0110
0000
0000
0000
1001
0000
0000
0000
1010
0000
0000
0110
,  // measure 47
0000
0101
0001
0010
0100
1000
0010
0100
,  // measure 48
1000
0001
0020
0000
1030
0000
1000
0000
,  // measure 49
0010
0001
2010
0000
3020
0000
0230
0310
,  // measure 50
0001
0000
1000
0000
0001
0000
0000
0000
1001
0000
0000
0000
1001
0000
0000
1010
,  // measure 51
0000
1001
0100
0001
0100
0010
1000
0010
,  // measure 52
0001
0010
2000
0000
3001
0000
1000
0000
,  // measure 53
1000
0100
0020
0000
0230
0000
0301
0001
,  // measure 54
1000
0000
0001
0000
1001
0000
0000
0000
1010
0000
0000
0000
0110
0000
0000
0101
,  // measure 55
0000
1010
0100
0010
0100
0010
1000
0100
,  // measure 56
0010
0001
0020
0000
1030
0000
0100
0000
,  // measure 57
1000
0010
0200
0000
0302
0000
1003
1000
,  // measure 58
0001
0000
0010
0000
0100
0000
0000
0000
0110
0000
0000
0000
1001
0000
0000
0110
,  // measure 59
0000
0101
1000
1000
0010
0010
0001
0001
,  // measure 60
1000
0001
0200
0000
0301
0000
0001
0000
,  // measure 61
1000
0010
0200
0000
0320
0000
1030
0001
,  // measure 62
1000
0000
0010
0000
0110
0000
0000
0000
1001
0000
0000
0000
1001
0000
0000
0101
,  // measure 63
0000
0000
0110
0000
0000
0000
0100
1000
0100
0000
0001
0000
0010
0000
0100
0010
,  // measure 64
0100
0000
0001
0000
0100
0000
0010
0000
1010
0000
0000
0000
0101
0000
0000
0110
,  // measure 65
0000
0000
1001
0000
0000
0000
1000
0010
1000
0000
0100
0000
0010
0000
0100
0010
,  // measure 66
0100
0000
0001
0000
0010
0000
0000
0000
1001
0000
0000
0000
0110
0000
0000
1001
,  // measure 67
0000
0000
0110
0000
0000
0000
1000
0100
1000
0000
0010
0000
0001
0000
0001
0100
,  // measure 68
0001
0000
0010
0000
0100
0000
1000
0000
1010
0000
0000
0000
0110
0000
0000
1001
,  // measure 69
0000
0000
1010
0000
0000
0000
0100
0010
0100
0000
0001
0000
0100
0000
1000
0010
,  // measure 70
1000
0000
0100
0000
0001
0000
0010
0000
1010
0000
0000
0000
0110
0000
0000
0101
,  // measure 71
0000
0000
1010
0000
0000
0000
0100
0001
0100
0000
0010
0000
1000
0000
0100
0010
,  // measure 72
0100
0000
0010
0000
1000
0000
0100
0000
0101
0000
0000
0000
0110
0000
0000
1010
,  // measure 73
0000
0000
0110
0000
0000
0000
0100
0010
0100
0000
0001
0000
1000
0000
0100
0010
,  // measure 74
0100
0000
1000
0000
0100
0000
0100
0000
0110
0000
0000
0000
0110
0000
0000
1001
,  // measure 75
0000
0000
1010
0000
0000
0000
0100
0001
0100
0000
0010
0000
0100
0000
1000
0010
,  // measure 76
1000
0000
0100
0000
0001
0000
0010
0000
1010
0000
0000
0000
0011
0000
0000
1010
,  // measure 77
0000
1001
0000
2000
0000
3002
2003
0000
,  // measure 78
0100
3010
0000
0000
0000
0000
0000
0000
;

//---------------dance-single - ----------------
#NOTES:
     dance-single:
     :
     Medium:
     1:
     0.000,0.000,0.000,0.000,0.000:
0000
0000
0000
0000
;

//---------------dance-single - ----------------
#NOTES:
     dance-single:
     :
     Easy:
     1:
     0.000,0.000,0.000,0.000,0.000:
0000
0000
0000
0000
;

//---------------dance-single - Copied from----------------
#NOTES:
     dance-single:
     Copied from:
     Beginner:
     1:
     0.000,0.000,0.000,0.000,0.000:
0000
0000
0000
0000
;
