#TITLE:光の悪魔;
#SUBTITLE:;
#ARTIST:εpsilonΦ;
#TITLETRANSLIT:Hikari no Akuma;
#SUBTITLETRANSLIT:;
#ARTISTTRANSLIT:;
#CREDIT:;
#BANNER:Hikari no Akuma BN.png;
#BACKGROUND:Hikari no Akuma BG.png;
#LYRICSPATH:;
#CDTITLE:CDTITLE.png;
#MUSIC:Hikari no Akuma.ogg;
#OFFSET:0.180;
#SAMPLESTART:63.600;
#SAMPLELENGTH:15.000;
#SELECTABLE:YES;
#BPMS:0.000=226.001;
#STOPS:;
#BGCHANGES:0.750=Hikari no Akuma.avi=1.000=1=1=0,
99999=-nosongbg-=1.000=0=0=0 // don't automatically add -songbackground-
;

//---------------dance-single - ----------------
#NOTES:
     dance-single:
     :
     Hard:
     14:
     0.723,0.729,0.591,0.136,0.000:
0000
0000
0000
0000
,
0000
0000
0000
0000
,
0000
0000
0000
0000
,
0000
0000
0000
0000
,
0000
0000
1010
0000
1000
0010
0000
0010
,
1000
0000
0101
0000
0001
0100
0000
0100
,
0001
0000
0110
0000
0100
0010
0000
0010
,
0100
0000
0011
0000
0010
0001
0000
0001
,
0010
0000
1010
0000
1000
0010
0000
0010
,
1000
0000
0101
0000
0100
0001
0000
0001
,
0100
0000
1001
0000
1000
0001
0000
0001
,
1000
0000
1010
0000
1000
0010
0000
0010
,
1000
0110
0100
0010
,
1000
0001
1000
0000
0001
0000
1000
0000
,
0100
0001
1000
0000
0101
0000
1000
0000
,
0010
0000
1000
0000
0001
0010
0100
0000
,
0001
0000
1010
0000
0010
1000
0000
1000
,
0010
0000
0101
0000
0100
0001
0000
0001
,
0100
0000
0110
0000
0010
0100
0000
0100
,
0010
0000
1001
0000
1000
0001
0000
0001
,
1000
0010
0001
1000
,
0100
0010
0001
0000
0001
0000
1000
0000
,
0010
0100
1000
0000
1001
0000
0000
0000
,
1000
0000
0010
0000
1000
0100
0001
0000
,
0001
0000
1001
0000
0001
1000
0000
1000
,
0001
0000
1010
0000
1000
0010
0000
0010
,
1000
0000
1000
0010
1000
0010
1000
0010
,
1000
0010
1000
0010
1000
0010
1001
0000
,
0001
0000
1001
0010
0100
0010
1000
0000
,
1010
0000
0010
0001
0010
0100
0001
0000
,
0101
0000
0010
0100
0010
0100
0001
0000
,
0101
0000
1000
0001
1000
0001
1000
0000
,
1001
0000
0100
0010
0100
0001
0100
0000
,
0101
0000
1000
0010
0100
0001
0100
0000
,
1100
0000
0100
0001
0100
0010
1000
0000
,
1010
0000
0100
0010
0100
0001
0100
0000
,
0101
0110
1000
0010
,
1000
0010
0001
0000
0100
0000
0001
0000
,
0001
0100
1000
0000
0110
0000
0001
0000
,
1000
0000
0001
0000
0100
0010
1000
0000
,
0010
0000
1001
0000
1000
0010
0000
0010
,
1000
0000
0101
0000
0100
0001
0000
0001
,
0100
0000
1010
0000
1000
0010
0000
0010
,
1000
0000
0110
0000
0100
0010
0000
0010
,
0100
0000
0110
0000
1000
0010
1000
0010
,
1000
0100
0001
0100
0001
0010
1000
0001
,
0100
0010
0001
0010
1000
0000
1001
0000
,
0100
0001
0100
0010
0001
0010
0100
1000
,
0100
0001
0010
0100
0001
0000
0010
0000
,
1000
0000
0001
0100
1000
0001
0100
0010
,
0100
0001
0100
0001
1000
0100
0010
0000
,
1000
0010
1000
0001
0100
0010
1000
0001
,
0100
0000
1001
0000
1000
0001
0000
0001
,
1000
0000
0101
0000
0100
0001
0000
0001
,
0100
0000
0110
0000
0010
1000
0000
1000
,
0010
0000
1010
0000
1000
0001
0000
0001
,
1000
0000
1000
0001
1000
0000
0001
1000
,
0001
0000
1000
0001
1000
0000
0001
1000
,
0001
1000
0001
1000
0001
1000
0001
1000
,
0001
1001
0000
0110
0000
0000
0110
0000
,
1000
0010
0000
1010
0000
0000
1001
0000
,
0001
0100
0001
0000
0001
0100
1000
0000
,
0001
0100
0001
0000
0101
0000
0010
0000
,
0001
0100
1000
0000
1010
0000
0110
0000
,
0100
0010
0100
0000
0110
0000
0001
0000
,
1000
0010
0001
0000
0100
0000
1001
0000
,
0000
1001
0000
0000
1010
0000
0010
0000
,
0100
0101
0000
0101
,
0000
1001
0000
0000
1000
0000
1001
0000
,
0100
0001
0000
0001
0100
0000
0100
0000
,
1000
0010
0001
0000
1010
0000
0001
0000
,
0100
1000
0010
1000
,
1000
0001
0100
0000
1000
0000
0010
0000
,
0001
0100
0001
0000
0100
0000
0001
0000
,
1000
0001
0100
0000
1001
0000
0100
0000
,
0001
2001
0010
3002
,
0100
2003
0000
0000
,
0010
0000
0010
0000
0000
0010
0000
0000
,
3020
1000
0000
0230
,
1000
0302
0100
2003
,
0010
3200
0000
0000
,
0010
0000
0010
0000
0000
0010
0000
0000
,
0010
0000
0000
0000
0310
0000
0100
0010
,
0100
0010
2000
0000
0001
0000
3200
0000
,
0001
0320
0000
0000
,
0100
0000
0100
0000
0000
0100
0000
0000
,
0100
0000
0130
0000
,
2000
0010
3200
0001
,
0320
2030
0000
0000
,
0001
0000
0001
0000
0000
0001
0000
0000
,
0000
0000
3001
0000
,
1000
0001
1000
0010
,
0100
0000
0001
0010
0100
0010
0001
0000
,
0101
0000
1000
0100
0010
0100
1000
0000
,
1010
0000
0100
0010
0001
0010
0100
0000
,
0101
0000
1000
0000
0010
0100
1000
0100
,
0001
0000
1000
0100
0010
0100
1000
0000
,
1010
0000
0100
0010
0001
0010
0100
0000
,
0101
0000
1000
0100
0010
0100
1000
0000
,
1010
0000
0010
0000
1000
0001
1000
0001
,
1000
0001
1001
0000
0000
0000
0000
0000
;

//---------------dance-single - ----------------
#NOTES:
     dance-single:
     :
     Beginner:
     4:
     0.279,0.319,0.055,0.018,0.000: // measure 1
0000
0000
0000
0000
,  // measure 2
0000
0000
0000
0000
,  // measure 3
0000
0000
0000
0000
,  // measure 4
0000
0000
0000
0000
,  // measure 5
0000
0100
0000
0100
,  // measure 6
0000
0010
0000
0010
,  // measure 7
0000
1000
0000
1000
,  // measure 8
0000
0001
0000
0001
,  // measure 9
0000
1000
0000
1000
,  // measure 10
0000
0001
0000
0001
,  // measure 11
0000
1000
0000
1000
,  // measure 12
0000
0001
0000
0001
,  // measure 13
0000
0000
1000
0000
,  // measure 14
1000
0000
0001
0000
,  // measure 15
0001
0000
1000
0000
,  // measure 16
1000
0000
0010
0000
,  // measure 17
0001
1000
0000
1000
,  // measure 18
0000
0010
0000
0010
,  // measure 19
0000
0001
0000
0001
,  // measure 20
0000
1000
0000
1000
,  // measure 21
0000
0001
0000
0001
,  // measure 22
0000
1000
0000
1000
,  // measure 23
0000
0010
0000
0010
,  // measure 24
0000
0100
0000
0100
,  // measure 25
0000
0010
0000
0010
,  // measure 26
0000
1000
0000
1000
,  // measure 27
0000
0001
0000
0001
,  // measure 28
0000
1000
0000
1000
,  // measure 29
0000
0100
0000
0100
,  // measure 30
0100
0010
0000
0010
,  // measure 31
0010
0100
0000
0100
,  // measure 32
0100
0010
0000
0010
,  // measure 33
0010
1000
0000
1000
,  // measure 34
1000
0001
0000
0001
,  // measure 35
0001
1000
0000
1000
,  // measure 36
1000
0001
0000
0001
,  // measure 37
0001
1000
0010
0000
,  // measure 38
0010
0000
1000
0000
,  // measure 39
1000
0000
0001
0000
,  // measure 40
0001
0000
1000
0000
,  // measure 41
1000
0010
0000
0110
,  // measure 42
0000
0100
0000
0110
,  // measure 43
0000
0010
0000
0110
,  // measure 44
0000
0100
0000
0110
,  // measure 45
0000
0001
0000
0001
,  // measure 46
0000
0001
0000
1000
,  // measure 47
0000
1000
0000
0010
,  // measure 48
0000
0010
0000
0100
,  // measure 49
0000
0100
0000
0001
,  // measure 50
0000
0001
0000
1000
,  // measure 51
0000
1000
0000
0001
,  // measure 52
0000
0001
1000
0000
,  // measure 53
1000
0001
1000
0000
,  // measure 54
1000
0000
1000
0000
,  // measure 55
1000
0000
1000
0000
,  // measure 56
1000
0000
1000
0000
,  // measure 57
1000
0000
0001
0000
,  // measure 58
0001
0000
0001
0000
,  // measure 59
0001
0000
0001
0000
,  // measure 60
2002
0000
0000
3003
,  // measure 61
1000
0000
1000
0000
,  // measure 62
0001
0000
0001
0000
,  // measure 63
0100
0000
0100
0000
,  // measure 64
0010
0000
0010
0000
,  // measure 65
1000
0000
1000
0000
,  // measure 66
0001
0000
0001
0000
,  // measure 67
0100
0000
0100
0000
,  // measure 68
0010
0000
0010
0000
,  // measure 69
0010
0000
0100
0000
,  // measure 70
0100
0000
0001
0000
,  // measure 71
0001
0000
1000
0000
,  // measure 72
1000
0000
0001
0000
,  // measure 73
0001
0000
0100
0000
,  // measure 74
0100
0000
0010
0000
,  // measure 75
0010
0000
1000
0000
,  // measure 76
1000
0000
0001
0000
,  // measure 77
0001
1001
0000
0000
,  // measure 78
0000
1000
0000
0000
,  // measure 79
1000
0000
1000
0000
,  // measure 80
0000
0001
0000
0001
,  // measure 81
0000
0001
0000
0000
,  // measure 82
1000
0000
1000
0000
,  // measure 83
1000
0000
1000
0000
,  // measure 84
0000
0001
0000
0001
,  // measure 85
0000
0001
0000
0000
,  // measure 86
0100
0000
0100
0000
,  // measure 87
0100
0000
0100
0000
,  // measure 88
0000
0010
0000
0010
,  // measure 89
0000
0010
0000
0000
,  // measure 90
0100
0000
0100
0000
,  // measure 91
0100
0000
0010
0000
,  // measure 92
0010
0000
0010
0000
,  // measure 93
0010
0100
0000
0100
,  // measure 94
0100
1000
0000
1000
,  // measure 95
1000
0001
0000
0001
,  // measure 96
0001
0100
0000
0100
,  // measure 97
0100
0010
0000
0010
,  // measure 98
0010
1000
0000
1000
,  // measure 99
1000
0001
0000
0001
,  // measure 100
0001
0100
0000
0100
,  // measure 101
0100
0100
0000
0000
;

//---------------dance-single - ----------------
#NOTES:
     dance-single:
     :
     Easy:
     8:
     0.408,0.410,0.136,0.109,0.000:
0000
0000
0000
0000
,
0000
0000
0000
0000
,
0000
0000
0000
0000
,
0000
0000
0000
0000
,
0000
0000
0100
0000
0000
0100
0000
0000
,
0010
0000
0010
0000
0000
0100
0000
0000
,
0100
0000
0100
0000
0000
0010
0000
0000
,
0010
0000
0010
0000
0000
0100
0000
0000
,
0100
0000
0100
0000
0000
1000
0000
0000
,
1000
0000
1000
0000
0000
0001
0000
0000
,
0001
0000
0001
0000
0000
1000
0000
0000
,
1000
0000
1000
0000
0000
0001
0000
0000
,
0001
0001
0100
0010
,
0100
0000
0010
0100
,
0010
0000
1000
0001
,
1000
0001
1000
0001
,
0000
0000
0001
0000
0000
0001
0000
0000
,
1000
0000
1000
0000
0000
0001
0000
0000
,
0001
0000
0001
0000
0000
1000
0000
0000
,
1000
0000
1000
0000
0000
0001
0000
0000
,
0001
0001
1000
0010
,
1000
0000
0100
0001
,
0100
0000
0001
1000
,
0001
1000
0001
1000
,
0001
0000
1000
0000
0000
1000
0000
0000
,
1000
0000
1000
0000
0000
0010
0000
0000
,
0010
0000
0010
0000
0000
1000
0000
0000
,
1000
1000
1000
1000
,
1000
0000
1001
0000
0000
0001
0000
0000
,
0001
0000
0001
0000
0000
1000
0000
0000
,
1000
0000
1000
0000
0000
0001
0000
0000
,
0001
0000
0001
0000
0000
1000
0000
0000
,
1000
0000
1000
0000
0000
0001
0000
0000
,
0001
0000
0001
0000
0000
1000
0000
0000
,
1000
0000
1000
0000
0000
0001
0000
0000
,
0001
0000
0001
0000
0000
1000
0000
0000
,
1000
1000
0001
1000
,
0001
0000
0100
0001
,
0100
0000
0010
1000
,
0010
0000
0100
0010
,
0100
0000
0010
0000
0000
0010
0000
0000
,
0010
0000
0010
0000
0000
0100
0000
0000
,
0100
0000
0100
0000
0000
0010
0000
0000
,
0010
0000
0010
0000
0000
0100
0000
0000
,
0100
0100
0001
1000
,
0001
0000
0100
0001
,
0100
0000
0010
1000
,
0010
0000
0100
0010
,
0100
0000
0001
0100
,
0001
0000
0010
1000
,
0010
0000
0100
0010
,
0100
0010
0100
0010
,
0100
0000
0010
0000
0000
0010
0000
0000
,
0010
0000
0010
0000
0000
0100
0000
0000
,
0100
0000
0100
0000
0000
0010
0000
0000
,
0010
0000
0010
0000
0000
0100
0000
0000
,
0100
0000
0100
0000
0000
0010
0000
0000
,
0010
0000
0010
0000
0000
0100
0000
0000
,
0100
0000
0100
0000
0000
0010
0000
0000
,
0220
0000
0000
0330
,
0001
0010
0001
0010
,
0000
1000
0010
1000
,
0010
0000
0100
0010
,
0100
0010
0001
0010
,
0100
1000
1010
0000
,
0100
0010
0001
0010
,
0100
1000
0010
0000
,
0001
0100
1000
0100
,
0001
1000
0100
0010
,
0001
0000
0001
0010
,
0100
1000
0010
0000
,
0100
0001
1000
0100
,
0001
0010
0100
0000
,
1000
0010
0001
0010
,
1000
0010
0001
1000
,
0001
0110
0000
0110
,
0000
0220
0000
0330
,
0100
0000
0100
0000
0000
0010
0000
0000
,
0200
0000
0000
0300
,
0001
1001
0000
1001
,
0000
2002
0000
3003
,
1000
0000
1000
0000
0000
0010
0000
0000
,
1000
0000
0010
0000
,
0000
1010
0000
1010
,
0000
2020
0000
3030
,
0100
0000
0100
0000
0000
0001
0000
0000
,
0100
0000
0001
0000
,
0100
0101
0000
0101
,
0000
0202
0000
0303
,
0100
0000
0100
0000
0000
2000
0000
0000
,
0000
0000
0000
3001
0000
0000
0000
0000
,
0001
0001
0000
1000
,
1000
0000
0001
0000
0000
1000
0000
0000
,
0001
0000
0001
0000
0000
0100
0000
0000
,
0010
0000
0010
0000
0000
0100
0000
0000
,
1000
0000
1000
0000
0000
0001
0000
0000
,
0100
0000
0100
0000
0000
0100
0000
0000
,
0010
0000
0010
0000
0000
1000
0000
0000
,
0001
0000
0001
0000
0000
0100
0000
0000
,
0001
0000
0001
0000
0000
1000
0000
0000
,
0010
0010
0000
0000
;

//---------------dance-single - Copied from----------------
#NOTES:
     dance-single:
     Copied from:
     Medium:
     11:
     0.490,0.591,0.473,0.155,0.000:
0000
0000
0000
0000
,
0000
0000
0000
0000
,
0000
0000
0000
0000
,
0000
0000
0000
0000
,
0000
0000
0100
0000
0000
0110
0000
0000
,
0001
0000
0001
0000
0000
1001
0000
0000
,
1000
0000
1000
0000
0000
1010
0000
0000
,
0100
0000
0100
0000
0000
0110
0000
0000
,
0001
0000
0001
0000
0000
1001
0000
0000
,
0010
0000
0010
0000
0000
0110
0000
0000
,
1000
0000
1000
0000
0000
1001
0000
0000
,
0001
0000
0001
0000
0000
0101
0000
0000
,
0001
0001
1000
0010
,
1000
0010
1000
0010
,
1000
0010
1000
0010
,
0000
0100
0001
0100
,
0001
0000
0100
0000
0000
0101
0000
0000
,
0001
0000
0001
0000
0000
1001
0000
0000
,
1000
0000
1000
0000
0000
1010
0000
0000
,
0010
0000
0010
0000
0000
0110
0000
0000
,
0001
0001
1000
0010
,
1000
0100
0001
0100
,
0010
1000
1001
0000
,
0100
0010
0100
0001
,
0100
0000
1000
0000
0000
1010
0000
0000
,
0001
0000
0001
0000
0000
0101
0000
0000
,
0100
0000
0100
0000
0000
0110
0000
0000
,
1000
0010
1000
0010
,
0100
0000
0001
0000
0000
1001
0000
0000
,
0001
0000
0001
0000
0000
0101
0000
0000
,
0010
0000
0010
0000
0000
1010
0000
0000
,
0100
0000
0100
0000
0000
0101
0000
0000
,
0001
0000
0001
0000
0000
0101
0000
0000
,
0100
0000
0100
0000
0000
0110
0000
0000
,
1000
0000
1000
0000
0000
1001
0000
0000
,
0001
0000
0001
0000
0000
1001
0000
0000
,
1001
0000
1000
0010
,
1000
0000
0100
0010
,
0100
0010
0001
0100
,
0001
0100
1000
0001
,
1000
0000
1000
0000
0000
1001
0000
0000
,
0001
0000
0001
0000
0000
0101
0000
0000
,
0100
0000
0100
0000
0000
0110
0000
0000
,
0010
0000
0010
0000
0000
0110
0000
0000
,
1001
0001
1000
0010
,
0001
0010
1000
0001
,
1000
0001
0100
0001
,
0010
1000
0010
1000
,
0001
1000
0001
0100
,
0001
0100
0001
1000
,
0001
1000
0001
0100
,
0001
1000
0001
1000
,
0010
0000
0001
0000
0000
1001
0000
0000
,
1000
0000
1000
0000
0000
1010
0000
0000
,
0010
0000
0010
0000
0000
0110
0000
0000
,
0001
0000
0001
0000
0000
1001
0000
0000
,
0100
0000
0100
0000
0010
0100
0010
0000
,
1000
0001
1000
0000
1000
0100
1000
0000
,
0100
0001
0100
0000
0010
0001
0010
0000
,
1001
2002
0000
3003
,
1000
0001
1000
0001
,
0000
0100
0010
0001
,
0010
0100
1000
0100
,
0010
0001
1000
0001
,
0100
0010
0100
0010
,
1000
0001
0100
0010
,
1000
0001
0100
0010
,
1000
0001
0100
0010
,
0000
1010
0000
0000
0001
0000
0001
0000
,
0000
1001
0000
0000
1000
0000
1000
0000
,
0000
1010
0000
0000
0101
0000
0100
0000
,
0001
1000
0010
1000
,
0001
0100
0001
0000
,
0100
0010
0100
0010
,
1000
0001
1000
0010
,
0100
2000
0000
0002
,
3003
2001
0000
0000
,
0100
0000
0001
0000
0000
0001
0000
0000
,
3020
0000
0000
0030
,
1000
0020
0000
0230
,
0000
0302
0000
0000
,
1003
0000
2000
0000
0000
3010
0000
0000
,
0100
0000
0100
0000
,
0000
1001
0000
1001
,
0000
0002
0000
0000
,
1000
0000
1000
0000
0000
0203
0000
0000
,
0302
0000
1003
0000
,
1000
0002
0000
2003
,
0000
3002
0000
0000
,
1000
0000
1000
0000
0000
0203
0000
0000
,
0000
0000
0310
0000
,
0100
0010
0100
0010
,
0100
0000
1000
0000
0000
1010
0000
0000
,
0001
0000
0001
0000
0000
0101
0000
0000
,
0100
0000
0100
0000
0000
0110
0000
0000
,
0010
0000
0010
0000
0000
1010
0000
0000
,
1000
0000
1000
0000
0000
1001
0000
0000
,
0001
0000
0001
0000
0000
1001
0000
0000
,
0100
0000
0100
0000
0000
0101
0000
0000
,
0001
0000
0001
0000
0000
1001
0000
0000
,
1001
0000
0000
0000
;

//---------------dance-single - Copied from----------------
#NOTES:
     dance-single:
     Copied from:
     Challenge:
     14:
     0.721,0.729,0.591,0.136,0.000:
0000
0000
0000
0000
,
0000
0000
0000
0000
,
0000
0000
0000
0000
,
0000
0000
0000
0000
,
0000
0000
1010
0000
1000
0010
0000
0010
,
1000
MMMM
0101
0000
0001
0100
0000
0100
,
0001
MMMM
0110
0000
0100
0010
0000
0010
,
0100
MMMM
0011
0000
0010
0001
0000
0001
,
0010
MMMM
1010
0000
1000
0010
0000
0010
,
1000
MMMM
0101
0000
0100
0001
0000
0001
,
0100
MMMM
1001
0000
1000
0001
0000
0001
,
1000
MMMM
1010
0000
1000
0010
0000
0010
,
1000
MMMM
0110
0000
0100
0000
0010
0000
,
1000
0001
1000
0000
0001
0000
1000
0000
,
0100
0001
1000
0000
0101
0000
1000
0000
,
0010
0000
1000
0000
0001
0010
0100
0000
,
0001
0000
1010
0000
0010
1000
0000
1000
,
0010
MMMM
0101
0000
0100
0001
0000
0001
,
0100
MMMM
0110
0000
0010
0100
0000
0100
,
0010
MMMM
1001
0000
1000
0001
0000
0001
,
1000
MMMM
0010
0000
0001
0000
1000
0000
,
0100
0010
0001
0000
0001
MMMM
1000
0000
,
0010
0100
1000
0000
1001
0000
MMMM
0000
,
1000
0000
0010
0000
1000
0100
0001
0000
,
0001
MMMM
1001
0000
0001
1000
0000
1000
,
0001
MMMM
1010
0000
1000
0010
0000
0010
,
1000
MMMM
1000
0010
1000
0010
1000
0010
,
1000
0010
1000
0010
1000
0010
1001
0000
,
0001
0000
1001
0010
0100
0010
1000
0000
,
1010
MMMM
0010
0001
0010
0100
0001
0000
,
0101
MMMM
0010
0100
0010
0100
0001
0000
,
0101
MMMM
1000
0001
1000
0001
1000
0000
,
1001
MMMM
0100
0010
0100
0001
0100
0000
,
0101
MMMM
1000
0010
0100
0001
0100
0000
,
1100
MMMM
0100
0001
0100
0010
1000
0000
,
1010
MMMM
0100
0010
0100
0001
0100
0000
,
0101
MMMM
0110
0000
1000
0000
0010
0000
,
1000
0010
0001
0000
0100
0000
0001
0000
,
0001
0100
1000
0000
0110
0000
0001
0000
,
1000
0000
0001
0000
0100
0010
1000
0000
,
0010
0000
1001
MMMM
1000
0010
0000
0010
,
1000
0000
0101
MMMM
0100
0001
0000
0001
,
0100
0000
1010
MMMM
1000
0010
0000
0010
,
1000
0000
0110
MMMM
0100
0010
0000
0010
,
0100
MMMM
0110
0000
1000
0010
1000
0010
,
1000
0100
0001
0100
0001
0010
1000
0001
,
0100
0010
0001
0010
1000
0000
1001
MMMM
,
0100
0001
0100
0010
0001
0010
0100
1000
,
0100
0001
0010
0100
0001
0000
0001
0000
,
1000
MMMM
0001
0100
1000
0001
0100
0010
,
0100
0001
0100
0001
1000
0100
0010
0000
,
1000
0010
1000
0001
0100
0010
1000
0001
,
0100
0000
1001
MMMM
1000
0001
0000
0001
,
1000
0000
0101
MMMM
0100
0001
0000
0001
,
0100
0000
0110
MMMM
0010
1000
0000
1000
,
0010
0000
1010
MMMM
1000
0001
0000
0001
,
1000
0000
1000
0001
1000
MMMM
0001
1000
,
0001
MMMM
1000
0001
1000
MMMM
0001
1000
,
0001
1000
0001
1000
0001
1000
0001
1000
,
0001
1001
0000
0110
0000
0000
0110
0000
,
1000
0010
0000
1010
0000
0000
1001
0000
,
0001
0100
0001
0000
0001
0100
1000
MMMM
,
0001
0100
0001
0000
0101
0000
MMMM
0000
,
0001
0100
1000
0000
1010
0000
0110
0000
,
0100
0010
0100
0000
0110
0000
MMMM
0000
,
1000
0010
0001
MMMM
0100
0000
1001
0000
,
0000
1001
0000
0000
1010
0000
0010
0000
,
0100
0101
MMMM
0101
,
0000
1001
0000
0000
1000
0000
1001
MMMM
,
0100
0001
0000
0001
0100
MMMM
0100
0000
,
1000
0010
0001
MMMM
1010
0000
0001
0000
,
0100
0000
1000
0000
0010
MMMM
1000
0000
,
1000
0001
0100
0000
1000
0000
0010
MMMM
,
0001
0100
0001
0000
0100
0000
0001
0000
,
1000
0001
0100
0000
1001
0000
0100
0000
,
0001
2001
0010
3002
,
0100
2003
0000
0000
,
0010
0000
0010
0000
0000
0010
0000
0000
,
3020
1000
0000
0230
,
1000
0302
0100
2003
,
0010
3200
0000
0000
,
0010
0000
0010
0000
0000
0010
0000
0000
,
0010
0000
0000
0000
0310
0000
0100
0010
,
0100
0010
2000
0000
0001
0000
3200
0000
,
0001
0320
0000
0000
,
0100
0000
0100
0000
0000
0100
0000
0000
,
0100
0000
0130
MMMM
,
2000
0010
3200
0001
,
0320
2030
0000
0000
,
0001
0000
0001
0000
0000
0001
0000
0000
,
0000
0000
3001
0000
,
1000
0001
1000
0010
,
0100
0000
0001
0010
0100
0010
0001
0000
,
0101
MMMM
1000
0100
0010
0100
1000
0000
,
1010
MMMM
0100
0010
0001
0010
0100
0000
,
0101
MMMM
1000
0000
0010
0100
1000
0100
,
0001
MMMM
1000
0100
0010
0100
1000
0000
,
1010
MMMM
0100
0010
0001
0010
0100
0000
,
0101
MMMM
1000
0100
0010
0100
1000
0000
,
1010
MMMM
0010
0000
1000
0001
1000
0001
,
1000
0001
1001
0000
0000
0000
0000
0000
;
