#TITLE:Heat Up The Dancefloor;
#SUBTITLE:;
#ARTIST:BEMANI Sound Team "Sota F.";
#TITLETRANSLIT:;
#SUBTITLETRANSLIT:;
#ARTISTTRANSLIT:;
#CREDIT:;
#BANNER:Heat Up The Dancefloor BN.png;
#BACKGROUND:Heat Up The Dancefloor BG.png;
#LYRICSPATH:;
#CDTITLE:CDTITLE.png;
#MUSIC:Heat Up The Dancefloor.ogg;
#OFFSET:0.460;
#SAMPLESTART:24.400;
#SAMPLELENGTH:15.000;
#SELECTABLE:YES;
#BPMS:0.000=132.000;
#STOPS:;
#BGCHANGES:;

//---------------dance-single - ----------------
#NOTES:
     dance-single:
     :
     Hard:
     13:
     0.675,0.662,0.391,0.045,0.646: // measure 1
0000
0000
0000
0000
,  // measure 2
0000
0000
0000
0000
,  // measure 3
0000
0000
0000
0000
,  // measure 4
0000
0000
0000
0000
,  // measure 5
0000
0000
0000
0000
,  // measure 6
0000
0000
0000
0000
0000
0000
0000
0000
0000
0000
0000
0000
1000
0000
0010
1000
,  // measure 7
0010
0000
0100
0000
0001
0000
0100
0001
0100
0000
0010
0000
1000
0000
0001
0000
,  // measure 8
0100
0000
0010
0000
1000
0000
0100
0000
0001
0000
0010
0000
1000
0000
0001
1000
,  // measure 9
0001
0000
0100
0000
0010
0000
1000
0010
1000
0000
0100
0000
0001
0000
0100
0000
,  // measure 10
1000
0000
0001
0000
1000
0010
1000
0010
1000
0000
0000
0000
0110
0000
0000
0000
,  // measure 11
0100
0010
0100
0010
0000
0000
0100
0001
0100
0001
0000
0000
,  // measure 12
1000
0000
0010
0000
0100
0000
1000
0000
0010
0000
0100
0010
0001
0000
0000
0000
,  // measure 13
1000
0000
0000
0000
0100
0000
0000
0000
1000
0000
0000
0000
0100
0000
0000
0000
0000
0000
0000
0000
0000
0000
0000
0000
0001
0000
0000
0000
0100
0000
0000
0000
0001
0000
0000
0000
1000
0000
0000
0010
0000
0000
1000
0000
0000
0000
0000
0000
,  // measure 14
0100
0001
0100
0000
0100
0010
0100
0010
0100
0000
0000
0000
1001
0000
0000
0000
,  // measure 15
1000
0000
0001
0000
0100
0001
0000
0010
0000
1000
0010
0000
1010
0000
0000
0000
,  // measure 16
0010
0000
1000
0000
0100
0010
0000
0001
0000
0100
0010
0000
0110
0000
0000
1000
,  // measure 17
0000
0000
1001
0000
0100
0001
0000
0010
0000
0000
1000
0000
0010
0000
0100
0001
,  // measure 18
0000
0000
0001
0000
0010
0000
1000
0100
1000
0000
0010
0000
0110
0000
0000
0000
,  // measure 19
1001
0000
0000
0000
1000
0010
0000
1000
0000
0010
1000
0000
1010
0000
0000
0100
,  // measure 20
0000
0000
0001
0000
0001
1000
0000
0010
0000
0100
0001
0000
0101
0000
0000
0001
,  // measure 21
0000
0000
1000
0000
0100
0010
0000
0110
0000
0000
0001
0000
0010
0000
0000
1000
,  // measure 22
0000
0000
0010
0000
0100
0001
0100
0001
0100
0000
0000
0000
1000
0000
0010
0000
,  // measure 23
0100
0000
0001
0000
1000
0010
0000
1010
0000
0000
1000
0000
0001
0000
0010
0000
,  // measure 24
0100
0000
1000
0000
0010
0001
0000
0011
0000
0000
0100
0000
0010
0000
1000
0000
,  // measure 25
0001
0000
0100
0000
0010
0100
0000
0110
0000
0000
1000
0000
0010
0000
0100
0000
,  // measure 26
0001
0000
1000
0000
0001
1000
0000
1001
0000
0000
0010
0000
1000
0000
0010
0000
,  // measure 27
0100
0000
0001
0000
0010
0100
0000
0110
0000
0000
0010
0000
1000
0000
0001
0000
,  // measure 28
0100
0000
0010
0000
1000
0010
0000
1010
0000
0000
0100
0000
0001
0000
0010
0000
,  // measure 29
1000
0000
0001
0000
0100
0010
0000
0110
0000
0000
0100
0000
0001
0000
0010
0000
,  // measure 30
1000
0000
0001
0000
0010
0100
0000
0110
0000
0000
0000
0000
1000
0000
0010
0000
,  // measure 31
0100
0000
0001
0000
0100
0000
0010
0000
0100
0000
0010
0000
1001
0000
1000
0010
,  // measure 32
0000
0010
1000
0000
1000
0001
0000
0001
1000
0000
1000
0010
0000
0000
1000
0000
,  // measure 33
0000
0000
0001
0000
0100
0000
0010
0000
1000
0000
0001
0000
0100
0000
0000
0101
,  // measure 34
0000
1001
1001
0000
1010
0000
0210
0000
,  // measure 35
0301
0000
0000
0000
0001
0000
1000
0000
0010
0000
0100
0000
0001
0000
1000
0010
,  // measure 36
0000
0010
1000
0000
0010
0000
0001
0000
0100
0000
0001
0000
1000
0000
1001
0000
,  // measure 37
0000
0100
0000
0000
0101
0000
0000
0001
0000
0000
1001
0000
1001
0000
0000
0110
,  // measure 38
0000
0000
1000
0000
0001
0000
0000
0000
1001
0000
0000
0000
1001
0000
1000
0010
,  // measure 39
1000
0000
0100
0010
0100
0000
0001
0100
0001
0000
0010
1000
0010
0000
0100
0001
,  // measure 40
0100
0000
0010
1000
0010
0000
0100
0001
0100
0000
1000
0010
1000
0000
0100
0010
,  // measure 41
0100
0000
0001
0100
0001
0000
0010
1000
0010
0000
0100
0010
0100
0000
0001
0100
,  // measure 42
0001
0000
1000
0010
1000
0000
0100
0001
0100
0000
0010
1000
0010
0000
0100
0001
,  // measure 43
0100
0000
0010
1000
0010
0000
0100
0010
0100
0000
0001
0100
0001
0000
0010
1000
,  // measure 44
0010
0000
0100
0001
0100
0000
0010
1000
0010
0000
0100
0010
0100
0000
0100
0010
,  // measure 45
0100
0000
0001
0100
0001
0000
1000
0010
1000
0000
0100
1000
0100
0000
0000
0000
,  // measure 46
1001
0000
0000
1010
0000
0000
1001
0000
0110
0000
0000
0000
1000
0000
0000
0010
,  // measure 47
0000
0100
0010
0000
0001
0000
1000
0000
0001
0000
1000
0000
0100
0001
0100
0000
,  // measure 48
0010
0100
0010
0000
1000
0000
0010
1000
0010
1000
0010
0000
0100
0000
0000
0101
,  // measure 49
0000
0100
0001
0100
0001
0000
0001
0000
0100
0000
0010
0000
1000
0010
1000
0010
,  // measure 50
1000
0010
1000
0010
1000
0010
1000
0010
1000
0000
0000
0000
1001
0000
1000
0000
,  // measure 51
0010
0000
0010
1000
0010
0000
0100
0000
0001
0000
0001
0100
0001
0000
0000
0000
,  // measure 52
1001
0000
0010
0000
1000
0100
0000
0100
1000
0000
0001
0000
0010
0000
0100
0000
,  // measure 53
0001
1000
0001
1000
0001
0000
1000
0010
0000
0010
1000
0000
0010
0000
0000
0000
,  // measure 54
0100
0010
0001
1000
0010
0100
2002
0000
,  // measure 55
3003
0000
0000
0000
0100
0010
0000
0110
0000
0001
0100
0000
0101
0000
0000
0000
,  // measure 56
0010
0000
1000
0000
0010
0000
0100
0010
1000
0100
0010
0100
0010
0000
0000
0010
,  // measure 57
0001
0000
0100
0000
0001
0000
0100
0010
0100
0000
0001
0100
0001
0000
0100
0000
,  // measure 58
0010
0010
0100
0010
2010
0000
3001
0000
,  // measure 59
0010
0000
0100
0000
1000
0010
0000
0010
1000
0000
0100
0000
0001
0000
0010
0000
,  // measure 60
1000
0000
0010
0000
0100
0010
0000
0010
0100
0000
0001
1000
0001
0000
0000
0010
,  // measure 61
0001
0010
0001
0010
0001
0000
1000
0000
0010
0000
0100
0010
0001
0000
1000
0010
,  // measure 62
1000
0000
0100
0001
0100
0000
0010
0000
0100
0000
0110
0000
2020
0000
0000
0000
,  // measure 63
3030
0000
0000
0000
1000
0000
0010
1000
0000
1000
0010
0000
1010
0000
0100
0000
,  // measure 64
1000
0000
0010
0000
0100
0001
0000
0001
0100
0000
0010
1000
0010
0000
0000
0000
,  // measure 65
0100
0001
0100
0000
1001
0000
0000
1010
0000
0000
0110
0000
1000
0010
0000
0010
,  // measure 66
1000
0000
1000
0010
0110
0000
0000
1001
0000
0000
0000
0000
1000
0100
1000
0100
,  // measure 67
0010
0100
0010
0100
0010
0001
0010
0001
0010
0000
0000
0000
1010
0000
0000
0000
,  // measure 68
1000
0010
1000
0010
0000
0000
0100
0010
0100
0010
0000
0000
,  // measure 69
0001
0000
0100
0000
0010
0000
0100
0000
0010
0000
0100
0010
0001
0000
0000
0000
,  // measure 70
0100
0000
0000
0000
0010
0000
0000
0000
0100
0000
0000
0000
0010
0000
0000
0000
0000
0000
0000
0000
0000
0000
0000
0000
0001
0000
0000
0000
1000
0000
0000
0000
0001
0000
0000
0000
1000
0000
0000
0001
0000
0000
1000
0000
0000
0000
0000
0000
,  // measure 71
0010
0100
0010
0000
1000
0001
1000
0001
1001
0000
0000
0000
0000
0000
0000
0000
;

//---------------dance-single - ----------------
#NOTES:
     dance-single:
     :
     Medium:
     1:
     0.000,0.000,0.000,0.000,0.000:
0000
0000
0000
0000
;

//---------------dance-single - ----------------
#NOTES:
     dance-single:
     :
     Easy:
     1:
     0.000,0.000,0.000,0.000,0.000:
0000
0000
0000
0000
;

//---------------dance-single - Copied from----------------
#NOTES:
     dance-single:
     Copied from:
     Beginner:
     1:
     0.000,0.000,0.000,0.000,0.000:
0000
0000
0000
0000
;
