#TITLE:Guru Guru DJ TURN!!;
#SUBTITLE:;
#ARTIST:Happy Around! feat. KYOKO and SAKI;
#TITLETRANSLIT:;
#SUBTITLETRANSLIT:;
#ARTISTTRANSLIT:;
#CREDIT:;
#BANNER:Guru Guru DJ TURN!!.png;
#BACKGROUND:Guru Guru DJ TURN!!-bg.png.png;
#LYRICSPATH:;
#CDTITLE:CDTITLE.png;
#MUSIC:Guru Guru DJ TURN!!.ogg;
#OFFSET:0.320;
#SAMPLESTART:65.640;
#SAMPLELENGTH:15.000;
#SELECTABLE:YES;
#BPMS:0.000=220.000,138.000=125.000,170.000=220.000;
#STOPS:;
#BGCHANGES:1.188=Guru Guru DJ TURN!!.avi=1.000=1=1=0,
99999=-nosongbg-=1.000=0=0=0 // don't automatically add -songbackground-
;

//---------------dance-single - ----------------
#NOTES:
     dance-single:
     :
     Beginner:
     3:
     0.245,0.288,0.033,0.033,0.000: // measure 1
0000
0000
0000
0000
,  // measure 2
0000
0000
0000
0000
,  // measure 3
0000
0000
0000
0000
,  // measure 4
0000
0000
0000
0000
,  // measure 5
0000
0000
0000
1000
,  // measure 6
0000
1000
0000
1000
,  // measure 7
0000
0000
0000
0001
,  // measure 8
0000
0001
0000
0001
,  // measure 9
0000
0000
0000
1000
,  // measure 10
0000
1000
0000
1000
,  // measure 11
0000
0000
0000
0001
,  // measure 12
0000
0001
0000
0001
,  // measure 13
0000
0001
0000
1000
,  // measure 14
0000
1000
0000
1000
,  // measure 15
0000
1000
0000
1000
,  // measure 16
0000
0100
0000
0100
,  // measure 17
0000
0100
0000
0010
,  // measure 18
0000
0010
0000
0010
,  // measure 19
0000
0010
0000
0001
,  // measure 20
0000
0001
0000
0001
,  // measure 21
0000
0001
0000
0100
,  // measure 22
0000
0100
0000
0100
,  // measure 23
0000
0100
0000
0100
,  // measure 24
0000
0100
0000
0010
,  // measure 25
0010
0010
0000
0001
,  // measure 26
0000
1000
0000
0001
,  // measure 27
0000
1000
0000
0001
,  // measure 28
0000
0001
0000
0001
,  // measure 29
0000
0001
0000
1001
,  // measure 30
0000
0000
0000
1001
,  // measure 31
0000
0000
0000
0001
,  // measure 32
0000
0001
0000
1000
,  // measure 33
1000
1000
1000
2000
,  // measure 34
0000
0000
0000
0000
,  // measure 35
0000
3000
0001
0001
,  // measure 36
0001
0000
1000
1000
,  // measure 37
1000
0000
0100
0100
,  // measure 38
0100
0000
0010
0010
,  // measure 39
0010
0000
0001
0001
,  // measure 40
0001
0000
1000
1000
,  // measure 41
1000
0000
0100
0100
,  // measure 42
0100
0000
0010
0010
,  // measure 43
0010
0010
0010
0000
,  // measure 44
0010
0000
0010
0000
,  // measure 45
0010
0000
0020
0000
,  // measure 46
0000
0000
0030
0000
,  // measure 47
0000
0000
1000
1000
,  // measure 48
1000
0000
0001
0001
,  // measure 49
0001
0000
1000
1000
,  // measure 50
1000
0000
0001
0001
,  // measure 51
0001
0000
1000
0000
,  // measure 52
0010
0000
1000
0000
,  // measure 53
0010
0000
1000
0000
,  // measure 54
0001
0000
1000
0000
,  // measure 55
0000
0000
1000
1000
,  // measure 56
0010
0000
0010
0000
,  // measure 57
0010
0000
0001
0001
,  // measure 58
1000
0000
1000
0000
,  // measure 59
1000
0000
0100
0100
,  // measure 60
0001
0000
0001
0000
,  // measure 61
0001
1000
1000
0010
,  // measure 62
0000
0010
0000
0010
,  // measure 63
0000
0100
1000
1000
,  // measure 64
0010
0000
0010
0000
,  // measure 65
0010
0001
0001
1000
,  // measure 66
0000
1000
0000
1000
,  // measure 67
0000
1000
0010
0000
,  // measure 68
0000
0010
0000
0000
,  // measure 69
0010
0000
0000
0020
,  // measure 70
0000
0000
0030
0000
,  // measure 71
0000
0000
0100
0000
,  // measure 72
0100
0000
0100
0000
,  // measure 73
0100
0000
0010
0000
,  // measure 74
0010
0000
0010
0000
,  // measure 75
0110
0000
0000
0000
;

//---------------dance-single - ----------------
#NOTES:
     dance-single:
     :
     Easy:
     7:
     0.363,0.412,0.200,0.067,0.000:
0000
0000
0000
0000
,
0000
0000
0000
0000
,
0000
0000
0000
0000
,
0000
0000
0000
0000
,
0000
0000
0000
0100
,
0100
0100
0000
0100
,
0000
0100
0000
0010
,
0010
0010
0000
0010
,
0000
0010
0000
0001
,
0001
0001
0000
0001
,
0000
0001
0000
1000
,
1000
1000
0000
1000
,
0000
1000
0000
0100
,
0001
0100
0000
0010
,
0100
0010
0000
1000
,
0010
1000
0000
0001
,
0100
0001
0000
1000
,
0100
0010
0000
0001
,
0010
0100
0000
1000
,
0000
0010
0000
1000
,
0000
0001
0000
0001
,
0100
0001
0000
1000
,
0001
1000
0000
1000
,
0010
1000
0000
0100
,
0010
0100
0010
0100
,
0010
0001
1000
0001
,
0001
1000
0010
1000
,
0010
1000
0010
1000
,
0010
1000
0010
1000
,
0000
1001
0000
1000
,
0000
1010
0000
0001
,
0000
0101
0000
0100
,
0100
0100
0110
0220
,
0000
0000
0000
0000
,
0000
0330
1000
1000
,
0100
0100
0010
0010
,
0001
1001
0001
0001
,
0010
0010
0100
0100
,
1000
1001
1000
1000
,
0100
0100
0010
0010
,
0001
1001
0001
0001
,
1000
1000
0001
0001
,
1000
1001
0001
0000
,
1000
0000
0001
0000
,
1000
0000
0001
0001
,
0001
0001
0001
0000
,
0000
0000
0100
0100
,
0100
0100
0001
0001
,
0001
0001
1000
1000
,
1000
1000
0010
0010
,
0010
0000
0010
0100
,
0010
0100
0010
0100
,
0010
0100
0110
0000
,
0110
0000
0220
0000
,
0000
0330
0100
0100
,
0000
1000
0000
0010
0000
1000
0000
0010
,
0000
1000
0000
0000
0001
0000
0001
0000
,
0000
0100
0000
0001
0000
0100
0000
0001
,
0000
0100
1000
1000
,
0000
0100
0000
0010
0000
0100
0000
0010
,
0000
1000
1001
0010
,
0000
1000
0000
0001
0000
1000
0000
1001
,
0000
0000
0100
0100
,
0000
0010
0000
0100
0000
0010
0000
0100
,
0000
0010
0000
0000
0010
0000
0000
0000
,
0110
0000
0101
0000
,
0100
0000
0000
0000
0100
0000
0000
0100
,
0000
0000
1000
0000
0000
1000
0000
0000
,
0001
0000
0000
0001
0000
0000
2002
0000
,
0000
0000
0000
3003
,
0000
0000
1000
1000
,
1000
0000
1000
0000
,
1000
0000
0001
0001
,
0001
0000
0001
0000
,
1001
0000
0000
0000
;

//---------------dance-single - Copied from----------------
#NOTES:
     dance-single:
     Copied from:
     Medium:
     11:
     0.539,0.618,0.378,0.278,0.000:
0000
0000
0000
0000
,
0000
0000
0000
0000
,
0000
1000
0001
1000
,
0000
1001
0000
0000
0100
0000
0001
0000
,
0100
0001
1001
1000
,
1000
0010
0100
0001
,
0010
0100
1000
0001
,
0100
0010
1000
0001
,
0100
0010
0001
0010
,
0100
1000
0001
0100
,
0010
0001
0100
0010
,
1000
0001
0010
1000
,
0010
0100
0010
1000
,
0010
1000
0100
0010
,
0001
0010
0100
0102
,
0000
0200
0000
0000
0300
0000
1000
0000
,
0000
2000
0000
0000
0000
3003
1000
0000
,
0010
0100
0001
0010
,
0100
1000
0001
0100
,
0010
0100
0010
0001
,
1000
0001
1001
1000
,
0010
1000
0100
0001
,
0010
0100
1000
2001
,
0000
0002
0000
0000
0003
0000
0010
0000
,
0000
0020
0000
3030
1000
0000
1001
0000
,
0010
0110
0001
1001
,
1000
1001
0001
1001
,
0100
0001
0010
1000
,
0100
0001
0100
2010
,
0010
3010
0100
0201
,
0001
0301
0001
1000
,
0000
1001
0000
0100
,
0010
0100
0101
2002
,
0000
0000
0000
0000
,
0000
0000
3003
0000
1000
0010
1000
0000
,
0100
0010
0100
0000
0001
0000
0010
0000
,
1000
0000
1001
0000
1000
0001
1000
0000
,
0100
0001
0100
0000
0001
0000
0010
0000
,
0100
0000
1100
0000
0100
0010
0001
0000
,
0001
0010
0100
0000
1000
0000
0001
0000
,
0100
0000
0110
0000
0100
0010
0100
0000
,
1000
0010
1000
0000
1000
0000
0001
0000
,
0100
0100
1000
0010
,
1000
0010
0100
0001
,
0100
0000
0000
0000
1000
0010
1000
0000
,
1000
0010
1000
0000
1000
0000
0010
0000
,
0110
0000
0000
0000
1000
0010
1000
0000
,
0100
0001
0100
0000
0100
0010
0100
0000
,
0010
0100
0010
0000
1000
0001
1000
0000
,
0100
0001
0100
0000
1001
0000
1001
0000
,
1001
0000
2000
3020
,
2030
3002
0203
0320
,
0230
0302
2003
0000
,
3002
0000
0200
0000
,
0000
0303
0100
0101
,
0000
0010
0100
0010
0000
0100
0000
0001
,
0000
0010
0100
1100
,
0000
1000
0001
1000
0000
0100
0000
0101
,
0000
0010
1000
1010
,
0000
0100
0000
0001
0000
1000
0000
1001
,
0000
0000
1000
0001
1000
0000
0100
0001
,
0000
0001
0000
0001
0000
1000
0000
1010
,
0000
0100
0100
0110
,
0000
1000
0010
1000
0000
0100
0001
0100
,
0000
0010
0100
0010
1000
0000
0010
0000
,
0100
0100
0001
0010
,
1000
0000
0001
0000
2010
0000
0000
3010
,
0000
0000
0201
0000
0000
0301
0000
0000
,
0210
0000
0000
0310
0000
0000
2010
0000
,
0000
3010
0000
0000
0010
0000
0100
0000
,
0001
0100
1000
0010
,
0100
0001
0010
1000
,
0100
0001
0010
0100
,
1000
0001
1000
0000
0001
0000
1000
0000
,
0110
0000
0000
0000
;

//---------------dance-single - Copied from----------------
#NOTES:
     dance-single:
     Copied from:
     Hard:
     13:
     0.690,0.793,0.724,0.434,0.050:
0000
0000
0000
0000
,
0000
0000
0000
0000
,
0000
0100
0001
1000
,
0000
1001
0000
0000
0100
0000
0001
0000
,
1000
0001
1001
0100
,
0010
1000
0010
0000
0100
0001
0100
0000
,
0100
0101
1000
0010
,
1000
0001
1000
0000
0100
0001
0100
0000
,
0010
0000
1000
0010
0000
0010
1010
0000
,
0100
0010
0100
0000
1000
0010
1000
0000
,
0010
1010
0100
1001
,
1000
0010
0000
0010
1000
0010
1000
0000
,
0010
1010
0101
0001
,
1000
0000
0010
0100
1000
0100
1000
0100
,
0001
0010
0100
0000
1000
0000
0001
0000
,
0000
2002
0000
0000
3003
0000
0110
0000
,
0000
2020
0000
0000
0000
3030
1000
0000
,
0001
0000
0100
0010
0000
1000
0000
0001
,
0000
0100
0001
0000
1001
0000
1010
0000
,
0100
0000
0101
0000
0010
1000
0000
0100
,
0001
1000
1001
1000
,
0001
0000
0100
0010
0000
1000
0000
0001
,
0000
1000
0001
0000
0001
0000
1001
0000
,
0000
0202
0000
0000
0303
0000
0110
0000
,
0000
0220
0000
0330
0010
1000
0001
0000
,
0100
0010
1000
0000
0100
0001
0100
0000
,
1000
0010
0100
0000
0001
0000
1000
0000
,
0010
0000
1000
0010
0000
0100
0000
0001
,
0100
0010
0001
1001
,
1000
0001
1000
0000
1010
0000
1010
0000
,
0100
0010
0100
0000
0110
0000
0110
0000
,
0000
1001
0000
1010
,
0110
0101
0110
0220
,
0000
0000
0000
0000
,
0000
0000
0330
0000
1001
0100
0010
0100
,
0010
0100
0000
0010
0100
0000
2000
0000
0000
0000
3001
0000
0010
0000
0100
0000
,
2001
3010
2000
3010
,
0100
0000
0000
0001
0000
0000
0100
0000
0000
0000
1000
0000
0001
0000
0100
0000
,
0010
0010
0110
0000
1000
0001
0100
0001
,
0100
0001
0000
0100
0001
0000
0020
0000
0000
0000
1030
0000
0100
0000
0010
0000
,
0001
0000
0000
1000
0000
0000
0002
0000
0000
0000
0000
0000
0103
0000
0010
0000
0100
0000
0010
0000
0000
0100
0000
0000
,
0010
0000
1000
0000
0010
0000
1000
0000
0000
0100
0000
0000
0010
0000
0000
0000
0000
0000
1001
0000
0000
0000
0000
0000
,
1010
1000
1000
0010
0110
0000
1000
0010
,
0100
0000
0001
0010
0100
0000
1010
0000
,
2002
0000
3003
0000
0100
0010
0100
0010
,
0100
0010
0100
0010
0100
0000
1001
0000
,
1001
0000
1010
0000
1000
0010
1000
0010
,
1000
1010
0000
0000
0100
0001
0100
0001
,
0100
0101
0000
0000
0100
0010
0100
0010
,
0100
0010
0100
1000
1001
0000
1010
0000
,
0110
0101
2000
3020
,
0230
0302
2003
3020
,
0230
2300
3002
0000
,
2003
0000
0002
0000
,
0000
3003
1000
1010
,
0000
0001
0100
0001
0000
1000
0000
1001
,
0000
0100
0010
0100
0100
0000
0110
0000
,
0000
1000
0001
1000
0000
0001
0000
2002
,
0000
3003
0010
1010
,
0000
1000
0000
0001
0000
0100
0000
0101
,
0000
0000
1000
0010
1000
0000
0100
0001
,
0000
0001
0000
1000
0000
0010
0000
1010
,
0000
0100
0110
0000
1000
0000
1001
0000
,
0000
0001
1000
0001
0000
0100
0000
0101
,
0000
1000
0010
1000
0010
0000
0010
1000
,
0000
0100
0000
0110
0000
0001
0000
1001
,
0000
1010
0000
0000
2010
0000
0000
3002
,
0000
0000
0203
0000
0000
0320
0000
0000
,
2030
0000
0000
3002
0000
0000
0203
0000
,
0000
0000
0300
0000
0000
0100
0010
0100
,
0010
0000
1000
0000
1001
0000
0000
1001
,
0000
0000
1000
0010
1000
0000
0100
0010
,
0100
0000
0001
0000
1001
0000
0100
0001
,
0100
0000
0010
1000
0010
0000
0100
0000
,
2002
0000
0000
0000
,
3003
0000
0000
0000
;

//---------------dance-single - Copied from Copied f----------------
#NOTES:
     dance-single:
     Copied from Copied f:
     Challenge:
     13:
     0.679,0.751,0.824,0.312,0.050:
0000
0000
0000
0000
,
0000
0000
0000
0000
,
0000
0100
0001
1000
,
0000
1001
0000
0000
0100
0000
0001
0000
,
1000
0001
1001
0100
,
0010
1000
0010
MMMM
0100
0001
0100
0000
,
0100
0101
1000
0010
,
1000
0001
1000
MMMM
0100
0001
0100
0000
,
0010
0000
1000
0010
0000
0010
1010
0000
,
0100
0010
0100
MMMM
1000
0010
1000
0000
,
0010
1010
0100
1001
,
1000
0010
0000
0010
1000
0010
1000
0000
,
0010
1010
0101
0001
,
1000
MMMM
0010
0000
1000
0100
1000
0100
,
0001
0010
0100
MMMM
1000
0000
0001
MMMM
,
0000
2002
0000
0000
3003
0000
0110
MMMM
,
0000
2020
0000
0000
0000
3030
1000
0000
,
0001
0000
0100
0010
0000
1000
0000
0001
,
0000
0100
0001
0000
1001
0000
1010
0000
,
0100
0000
0101
0000
0010
1000
0000
0100
,
0001
1000
1001
1000
,
0001
0000
0100
0010
0000
1000
0000
0001
,
0000
1000
0001
0000
0001
0000
1001
MMMM
,
0000
0202
0000
0000
0303
0000
0110
MMMM
,
0000
0220
0000
0330
0010
1000
0001
MMMM
,
0100
0010
1000
MMMM
0100
0001
0100
MMMM
,
1000
0010
0100
MMMM
0001
0010
1000
0000
,
0010
0000
1000
0010
0000
0100
0000
0001
,
0100
0000
0010
0000
0001
0000
1001
MMMM
,
1000
0001
1000
MMMM
1010
0000
1010
MMMM
,
0100
0010
0100
MMMM
0110
0000
0110
MMMM
,
0000
0000
1001
MMMM
0000
0000
1010
MMMM
,
0110
MMMM
0101
MMMM
0110
0000
0220
0000
,
0000
0000
0000
0000
,
0000
0000
0330
MMMM
1001
0100
0010
0100
,
0010
0100
0000
0010
0100
0000
2000
0000
0000
0000
3001
0000
0010
0000
0100
0000
,
2001
0000
3010
MMMM
2000
0000
3010
MMMM
,
0100
0000
0000
0001
0000
0000
0100
0000
0000
0000
1000
0000
0001
0000
0100
0000
,
0010
0010
0110
MMMM
1000
0001
0100
0001
,
0100
0001
0000
0100
0001
0000
0020
0000
0000
0000
1030
0000
0100
0000
0010
0000
,
0001
0000
0000
1000
0000
0000
0002
0000
0000
0000
0000
0000
0103
0000
0010
0000
0100
0000
0010
0000
0000
MMMM
0000
0000
,
0010
0000
1000
0000
0010
0000
1000
0000
0000
MMMM
0000
0000
0010
0000
0000
0000
0000
0000
1001
0000
0000
0000
0000
0000
,
1010
1000
1000
0010
0110
0000
1000
0010
,
0100
MMMM
0010
0010
0100
MMMM
1010
0000
,
2002
0000
3003
0000
0100
0010
0100
MMMM
,
0100
0010
0100
MMMM
0100
0000
1001
0000
,
1001
0000
1010
0000
1000
0010
1000
0010
,
1000
MMMM
0000
0000
0100
0001
0100
0001
,
0100
MMMM
0000
0000
0100
0010
0100
0010
,
0100
0010
0100
1000
1001
0000
1010
0000
,
0110
0000
0101
0000
1001
MMMM
0101
MMMM
,
1010
MMMM
0110
MMMM
0101
MMMM
1010
MMMM
,
0110
MMMM
0011
MMMM
0002
0000
0000
0000
,
2003
0000
0002
0000
,
0000
0000
3003
0000
1000
0000
1010
MMMM
,
0000
0001
0100
0001
0000
1000
0000
1001
,
0000
0100
0010
0100
0100
0000
0110
MMMM
,
0000
1000
0001
1000
0000
0001
0000
2002
,
0000
0000
3003
0000
0010
0000
1010
MMMM
,
0000
1000
0000
0001
0000
0100
0000
0101
,
0000
0000
1000
0010
1000
0000
0100
0001
,
0000
0001
0000
1000
0000
0010
0000
1010
,
0000
0100
0110
MMMM
1000
0000
1001
0000
,
0000
0001
1000
0001
0000
0100
0000
0101
,
0000
1000
0010
1000
0010
0000
0010
1000
,
0000
0100
0000
0110
0000
0001
0000
1001
,
0000
1010
0000
MMMM
2001
0000
0000
3001
,
0000
MMMM
0210
0000
0000
0310
0000
MMMM
,
2100
0000
0000
3100
MMMM
0000
0210
0000
,
0000
0000
0310
MMMM
0000
0100
0010
0100
,
0010
MMMM
1000
0000
1001
0000
0000
1001
,
0000
0000
1000
0010
1000
MMMM
0100
0010
,
0100
MMMM
0001
0000
1001
0000
0100
0001
,
0100
MMMM
0010
1000
0010
MMMM
0100
0000
,
2002
0000
0000
0000
,
3003
0000
0000
0000
;
