#TITLE:Fatima;
#SUBTITLE:(Cover);
#ARTIST:Roselia;
#TITLETRANSLIT:;
#SUBTITLETRANSLIT:;
#ARTISTTRANSLIT:;
#CREDIT:;
#BANNER:Fatima (Cover) BN.png;
#BACKGROUND:Fatima (Cover) BG.png;
#LYRICSPATH:;
#CDTITLE:CDTITLE.png;
#MUSIC:Fatima (Cover).ogg;
#OFFSET:0.580;
#SAMPLESTART:61.900;
#SAMPLELENGTH:12.000;
#SELECTABLE:YES;
#BPMS:0.000=179.000;
#STOPS:;
#BGCHANGES:1.750=Fatima (Cover).avi=1.000=1=1=0,
99999=-nosongbg-=1.000=0=0=0 // don't automatically add -songbackground-
;

//---------------dance-single - ----------------
#NOTES:
     dance-single:
     :
     Hard:
     12:
     0.648,0.695,0.299,0.182,0.043: // measure 1
0000
0000
0000
0000
,  // measure 2
0000
0000
0000
0000
,  // measure 3
0000
0000
0000
0000
,  // measure 4
0000
0000
0000
0000
,  // measure 5
0000
0000
0100
0100
0000
0000
1000
0000
,  // measure 6
0001
0010
0000
0100
0000
0001
0000
0100
,  // measure 7
1000
0010
0100
1000
0000
0000
0100
0000
,  // measure 8
0001
0100
0000
1000
0000
1100
0000
0100
,  // measure 9
0000
0110
0000
1001
0000
0000
1000
0000
,  // measure 10
0010
1000
0000
0100
0000
0010
0000
1000
,  // measure 11
0000
0010
0000
1010
0000
0000
0010
0000
,  // measure 12
0001
1000
0100
0010
0000
0000
0110
0000
,  // measure 13
0000
1001
0002
0000
0000
0000
1003
0010
,  // measure 14
1000
0000
1000
0010
1000
0000
0100
0000
0001
0000
0010
0000
1000
0000
0100
0000
,  // measure 15
0010
0000
0001
0100
0001
0000
0010
0000
1000
0000
0001
0000
0100
0000
0010
0000
,  // measure 16
0100
0000
1000
0001
1000
0000
0100
0000
0010
0000
0100
0000
1000
0000
0001
0000
,  // measure 17
0100
0000
0010
1000
0010
0000
0100
0000
0010
0000
1000
0000
0001
0000
0100
0000
,  // measure 18
0010
0000
0100
0001
0100
0000
0010
0000
1000
0000
0001
0000
0100
0000
0010
0000
,  // measure 19
0100
0000
1000
0010
1000
0000
0100
0000
1000
0000
0001
0000
0100
0000
0010
0000
,  // measure 20
0001
0000
0010
1000
0010
0000
0100
0000
0001
0000
1000
0000
0010
0000
0100
0000
,  // measure 21
0001
0000
1000
0001
1000
0000
0100
0000
0001
0000
0100
0000
1000
0000
0010
0000
,  // measure 22
0100
1000
0010
0100
1000
0010
0100
1000
,  // measure 23
0010
0100
1000
0010
0100
1000
0010
0100
,  // measure 24
1000
0010
0100
1000
0010
0100
1000
0010
,  // measure 25
0100
1000
0010
0100
0000
0110
0001
0100
,  // measure 26
0010
0001
0100
0010
0001
0100
0010
0001
,  // measure 27
0100
0010
0001
0100
0010
0001
0100
0010
,  // measure 28
1000
1001
0000
0001
0100
0101
0000
0110
,  // measure 29
0000
1010
0000
0101
0000
0000
1000
0001
,  // measure 30
0100
0001
1000
0100
0001
1000
0100
0001
,  // measure 31
1000
0100
0001
1000
0100
0001
1000
0100
,  // measure 32
0001
1000
0100
0001
1000
0100
0001
1000
,  // measure 33
0100
0001
1000
0100
0000
0220
0000
0000
,  // measure 34
0000
0000
0000
0330
0001
0100
1000
0001
,  // measure 35
0100
1000
0001
0100
1000
0001
0100
0010
,  // measure 36
1000
1000
0000
0001
0100
0101
0000
0000
,  // measure 37
0000
1000
0001
1000
0000
0000
2001
0000
,  // measure 38
0100
0000
3001
0000
0200
0020
0000
0000
,  // measure 39
0000
0330
0000
0000
0010
1000
0201
0000
,  // measure 40
0010
0000
0301
0000
0002
2000
0000
0000
,  // measure 41
0000
0000
0000
3003
0000
0000
1000
0010
,  // measure 42
1000
0010
0000
0100
0000
0100
0001
1000
,  // measure 43
0001
1000
0000
0100
0000
0100
1000
0100
,  // measure 44
0010
1000
0100
0010
1000
0100
0010
1000
,  // measure 45
0100
0010
1000
0100
0010
1000
0002
0000
,  // measure 46
0000
0000
0000
0000
0000
0000
1003
0010
,  // measure 47
0000
0010
0000
1010
0000
0110
0000
1000
,  // measure 48
0010
0100
0100
0001
0001
0100
1000
0010
,  // measure 49
0100
0001
0100
0100
0000
0110
0000
0001
,  // measure 50
0010
0100
1000
0010
0000
0100
0000
0010
,  // measure 51
1000
0000
0001
0000
0100
0000
0010
0000
0010
0000
0200
0000
0000
0300
0000
0000
,  // measure 52
1001
0000
0100
1000
0000
0010
0000
0001
,  // measure 53
0100
1100
0000
0010
1000
0100
1000
0001
,  // measure 54
0010
1000
0001
0010
1000
0001
0010
1000
,  // measure 55
0001
0010
1000
0001
0000
1001
0000
1000
,  // measure 56
0100
0010
0100
0001
0000
0100
0000
1000
,  // measure 57
0010
0100
0001
0010
0000
1010
0000
0100
,  // measure 58
1000
0001
0100
0010
0000
0110
0000
0001
,  // measure 59
0100
0010
0001
0010
0000
0000
2010
0000
,  // measure 60
0000
0000
3010
0100
0000
2000
0000
3020
,  // measure 61
0000
0230
0000
0301
0010
1000
1000
0100
,  // measure 62
0010
1000
0100
0010
1000
0100
0010
1000
,  // measure 63
0100
0010
1000
0010
0001
1000
0102
0000
,  // measure 64
1000
0000
0010
0000
,  // measure 65
0100
0000
1003
2010
,  // measure 66
0001
0000
0010
0000
,  // measure 67
0100
0000
3001
0010
,  // measure 68
0100
0010
0100
0010
,  // measure 69
0100
0010
0110
0000
;

//---------------dance-single - ----------------
#NOTES:
     dance-single:
     :
     Medium:
     1:
     0.000,0.000,0.000,0.000,0.000:
0000
0000
0000
0000
;

//---------------dance-single - ----------------
#NOTES:
     dance-single:
     :
     Easy:
     1:
     0.000,0.000,0.000,0.000,0.000:
0000
0000
0000
0000
;

//---------------dance-single - Copied from----------------
#NOTES:
     dance-single:
     Copied from:
     Beginner:
     1:
     0.000,0.000,0.000,0.000,0.000:
0000
0000
0000
0000
;
