#TITLE:Farewell to Marrakech;
#SUBTITLE:;
#ARTIST:Dirty Androids;
#TITLETRANSLIT:;
#SUBTITLETRANSLIT:;
#ARTISTTRANSLIT:;
#CREDIT:;
#BANNER:Farewell to Marrakech BN.png;
#BACKGROUND:Farewell to Marrakech BG.png;
#LYRICSPATH:;
#CDTITLE:CDTITLE.png;
#MUSIC:Farewell to Marrakech.ogg;
#OFFSET:0.160;
#SAMPLESTART:91.900;
#SAMPLELENGTH:15.000;
#SELECTABLE:YES;
#BPMS:0.000=144.000;
#STOPS:;
#BGCHANGES:0.438=Farewell To Marrakech.avi=1.000=1=1=0,
99999=-nosongbg-=1.000=0=0=0 // don't automatically add -songbackground-
;

//---------------dance-single - ----------------
#NOTES:
     dance-single:
     :
     Hard:
     13:
     0.501,0.559,0.127,0.063,0.436: // measure 1
0000
0000
0000
0000
,  // measure 2
0000
0000
0000
0000
,  // measure 3
0000
0000
0000
0000
,  // measure 4
0000
0000
0000
0000
,  // measure 5
0000
0000
0000
0000
0000
0000
0000
0100
,  // measure 6
0110
0000
0000
0000
,  // measure 7
1001
0000
0000
0000
,  // measure 8
0101
0000
0000
0000
,  // measure 9
0110
0000
0000
0000
,  // measure 10
1000
0000
0000
0010
0000
0000
0100
0000
0010
0000
0100
0000
0001
0000
0000
0100
,  // measure 11
0000
0000
1000
0000
0001
0000
1000
0000
0001
0000
0000
0010
0000
0000
1000
0000
,  // measure 12
0010
0000
1000
0000
0010
0000
0000
0001
0000
0000
1000
0000
0010
0000
1000
0000
,  // measure 13
0010
0000
0000
0100
0000
0000
0001
0000
0100
0000
0001
0000
0100
0000
0000
0001
,  // measure 14
0000
1000
0001
1000
0001
0100
0010
1000
,  // measure 15
0001
0100
0010
0001
0010
0100
1000
0100
,  // measure 16
0020
0000
0000
0000
,  // measure 17
0230
0000
0000
0000
,  // measure 18
1300
0000
0000
0010
0000
0000
1000
0010
1000
0000
0100
0000
0010
0000
0001
0000
,  // measure 19
0100
0000
0000
0010
0000
0000
0100
0010
0100
0000
0010
0000
1000
0000
0001
0000
,  // measure 20
1000
0000
0000
0001
0000
0000
0100
0001
0100
0000
0010
0000
0100
0000
1000
0010
,  // measure 21
1000
0000
0000
0010
0000
0000
1000
0000
0001
0000
0000
0000
0010
0000
0000
0000
,  // measure 22
1000
0000
0000
0001
0000
0000
1000
0001
1000
0000
0010
0000
0100
0000
1000
0010
,  // measure 23
1000
0000
0100
0000
0010
0000
1000
0000
0001
0000
0100
0000
0010
0000
1000
0001
,  // measure 24
2000
0000
0000
3020
0000
0000
0000
0130
,  // measure 25
1000
0000
0000
1010
0000
0000
0110
0000
0000
0101
0000
0000
0110
0000
0000
0000
,  // measure 26
0110
0000
0000
0100
0000
0000
0010
0000
0100
0000
0000
0001
0000
0000
1000
0000
,  // measure 27
0010
0000
0000
0010
0000
0000
0100
0000
0001
0000
0000
1000
0000
0000
0001
0000
,  // measure 28
0100
0000
0000
0100
0000
0000
0001
0000
1000
0000
0000
0100
0000
0000
0001
0000
,  // measure 29
1000
0000
0000
0100
0000
0000
0010
0000
0100
0000
0000
1000
0000
0000
0100
0000
,  // measure 30
0110
0000
0100
0010
0001
0000
0001
0010
,  // measure 31
0100
0000
1000
0001
1000
0000
0100
1000
,  // measure 32
0100
0000
0100
0010
0001
0000
0001
1000
,  // measure 33
0001
0000
0100
0010
0001
0010
0100
1000
,  // measure 34
1100
0000
0100
0010
0100
0000
1000
0010
,  // measure 35
1000
0000
0100
0001
0100
0000
0001
0010
,  // measure 36
0100
0000
1000
0100
0010
0000
0100
0010
,  // measure 37
0100
0000
0000
0001
0000
0000
1000
0000
0010
0000
0000
0100
0000
0000
0001
0000
,  // measure 38
1000
0010
0000
0000
0010
1000
0000
0000
1000
0001
0000
0000
0001
0100
0000
0000
,  // measure 39
0100
0010
0000
0000
0010
0001
0000
0000
0001
0010
0000
0000
0010
0100
0000
0000
,  // measure 40
0100
1000
0000
0000
1000
0001
0000
0000
0001
0010
0000
0000
0010
0100
0000
0000
,  // measure 41
0100
1000
0000
0000
1000
0001
0000
0000
0001
0100
0000
0000
0100
0001
0000
0000
,  // measure 42
0001
1000
0000
0000
1000
0100
0000
0000
0100
1000
0000
0000
1000
0001
0000
0000
,  // measure 43
0001
0100
0000
0000
0100
0001
0000
0000
0001
0010
0000
0000
0010
0100
0000
0000
,  // measure 44
0100
1000
0000
0000
1000
0001
0000
0000
0001
1000
0000
0000
1000
0001
0000
0000
,  // measure 45
0001
0100
0000
0000
0200
0000
0000
0000
0000
0000
0000
0000
0000
0000
0000
0000
,  // measure 46
0310
0000
0000
1000
0000
0000
0010
0000
0001
0000
0010
0000
0100
0000
0000
0010
,  // measure 47
0000
0000
1000
0000
0001
0000
0100
0000
0010
0000
0000
0001
0000
0000
1000
0000
,  // measure 48
0010
0000
1000
0000
0001
0000
0000
0100
0000
0000
0010
0000
0100
0000
0010
0000
,  // measure 49
1000
0000
0000
0100
0000
0000
0010
0000
0001
0000
0010
0000
0100
0000
0000
0001
,  // measure 50
0000
0000
0100
0000
0010
0000
1000
0000
0100
0000
0000
1000
0000
0000
0100
0000
,  // measure 51
0001
0000
0010
0000
0100
0000
0000
0010
0000
0000
0100
0000
0010
0000
0100
0000
,  // measure 52
0020
0000
0000
0032
,  // measure 53
0000
2000
0000
0000
0000
0000
0000
0000
,  // measure 54
0000
0000
0000
0000
,  // measure 55
0000
0000
0000
0000
0000
0000
0000
0000
0000
0000
3003
0000
0110
0000
0000
1010
,  // measure 56
0000
0000
0110
0000
1000
0000
0000
0010
0000
0000
1000
0001
1000
0000
0100
0000
,  // measure 57
0001
0000
1000
0000
0100
0000
0000
0001
0000
0000
1000
0010
1000
0000
0100
0000
,  // measure 58
0010
0000
0001
0000
0010
0000
0000
1000
0000
0000
0100
0001
0100
0000
0010
0000
,  // measure 59
1000
0000
0100
0010
0100
0000
0000
0100
0000
0000
0001
0000
1000
0000
0000
0000
,  // measure 60
0001
0000
0000
0000
1000
0000
0000
0010
0000
0000
1000
0010
1000
0000
0100
0000
,  // measure 61
0001
0000
0000
0000
0000
0000
0010
0000
0000
0000
0000
0000
1000
0000
0000
0000
0000
0000
1000
0000
0000
0000
0000
0000
0000
0000
0000
1010
0000
0000
0000
0000
0000
0000
0000
0000
0100
0000
0000
0000
0001
0000
0000
0000
0100
0000
0000
0000
,  // measure 62
0010
0000
0001
0000
1000
0000
0001
0000
0000
1000
0000
0000
0010
0000
0000
0100
0000
0000
0001
0000
0000
0010
0000
0000
,  // measure 63
0100
0000
1000
0010
1000
0000
0010
1000
0000
1000
0010
0001
0000
0001
0010
0000
,  // measure 64
0010
0100
0000
0100
1000
0000
0000
0010
0000
0000
0100
0000
0010
0000
0000
0001
,  // measure 65
0000
0000
0010
0000
0100
0000
0000
1000
0000
0000
0001
0000
0100
0000
0000
0001
,  // measure 66
0000
0000
0010
0000
1000
0000
0000
0010
0000
0000
0100
0000
0001
0000
0000
0001
,  // measure 67
0000
0000
0100
0000
0010
0000
0000
1000
0000
0000
0001
0000
0100
0000
0000
0010
,  // measure 68
0000
0000
0100
0000
0010
0000
0000
1000
0000
0000
0001
0000
0100
0000
0000
0001
,  // measure 69
0000
0000
1000
0000
0010
0000
0000
0100
0000
0000
0010
0000
0100
0000
0000
0001
,  // measure 70
0000
0000
1000
0000
0001
0000
0000
1000
0000
0000
0100
0000
0001
0000
0000
0100
,  // measure 71
0000
0000
0001
0000
1000
0000
0000
0010
0000
0000
0100
0000
0001
0000
0000
0010
,  // measure 72
0000
0000
0000
0000
0110
0000
0000
1000
0000
0000
0010
0000
0100
0000
0001
0000
,  // measure 73
1000
0000
0000
0010
0000
0000
0100
0000
0001
0000
0100
0000
0001
0000
0000
1000
,  // measure 74
0000
0000
0010
0000
0100
0000
0001
0000
0010
0000
0000
1000
0000
0000
0100
0000
,  // measure 75
0001
0100
0001
0000
0000
0000
0000
0000
;
