#TITLE:Everyway That I Can;
#SUBTITLE:;
#ARTIST:Sertab Erener;
#TITLETRANSLIT:;
#SUBTITLETRANSLIT:;
#ARTISTTRANSLIT:;
#CREDIT:;
#BANNER:Everyway That I Can BN.png;
#BACKGROUND:Everyway That I Can BG.png;
#LYRICSPATH:;
#CDTITLE:CDTITLE.png;
#MUSIC:Everyway That I Can.ogg;
#OFFSET:1.220;
#SAMPLESTART:37.880;
#SAMPLELENGTH:15.000;
#SELECTABLE:YES;
#BPMS:0.000=95.000;
#STOPS:;
#BGCHANGES:1.938=Everyway That I Can.avi=1.000=1=1=0,
99999=-nosongbg-=1.000=0=0=0 // don't automatically add -songbackground-
;

//---------------dance-single - ----------------
#NOTES:
     dance-single:
     :
     Medium:
     6:
     0.281,0.292,0.126,0.081,0.009:
0000
0000
0000
0000
,
0000
0000
0000
0000
,
0000
0000
0000
0000
,
0000
0000
0000
0000
,
0000
0000
0100
0010
,
0100
0010
0100
0000
1000
0000
0001
0000
,
1000
0001
1000
0000
0100
0000
0010
0000
,
0001
0010
0001
0000
0100
0000
1000
0000
,
1000
0010
1000
0000
0100
0000
0001
0000
,
0001
0010
0001
0000
0100
0000
0010
0000
,
0100
0010
0100
0000
0010
0000
0100
0000
,
0010
0100
1000
0001
,
1000
0000
0001
0000
0100
0010
0100
0000
,
1000
0100
1000
0000
0001
0100
0001
0000
,
0010
0100
0010
0000
0200
0000
0302
0000
,
2003
0000
3020
0000
1030
0000
0100
0010
,
0001
0000
0001
0000
0100
0000
0010
0100
,
1000
0000
0010
0000
0100
0000
0010
0100
,
1000
0000
0001
0000
0100
0000
0001
1000
,
0100
0000
0100
0000
0001
0000
1000
0010
,
0100
0000
0010
0000
1000
1010
0000
0000
,
0010
1010
0000
0000
0110
0000
0110
0000
,
0110
0110
1001
0010
,
0100
0010
0100
0000
0001
0000
1000
0000
,
1000
0001
1000
0000
0100
0010
0001
0000
,
0010
0100
1000
0000
0001
1000
0100
0000
,
0010
0010
0010
0000
0001
0010
0100
0000
,
0100
0010
0001
0000
0010
1000
0010
0000
,
0100
0010
0100
0000
0001
0100
0001
0000
,
0010
1000
0010
0000
0100
0010
0100
0000
,
0001
0100
0001
0000
0010
0000
1000
0000
,
0010
0000
0000
0000
1000
0000
0000
0000
2000
0000
0000
3002
0000
0000
0023
0000
,
0000
0230
0000
0000
0302
0000
0013
0000
1000
0000
0000
0000
0100
0000
0010
0000
,
0100
0000
0001
0000
1000
0000
0001
0100
,
0010
0000
0100
0000
0010
0000
0100
0010
,
0100
0000
0010
0000
1000
0000
0100
0001
,
0100
0000
0010
0000
1000
0000
0001
0100
,
0010
0100
0010
0100
,
0001
0010
0100
0000
1000
0000
0001
0000
,
1000
0000
0010
0000
0001
0101
0000
0000
,
0100
0101
0000
0000
0011
0000
0011
0000
,
0011
0011
0011
0100
,
1000
0100
0010
0000
0001
0000
0100
0000
,
0001
0010
0100
0000
0000
0000
0000
0000
;

//---------------dance-single - ----------------
#NOTES:
     dance-single:
     :
     Easy:
     4:
     0.220,0.273,0.252,0.027,0.000: // measure 1
0000
0000
0000
0000
,  // measure 2
0000
0000
0000
0000
,  // measure 3
0000
0000
0000
0000
,  // measure 4
0000
0000
0000
0000
,  // measure 5
0000
0000
0100
0100
,  // measure 6
0110
0000
0001
0001
,  // measure 7
1001
0000
1000
1000
,  // measure 8
1000
1000
0100
0010
,  // measure 9
0001
0001
0010
0010
,  // measure 10
0100
0110
1000
1000
,  // measure 11
0001
1001
0100
0010
,  // measure 12
0100
0010
0001
1000
,  // measure 13
0001
1000
0100
0001
,  // measure 14
0100
0001
1000
0010
,  // measure 15
1000
0010
0001
0010
,  // measure 16
0001
0010
1000
1000
,  // measure 17
1100
0000
0001
0001
,  // measure 18
0101
0000
0100
0100
,  // measure 19
0110
0000
1000
1000
,  // measure 20
1010
0000
0001
0001
,  // measure 21
0101
0000
0000
0000
0100
0100
0000
0000
,  // measure 22
0010
0010
0000
0000
1010
0000
1010
0000
,  // measure 23
1010
1010
1000
1000
,  // measure 24
1010
0000
0001
0001
,  // measure 25
0101
0000
0100
0001
,  // measure 26
0100
0001
0100
1000
,  // measure 27
0100
1000
0010
1000
,  // measure 28
0010
1000
0100
0001
,  // measure 29
0100
0001
1000
0001
,  // measure 30
1000
0001
1000
0010
,  // measure 31
1000
0010
0100
0001
,  // measure 32
0100
0001
2000
0010
,  // measure 33
0010
3010
0100
0100
,  // measure 34
0110
0000
0001
0001
,  // measure 35
1001
0000
1000
1000
,  // measure 36
1010
0000
0010
0010
,  // measure 37
0110
0000
1000
1000
,  // measure 38
1001
0000
0001
0001
,  // measure 39
1001
0000
0100
0100
,  // measure 40
0110
0000
0000
0000
0100
0100
0000
0000
,  // measure 41
1000
1000
0000
0000
0101
0000
0101
0000
,  // measure 42
0101
0101
1002
1000
,  // measure 43
1000
1003
2010
0010
,  // measure 44
0010
3010
0000
0000
;

//---------------dance-single - Copied from----------------
#NOTES:
     dance-single:
     Copied from:
     Beginner:
     2:
     0.117,0.175,0.054,0.000,0.000:
0000
0000
0000
0000
,
0000
0000
0000
0000
,
0000
0000
0000
0000
,
0000
0000
0000
0000
,
0000
0000
0010
0000
,
0000
0010
0100
0000
,
0000
0100
0001
0000
,
0000
0001
1000
0000
,
0000
1000
0001
0000
,
0000
0001
0010
0000
,
0000
0010
0100
0000
,
0000
0100
1000
0000
,
0000
1000
0001
0000
,
0000
0001
0100
0000
,
0000
0100
0010
0000
,
0000
0010
0100
0000
,
0100
0000
0001
0000
,
0001
0000
1000
0000
,
1000
0000
0010
0000
,
0010
0000
0100
0000
,
0100
0000
1001
0000
,
1001
0000
0100
0100
,
0100
0100
0110
0000
,
0000
0001
0000
0000
,
0000
1000
0100
0000
,
0010
0000
1000
0000
,
0000
0001
0100
0000
,
0010
0000
0100
0000
,
0000
0010
1000
0000
,
0001
0000
1000
0000
,
0001
0000
0100
0000
,
0010
0000
0010
0010
,
0010
0010
1000
0000
,
1000
0000
0010
0000
,
0010
0000
0001
0000
,
0001
0000
1000
0000
,
1000
0000
0100
0000
,
0100
0000
0001
0000
,
0001
0000
0100
0000
,
0100
0000
0110
0000
,
0110
0000
0001
0001
,
0001
0001
1001
0000
,
1000
1000
0100
0000
,
0001
0001
0000
0000
;

//---------------dance-single - Copied from----------------
#NOTES:
     dance-single:
     Copied from:
     Challenge:
     13:
     0.556,0.526,0.252,0.144,0.649:
0000
0000
0000
0000
,
0000
0000
0000
0000
,
0000
0000
0000
0000
0000
0000
0000
0000
1000
0000
0010
1000
0000
1000
0010
0000
,
1000
0001
1000
0001
1000
0000
0000
0000
0100
0000
0001
0100
0000
0100
0001
0000
,
0001
1000
0001
1000
0001
0000
0000
0000
0100
0000
0010
0100
0000
0100
0010
0000
,
0010
0100
0010
0100
0010
0000
0000
0000
0100
0000
0001
0100
0000
0100
0001
0000
,
0001
0100
0001
0100
0001
0000
0000
0000
1000
0000
0010
1000
0000
1000
0010
0000
,
1000
0010
1000
0010
1000
0000
0000
0000
0100
0000
0010
0100
0000
0100
0010
0000
,
0100
0010
0100
0010
0100
0000
0000
0000
0001
0000
0010
0001
0000
0001
0010
0000
,
0001
0010
0001
0010
0001
0000
0000
0000
1000
0000
0010
1000
0000
1000
0010
0000
,
0010
1000
0010
1000
0010
0000
0000
0000
0100
0010
0100
0010
0100
0010
0100
0010
,
0100
0010
0100
0010
0100
0000
0000
0000
0100
0001
0100
0001
0100
0001
0100
0001
,
0100
0000
0010
0000
1000
0000
0010
0000
1010
0000
1000
0100
0000
0100
1000
0000
,
1000
0100
1000
0100
1000
0000
0001
0000
0100
0001
0100
0001
0100
0001
0100
0001
,
0100
0001
0100
0001
0100
0000
0000
0000
0010
0000
0100
0000
0010
0000
1000
0000
,
2000
0000
0100
0000
3002
0000
0010
0000
1003
0000
0010
1000
0000
0100
0001
0000
,
0101
0000
0000
0000
0001
0000
0010
0000
1000
0000
0010
0100
0000
0100
0010
0000
,
0001
0000
0001
0020
0000
0000
0000
0000
1030
0000
0010
0100
0000
0100
0010
0000
,
0200
0000
0000
0000
0310
0000
0001
0000
0010
0000
1000
0010
0000
0000
0010
0000
,
1000
0010
0000
2010
0000
0000
0000
0000
3001
0000
1000
0100
0000
0100
1000
0000
,
0002
0000
0000
0000
0103
0000
0000
0000
1001
0000
1001
0000
0010
1000
0010
0000
,
1100
0000
1100
0000
0100
0001
0100
0000
1001
0000
0000
0000
1010
0000
0000
0000
,
0110
0000
0000
0000
1001
0000
0000
0000
0101
0000
1000
0010
0000
0010
1000
0010
,
0100
0001
0100
0001
0100
0000
0000
0000
0100
0000
0010
0100
0000
0100
0010
0001
,
0010
0001
0010
0001
0010
0000
1000
0010
1000
0010
1000
0000
0100
0001
0100
0001
,
0100
0001
0100
0000
0010
0100
0010
0100
0010
0000
0010
0000
1000
0001
1000
0001
,
0000
1000
0000
1000
0010
0000
0001
0100
0001
0100
0001
0000
1000
0010
1000
0010
,
1000
0010
1000
0000
0100
0001
0100
0001
0100
0000
0100
0000
0001
0100
0001
0100
,
0000
0100
0000
0100
0010
0000
0000
0000
1000
0010
1000
0010
2000
0000
3000
0000
,
0001
1000
0001
1000
0002
0000
0003
0000
0100
0010
0100
0010
0200
0000
0300
0000
,
0001
1000
0001
1000
0001
0000
1001
0000
1000
0010
0000
0010
1000
0000
1000
0001
,
0000
0001
1000
0000
1000
0001
0000
0000
1001
0000
0000
1010
0000
0000
0110
0000
,
0000
1001
0000
0000
0101
0000
0101
0000
0001
0000
1000
0010
0000
0010
1000
0000
,
0020
0000
0000
0000
1030
0000
0100
0000
0010
0000
0001
1000
0000
1000
0001
0000
,
0001
0000
0010
0200
0000
0000
0000
0000
0310
0000
0100
0010
0000
0010
0100
0000
,
0002
0000
0000
0000
0103
0000
0010
0000
1000
0000
1000
0001
0000
0001
1000
0000
,
0100
0010
0000
0200
0000
0000
0000
0000
0310
0000
0001
0100
0000
0100
0001
0000
,
0200
0000
0000
0000
0310
0000
0010
0000
0100
0000
1000
0100
0000
0100
1000
0000
,
0100
0010
0000
0020
0000
0000
0000
0000
1030
0000
0100
0001
0000
0001
0100
0000
,
0002
0000
0000
0000
0000
0000
0003
0000
1001
0000
1001
0000
1000
0001
1000
0000
,
1010
0000
1010
0000
1000
0010
1000
0000
1010
0000
0000
0000
0110
0000
0000
0000
,
1001
0000
0000
0000
0101
0000
0000
0000
1001
0000
1000
0010
0000
0010
1000
0010
,
1000
0010
1000
0010
1000
0000
0000
0000
0100
0000
0010
0001
0000
0001
0010
0001
,
0100
0001
0100
0001
0100
0000
0000
0000
0000
0000
0000
0000
0000
0000
0000
0000
;

//---------------dance-single - ----------------
#NOTES:
     dance-single:
     :
     Hard:
     9:
     0.399,0.351,0.234,0.072,0.009:
0000
0000
0000
0000
,
0000
0000
0000
0000
,
0000
0000
0000
0000
0100
0010
0100
0010
,
0001
1000
0001
0000
1000
0010
1000
0010
,
0100
0001
0100
0000
1000
0010
1000
0010
,
0100
0010
0100
0000
0001
0100
0001
0010
,
0001
1000
0001
0000
1000
0010
1000
0100
,
0001
0100
0010
0000
0001
0100
1000
0010
,
0001
0100
0010
0000
0100
0010
1000
0001
,
0010
0001
0010
0000
0100
0010
0001
0010
,
1000
0010
1000
0000
0100
0010
0100
0001
,
0100
0001
0100
0000
0010
1000
0001
0100
,
0010
1000
0100
0010
0110
0000
0001
0010
,
0100
0010
0001
0010
0100
0010
0100
0010
,
0100
1000
0010
0100
1000
0010
0100
0001
,
0010
0100
0001
0100
0010
1000
0010
1000
,
2010
0000
0000
3100
0001
0100
0001
0100
,
0001
0100
0101
0000
0100
0001
0100
0010
,
0120
0000
0000
1030
0010
0100
1000
0010
,
0100
1000
1010
0000
0100
1000
0010
1000
,
1002
0000
0000
0000
1003
1010
0000
0000
,
0001
0101
0000
0000
0110
0000
1010
0000
,
0101
0000
0011
0000
1000
0010
1000
0100
,
1000
0001
1000
0000
0100
0010
0100
0001
,
0100
0001
0100
0000
0100
0010
1000
0010
,
1000
0010
0100
0001
0100
0100
0001
0100
,
0010
0010
0010
0000
0001
1000
0010
0001
,
1000
0010
0100
0001
0010
0010
0100
1000
,
0001
0001
0001
0000
1000
0010
0100
0001
,
0010
0100
0001
0000
0010
1000
0100
0001
,
0010
0100
0001
1000
0010
0100
0010
0010
,
0100
0000
0010
0000
0010
0000
1000
0000
1001
0000
0000
1001
0000
0000
1001
0000
,
0000
1001
0000
0000
1001
0000
0000
0000
1000
0000
0010
0000
0100
0000
0001
0000
,
0020
0000
0130
1000
0010
0100
0001
0010
,
0001
0100
0010
0000
1000
0010
0100
0010
,
0200
0000
0310
0001
1000
0010
0100
0001
,
0010
0100
0020
0000
0031
0100
1000
0010
,
0200
0000
0301
0001
0100
1000
0010
0100
,
0001
0010
0100
0001
1000
0010
0100
0010
,
0200
0000
0301
0000
1001
1001
0000
0000
,
1010
1010
0000
0000
0101
0000
1001
0000
,
0110
0000
0101
0000
1001
1000
0010
0100
,
0010
1000
0100
0000
1000
0010
1000
0001
,
1000
0010
1000
0000
0000
0000
0000
0000
;
