#TITLE:Euphoric Lagoon;
#SUBTITLE:;
#ARTIST:BEMANI Sound Team "TAG";
#TITLETRANSLIT:;
#SUBTITLETRANSLIT:;
#ARTISTTRANSLIT:;
#CREDIT:;
#BANNER:Euphoric Lagoon BN.png;
#BACKGROUND:Euphoric Lagoon BG.png;
#LYRICSPATH:;
#CDTITLE:CDTITLE.png;
#MUSIC:Euphoric Lagoon.ogg;
#OFFSET:0.220;
#SAMPLESTART:15.040;
#SAMPLELENGTH:15.000;
#SELECTABLE:YES;
#BPMS:0.000=149.000;
#STOPS:;
#BGCHANGES:0.563=Euphoric Lagoon.avi=1.000=1=1=0,
99999=-nosongbg-=1.000=0=0=0 // don't automatically add -songbackground-
;

//---------------dance-single - ----------------
#NOTES:
     dance-single:
     :
     Hard:
     13:
     0.546,0.581,0.531,0.314,0.225: // measure 1
0000
0000
0000
0000
,  // measure 2
0000
0000
0000
0000
,  // measure 3
0000
0000
0000
0000
,  // measure 4
0000
0000
0000
0000
,  // measure 5
0000
0000
0000
0010
,  // measure 6
1000
0000
0000
1010
0000
0000
0000
0000
0100
0000
0001
0000
0100
0000
0000
0000
,  // measure 7
0010
0000
0000
0110
0000
0000
0000
0000
1000
0000
0001
0000
0100
0000
0000
0000
,  // measure 8
0001
0000
0000
0101
0000
0000
0000
0000
0010
0000
1000
0000
0010
0000
0000
0000
,  // measure 9
1000
0000
0000
1010
0000
0000
0000
0000
0100
0000
0010
0000
0220
0000
0000
0000
,  // measure 10
0000
0000
0000
0000
0000
0000
0330
0000
0100
0010
0100
0000
0010
0000
0000
0010
,  // measure 11
0000
0000
1010
0000
0000
0000
0100
0000
0001
0000
0100
0001
0200
0000
0000
0000
,  // measure 12
0000
0000
0302
0000
0000
0000
1003
0000
0010
0000
0100
0000
1000
0000
0000
0010
,  // measure 13
0000
0000
1010
0000
0000
0000
0100
0000
0001
0000
1000
0010
1000
0000
1000
0010
,  // measure 14
0000
0010
1000
0000
0100
0000
0010
0000
0001
0000
0100
0000
1000
0000
0000
0001
,  // measure 15
0000
0000
1001
0000
0000
0000
0100
0000
0010
0000
0100
0010
0200
0000
0000
0000
,  // measure 16
0000
0302
0000
1003
0010
0100
0001
0001
,  // measure 17
0010
1000
0001
0100
0100
0001
0100
0001
,  // measure 18
0010
0000
1000
0000
0001
0000
0100
0000
0100
0000
0010
0000
0110
0000
0000
0001
,  // measure 19
0000
0000
0110
0000
0000
0000
0100
0000
0001
0100
0001
0000
0200
0000
0000
0000
,  // measure 20
0000
0000
0302
0000
0000
0000
0013
0000
0100
0000
1000
0000
0010
0000
0000
0100
,  // measure 21
0000
0000
0110
0000
0000
0000
0100
0000
0001
0000
0001
0100
0001
0000
0001
0100
,  // measure 22
0000
0100
0001
0000
0001
0000
0100
0000
1000
0000
0010
0000
0100
0000
0000
0010
,  // measure 23
0000
0000
0110
0000
0000
0000
1000
0000
0001
0000
0100
0001
0200
0000
0000
0000
,  // measure 24
0000
0000
0302
0000
0000
0000
0103
0000
1000
0000
0100
0000
0001
0000
0000
0101
,  // measure 25
0000
0000
0110
0000
0100
0000
0000
0010
0000
0000
0010
0000
0100
0000
1001
0000
,  // measure 26
0000
1010
0000
0000
0110
0000
0000
0101
0000
0000
0110
0000
1000
0000
0100
0000
,  // measure 27
0010
0100
0010
0001
0010
0000
0011
0000
,  // measure 28
0001
0100
0010
0000
0001
0000
0001
0010
,  // measure 29
0100
0010
0100
1000
0100
0010
0100
0000
,  // measure 30
0110
0000
0101
0000
1010
0000
0100
0010
,  // measure 31
0001
0100
0010
0001
0010
0000
0011
0000
,  // measure 32
1000
0010
0100
0010
0001
0100
0010
0000
,  // measure 33
0100
1000
0001
0100
0010
0000
0100
0010
,  // measure 34
0100
0001
0010
0100
0010
0100
0002
0000
,  // measure 35
0100
0000
0000
0000
0010
0000
0000
0010
0000
0000
0100
0000
2003
0000
0000
0000
,  // measure 36
0000
0000
0001
0000
0001
0000
0000
0010
0000
0000
0100
0000
3002
0000
0000
0000
,  // measure 37
0000
0000
0010
0000
0010
0000
0000
0100
0000
0000
1003
0000
1000
0000
0000
0000
,  // measure 38
1010
0110
0101
0002
,  // measure 39
0000
0000
0100
0000
0100
0000
0000
0010
0000
0000
0100
0000
2003
0000
0000
0000
,  // measure 40
0000
3002
0023
0230
,  // measure 41
0000
0000
0001
0000
0301
0000
0001
0000
0100
0000
1000
0000
0010
0000
0000
0100
,  // measure 42
0000
0000
0010
0000
0110
0000
0000
0000
0110
0000
0000
0000
1001
0000
0000
1001
,  // measure 43
0000
0000
0000
0000
,  // measure 44
0000
0000
0000
0000
0000
0000
0020
0000
0000
0000
0030
0000
0110
0000
0000
0110
,  // measure 45
0000
0000
0000
0000
,  // measure 46
0000
0000
0000
0000
0000
0000
2000
0000
0000
0000
3000
0000
1001
0000
0000
1001
,  // measure 47
0000
0000
0000
0000
,  // measure 48
0000
0000
0000
1000
0000
0000
1001
0000
,  // measure 49
0100
0000
0000
0000
0010
0000
0000
0000
1000
0000
0000
0000
1010
0000
0000
1010
,  // measure 50
0000
0000
1010
0000
0000
1010
0000
0000
1010
0000
1010
0000
2000
0000
0000
0000
,  // measure 51
0001
3002
0100
0203
,  // measure 52
0010
0320
1000
2030
,  // measure 53
0001
3002
0100
0203
,  // measure 54
0010
0000
0320
0000
0100
0000
0130
0001
,  // measure 55
0100
0001
0000
0101
0000
0000
1000
0010
,  // measure 56
1000
0010
0000
1010
0000
0000
1000
0001
,  // measure 57
1000
0001
0000
1001
0000
0000
0220
0000
,  // measure 58
0000
0000
0000
0000
0000
0000
0330
0000
0100
0010
0100
0000
0100
0000
0000
0001
,  // measure 59
0000
0000
0100
0000
0000
0000
0010
0000
1000
0000
0010
1000
0020
0000
0000
0000
,  // measure 60
0000
0000
0230
0000
0000
0000
0301
0000
0010
0000
0100
0000
1000
0000
0000
0010
,  // measure 61
0000
0000
1010
0000
0000
0000
0100
0000
0001
0000
0100
0001
0100
0000
0001
0100
,  // measure 62
0000
0100
0001
0000
0001
0000
0100
0000
1000
0000
0010
0000
0100
0000
0000
0010
,  // measure 63
0000
0000
0110
0000
0000
0000
1000
0000
0001
0000
1000
0001
2000
0000
0000
0000
,  // measure 64
0000
3020
0000
0130
1000
0010
0002
0000
,  // measure 65
0000
0000
0000
0000
0000
0000
0003
1001
,  // measure 66
0000
1010
0000
0000
0110
0000
0000
0110
0000
0000
0101
0000
1000
0000
0010
0000
,  // measure 67
1000
0000
0010
0000
0010
0000
0000
1010
0000
0000
0000
0000
0100
0000
0001
0000
,  // measure 68
0100
0000
0001
0000
0000
0000
0001
0000
0100
0000
0000
0101
0000
0000
1000
0000
,  // measure 69
0010
0000
0000
1010
0000
0000
0100
0000
0010
0000
0000
0110
0000
0000
0001
0000
,  // measure 70
0100
0001
0100
0010
0100
1000
0002
0000
,  // measure 71
0023
0000
0000
0000
0100
0000
0000
0100
0000
0000
0100
0000
0130
0000
0000
0100
,  // measure 72
0000
0000
0110
0000
0000
0000
1000
0000
0010
0000
0000
1010
0000
0000
0100
0000
,  // measure 73
0001
0000
0000
0101
0000
0000
1000
0000
0010
0000
0000
0000
1010
0000
0000
0101
,  // measure 74
0000
0000
1010
0000
0000
0110
0000
0000
0101
0000
0000
0000
2002
0000
0000
0000
,  // measure 75
0000
0000
0000
0000
,  // measure 76
0000
0000
0000
0000
,  // measure 77
3003
0000
0000
0000
;
