#TITLE:ΣgØ;
#SUBTITLE:;
#ARTIST:かぼちゃ;
#TITLETRANSLIT:Ego;
#SUBTITLETRANSLIT:;
#ARTISTTRANSLIT:Kabocha;
#CREDIT:;
#BANNER:EgO BN.png;
#BACKGROUND:EgO BG.png;
#LYRICSPATH:;
#CDTITLE:CDTITLE.png;
#MUSIC:EgO.ogg;
#OFFSET:0.400;
#SAMPLESTART:26.260;
#SAMPLELENGTH:15.000;
#SELECTABLE:YES;
#BPMS:0.000=236.001,200.000=118.001,260.000=59.000,262.000=236.001;
#STOPS:103.000=0.280
;
#BGCHANGES:;

//---------------dance-single - ----------------
#NOTES:
     dance-single:
     :
     Challenge:
     19:
     0.973,1.000,0.458,0.033,0.736: // measure 1
0000
0000
0000
0000
,  // measure 2
0000
0000
0000
0000
,  // measure 3
0000
0000
0000
0000
,  // measure 4
0000
0000
0000
0000
,  // measure 5
0000
0000
0000
0000
,  // measure 6
0000
0000
0000
0000
,  // measure 7
0000
0000
0000
0000
,  // measure 8
0000
0000
0000
0000
,  // measure 9
0000
0000
0000
0000
,  // measure 10
0000
0000
0000
0000
,  // measure 11
0000
0000
0110
0000
0000
0101
0000
0000
,  // measure 12
1010
0000
0000
0110
0000
0000
0001
0010
,  // measure 13
0100
1000
1010
0000
0000
0110
0000
0000
,  // measure 14
0101
0000
0000
1000
0000
0000
1000
0010
,  // measure 15
0100
0001
0101
0000
0000
1001
0000
0000
,  // measure 16
1010
0000
0000
0101
0000
0000
0001
0100
,  // measure 17
0010
1000
1010
0000
0000
0110
0000
0000
,  // measure 18
0101
0000
0000
1010
0000
0000
0100
0010
,  // measure 19
0100
0000
0010
0000
0110
0000
0100
0010
0100
0010
0100
0000
0010
0000
0100
0000
,  // measure 20
1000
0000
0100
0000
0001
0000
0010
0000
1000
0100
1000
0100
1000
0000
0100
0000
,  // measure 21
0010
0000
0001
0000
0100
0000
0001
0000
0100
0001
0100
0001
0100
0000
0010
0000
,  // measure 22
0100
0000
1000
0000
0010
0000
0100
0010
0100
0000
0010
0000
0100
0000
0010
0000
,  // measure 23
0001
0000
0100
0000
0010
1000
0010
0000
0100
0000
0010
0000
0001
0000
0100
0000
,  // measure 24
1000
0010
1000
0000
0100
0000
0010
0000
0001
0000
0100
0000
0001
0100
0001
0000
,  // measure 25
0010
0000
0100
0000
1000
0000
0010
0000
0100
0010
0100
0000
0010
0000
0100
0000
,  // measure 26
0010
0100
0010
0100
0010
0000
0100
0000
0010
0000
1000
0001
1000
0000
0000
0000
,  // measure 27
1000
0001
1000
0000
0100
0000
0010
0000
0001
0000
0010
0000
0100
0010
0100
0000
,  // measure 28
1000
0000
0010
0000
0001
0000
0100
0000
0001
0100
0001
0000
0100
0000
0010
0000
,  // measure 29
0001
1000
0001
0000
1000
0000
0010
0000
0100
0000
0001
0000
1000
0010
1000
0000
,  // measure 30
1000
0001
1000
0000
0001
0100
0001
0000
0100
0010
0100
0000
0010
0100
0010
0000
,  // measure 31
1000
0010
1000
0000
0001
0000
0100
0000
1000
0000
0010
0000
0100
0010
0100
0000
,  // measure 32
0010
0000
0100
0000
1000
0000
0001
0000
0010
0000
0100
0000
1000
0001
1000
0000
,  // measure 33
0100
0001
0100
0000
1000
0000
0010
0000
0100
0010
0100
0000
0010
0000
0100
0000
,  // measure 34
0100
0001
0100
0000
0010
0000
1000
0000
0010
0000
0100
0000
1000
0000
0001
0000
,  // measure 35
0100
0010
0100
0000
0010
0000
0100
0000
1000
0000
0001
0000
1000
0001
1000
0000
,  // measure 36
0100
0000
0010
0000
0001
0000
0100
0000
1000
0010
1000
0000
0100
0000
0001
0000
,  // measure 37
0100
0001
0100
0000
0001
0000
0010
0000
1000
0000
0100
0000
0010
0100
0010
0000
,  // measure 38
0100
0001
0100
0000
0010
0100
0010
0000
1000
0010
1000
0000
1000
0001
1000
0000
,  // measure 39
0001
0000
0100
0000
0010
0000
1000
0000
0001
0000
0010
0000
0100
0010
0100
0000
,  // measure 40
0010
0000
0100
0000
1000
0000
0001
0000
0100
0000
0001
0000
0010
0001
0010
0000
,  // measure 41
1000
0000
0010
0000
1000
0010
1000
0000
0100
0000
0001
0000
0010
0000
1000
0000
,  // measure 42
0001
0100
0010
0100
1000
0001
0100
0010
,  // measure 43
1000
0010
1000
0100
0010
0001
0010
0001
,  // measure 44
0010
0001
0010
0100
1000
0100
1000
0100
,  // measure 45
1000
0100
0010
0001
0010
0001
0010
0001
,  // measure 46
0010
0100
1000
0100
1000
0100
1000
0100
,  // measure 47
1000
0010
1000
0010
1000
0010
1000
0001
,  // measure 48
1000
0001
1000
0010
1000
0010
1000
0001
,  // measure 49
1000
0001
1000
0001
1000
0001
1000
0001
1000
0001
1000
0001
1000
0001
1000
0001
,  // measure 50
2000
0000
0000
0000
,  // measure 51
3001
0000
1000
0001
1000
0001
0010
0000
1001
0000
0001
0100
0001
0100
0001
0000
,  // measure 52
0101
0000
1000
0010
1000
0010
1000
0000
1001
0000
0001
0000
1001
0000
1000
0000
,  // measure 53
1001
0000
1000
0010
1000
0010
0100
0000
0001
0000
0001
0100
0001
0100
0010
0000
,  // measure 54
1000
0000
0010
1000
0010
1000
0100
0000
0110
0000
0010
0000
0110
0000
0010
0000
,  // measure 55
1000
0010
1000
0010
0100
0001
0100
0001
0010
0100
0010
0100
1000
0001
1000
0001
,  // measure 56
0100
0001
0100
0001
0010
1000
0010
1000
0100
0001
0100
0001
0010
1000
0010
1000
,  // measure 57
0100
0001
0100
0001
0010
0100
0010
0100
1000
0001
1000
0001
0100
0001
0100
0001
,  // measure 58
0100
0010
0100
0010
0100
1000
0100
1000
0100
0010
0100
0010
0100
0010
0100
0010
,  // measure 59
0200
0000
0000
0000
,  // measure 60
0000
0000
0000
0000
,  // measure 61
0000
0000
0000
0000
,  // measure 62
0000
0000
0000
0000
0000
0000
0000
0000
0000
0000
0000
0000
0300
0000
0010
0100
,  // measure 63
0010
0000
1000
0000
0001
0000
1000
0000
1000
0000
0010
1000
0010
0000
0100
0000
,  // measure 64
0001
0000
0100
0000
0001
0000
0010
0100
0010
0000
0001
0000
0100
0000
0001
0000
,  // measure 65
0100
0000
0010
0100
0010
0000
1000
0000
0001
0000
0100
0000
1000
0001
1000
0000
,  // measure 66
1000
0001
1000
0001
1000
0001
1000
0001
1001
0000
0000
0110
0000
0000
0101
0000
,  // measure 67
0110
0000
0000
0000
1001
0000
0000
1010
0000
0000
0000
0000
1010
0000
0000
0000
,  // measure 68
0101
0000
0000
1010
0000
0000
0110
0000
0000
0011
0000
0000
1010
0000
0000
0000
,  // measure 69
0000
0000
0000
0000
,  // measure 70
0000
0000
0000
0000
0000
0000
0000
0000
0100
0010
0100
0000
0010
0000
0001
0000
,  // measure 71
1000
0001
1000
0000
0100
0000
0001
0000
0100
0001
0100
0000
0010
0000
1000
0000
,  // measure 72
1000
0100
1000
0000
0100
0000
0001
0000
0100
0001
0100
0000
0010
0000
1000
0000
,  // measure 73
0100
0010
0100
0000
0010
0000
0001
0000
1000
0010
1000
0000
0100
0000
0001
0000
,  // measure 74
0100
0010
0100
0010
0100
0010
0100
0010
0100
0010
0100
0000
0001
0000
0100
0000
,  // measure 75
0010
0100
0010
0000
0100
0000
1000
0000
0100
0001
0100
0000
0010
0000
1000
0000
,  // measure 76
0100
0010
0100
0000
0010
0000
0001
0000
0100
0001
0100
0000
0010
0000
1000
0000
,  // measure 77
1000
0010
1000
0000
0100
0000
0010
0000
0100
0001
0100
0000
0001
0000
0100
0000
,  // measure 78
1000
0100
1000
0000
0100
0000
0010
0000
0001
0100
0001
0000
1000
0000
0010
0000
,  // measure 79
0100
0010
0100
0000
0010
0000
1000
0000
1000
0010
1000
0000
0100
0000
0001
0000
,  // measure 80
0001
0100
0001
0000
0010
0000
0100
0000
0010
0100
0010
0000
1000
0000
0001
0000
,  // measure 81
0100
0001
0100
0000
0010
0000
0001
0000
0001
0100
0001
0000
0010
0000
1000
0000
,  // measure 82
0010
1000
0010
0000
0100
0000
0010
0000
0100
0010
0100
0000
0010
0000
0100
0000
,  // measure 83
0010
0100
0010
0100
0010
0100
0010
0100
0010
0000
0100
0000
0001
0000
0100
0000
,  // measure 84
1000
0000
0010
0000
1000
0010
1000
0000
0100
0000
0001
0000
1000
0100
1000
0000
,  // measure 85
0100
0000
0001
0000
0100
0001
0100
0000
0010
0000
1000
0000
0100
0010
0100
0000
,  // measure 86
0001
0000
0100
0000
1000
0010
1000
0000
1010
0000
0000
0000
1000
0010
1000
0010
,  // measure 87
1000
0000
0010
0000
0100
0000
0001
0000
0010
0000
1000
0000
0100
0001
0100
0000
,  // measure 88
0010
0100
0010
0000
1000
0010
1000
0000
1000
0000
0010
0000
0100
0001
0100
0000
,  // measure 89
0010
0100
0010
0000
1000
0010
1000
0000
0100
0000
0010
0000
0100
0001
0100
0000
,  // measure 90
0010
1000
0010
0000
0100
0010
0100
0000
0100
0001
0100
0000
1000
0010
1000
0000
,  // measure 91
0100
0010
0100
0000
0010
0001
0010
0000
1001
0000
1000
0000
0001
0100
0001
0000
,  // measure 92
1000
0010
1000
0000
0100
0010
0100
0000
0010
0001
0010
0000
0001
0000
1000
0000
,  // measure 93
0010
0100
0010
0000
0100
0000
0001
0000
0001
0100
0001
0000
0010
1000
0010
0000
,  // measure 94
0100
0010
0100
0000
0001
0000
0100
0000
1001
0000
0000
1010
0000
0000
1010
0000
,  // measure 95
0110
0000
0000
0101
0000
0000
0110
0000
0110
0000
0000
0101
0000
0000
0101
0000
,  // measure 96
1001
0000
0000
0110
0000
0000
1010
0000
0110
0000
0000
0101
0000
0000
0101
0000
,  // measure 97
0110
0000
0000
0101
0000
0000
1001
0000
1000
0001
1000
0001
1000
0001
1000
0010
,  // measure 98
1000
0010
1000
0100
1000
0100
1000
0100
1000
0000
0000
0000
0000
0000
0000
0000
,  // measure 99
2002
0000
0000
0000
,  // measure 100
0000
0000
0000
0000
,  // measure 101
0000
0000
0000
0000
,  // measure 102
0000
0000
0000
0000
,  // measure 103
3003
0000
0000
0000
;
