#TITLE:Domino Game;
#SUBTITLE:;
#ARTIST:Kiss&Cry;
#TITLETRANSLIT:;
#SUBTITLETRANSLIT:;
#ARTISTTRANSLIT:;
#CREDIT:;
#BANNER:Domino Game BN.png;
#BACKGROUND:Domino Game BG.png;
#LYRICSPATH:;
#CDTITLE:CDTITLE.png;
#MUSIC:Domino Game.ogg;
#OFFSET:0.220;
#SAMPLESTART:67.580;
#SAMPLELENGTH:12.000;
#SELECTABLE:YES;
#BPMS:0.000=118.000;
#STOPS:;
#BGCHANGES:0.438=Domino Game.avi=1.000=1=1=0,
99999=-nosongbg-=1.000=0=0=0 // don't automatically add -songbackground-
;

//---------------dance-single - ----------------
#NOTES:
     dance-single:
     :
     Hard:
     12:
     0.532,0.530,0.305,0.274,0.184:
0000
0000
0000
0000
,
0000
0000
0000
0000
,
0000
0000
0000
0000
,
0000
0000
0000
0000
,
0000
0000
0000
0000
0000
0000
0000
0000
1000
0000
0010
0000
1000
0000
0000
0010
,
0000
0001
2000
0000
3001
0010
0102
0000
,
2003
0000
0000
0000
3020
0000
0000
0000
0030
0000
0000
0000
1000
0000
0000
0001
,
0010
1000
0010
0000
0100
0000
1002
0000
,
0203
0000
2300
0000
3020
0000
1030
1000
,
0001
0000
0100
0000
0010
0000
1000
0000
0010
1000
0010
0000
1010
0000
1000
0000
,
0100
0000
0001
0000
0010
0000
2000
3000
0002
0003
0020
0030
2000
3000
0001
0000
,
0100
0000
0001
0000
1000
0000
0010
0000
0010
0100
0010
0000
1000
0000
0001
0000
,
1000
0000
0100
0000
0001
0000
0100
0000
1000
0100
0000
0000
1001
0000
1000
0000
,
0100
0000
0001
0000
1000
0000
0001
0000
0100
0010
0100
0000
0110
0000
1000
0000
,
0001
0100
0001
2000
3002
0203
0320
0130
,
1000
0000
0010
0000
0001
0000
0100
0000
1000
0001
1000
0000
0010
0000
0100
0000
,
0001
1000
0010
0001
1001
0000
1010
1000
,
0010
0000
0100
0000
0001
0010
0100
0000
1000
0000
0010
0000
0100
0000
0001
0000
,
1000
0010
0100
0000
0110
0100
0010
1000
,
0010
0000
0100
0000
1000
0100
0010
0000
0001
0000
1000
0000
0010
0000
0100
0000
,
0001
1000
0001
0100
0101
0000
0110
1000
,
0010
0000
0100
0000
0001
0000
0010
0000
0100
0000
1000
0000
0001
0010
1000
0000
,
0010
0000
0100
0000
1000
0000
0001
0000
0101
0000
0001
0000
0101
0000
0000
0110
,
0000
0000
1000
0000
1010
0000
0000
0110
0000
0000
0001
0000
0101
0000
0000
1001
,
0000
1000
0010
0100
0001
0100
1001
1000
,
0010
0100
0001
0010
0110
0000
0100
1000
,
0010
0000
0001
0000
0100
0000
1000
0000
0001
0000
0100
0000
0001
0000
0000
1000
,
0010
0000
0100
0000
0001
0000
0000
0001
0100
0000
0010
0000
1000
0000
0000
0100
,
0010
0000
1000
0000
0001
0000
0000
0001
1000
0000
0100
0000
0010
0000
0000
1000
,
0001
0000
0100
0000
0010
0000
1000
0000
0001
0000
0000
0000
1001
0000
0010
0100
,
0010
0000
1000
0000
0010
0000
1000
0000
0001
0000
0100
0000
0010
0000
0000
1000
,
0010
0000
0100
0000
0010
0000
0001
0000
1000
0000
0010
0000
0100
0000
0000
1000
,
0010
0000
0100
0000
0001
0000
0000
1000
0010
0000
0100
0000
0002
0000
0000
0000
,
0203
0000
0000
0000
0302
0000
1003
0000
0010
0000
0100
0000
1000
0000
0000
0010
,
0000
0000
1000
0000
0001
0000
0000
0000
1001
0000
0000
0000
0001
0000
0000
0010
,
0000
0000
1000
0000
0010
0000
0000
0000
1010
0000
0000
0000
1000
0000
0000
0010
,
0100
0000
1000
0000
1001
0000
0000
0000
1010
0000
0000
0000
1000
0000
0000
0100
,
0001
0000
0001
0000
1001
0000
0000
0000
1000
0000
0010
0000
1000
0000
0000
0010
,
0000
0000
0100
0000
0010
0000
0000
0000
0001
0000
0000
0000
2000
0000
0000
3000
,
0002
0000
0000
0003
0200
0000
0000
0000
0310
0000
0000
0000
1000
0000
0000
0001
,
1000
0000
0010
0000
0100
0000
0000
0000
0001
0000
1000
0000
0010
0000
0000
0100
,
0000
0000
0001
0000
1000
0000
0000
0010
0000
0000
0100
0000
0001
0000
1000
0010
,
1000
0010
0000
0000
0101
0000
0000
1010
0000
0000
0001
0000
0101
0000
0100
0000
,
0010
0000
0001
0000
0010
0000
0100
0000
0010
0100
0010
0000
1000
0000
0100
0000
,
0001
0100
0100
2000
3002
0203
0320
0031
,
1000
0000
0001
0000
0100
0000
0010
0000
1000
0010
1000
0000
1010
0000
0000
0000
;

//---------------dance-single - ----------------
#NOTES:
     dance-single:
     :
     Medium:
     8:
     0.346,0.361,0.095,0.116,0.037:
0000
0000
0000
0000
,
0000
0000
0000
0000
,
0000
0000
0000
0000
,
0000
0000
0000
0000
,
0000
0000
0000
0000
0000
0000
0000
0000
1000
0000
0010
0000
1000
0000
0000
0010
,
0000
1000
0200
0000
0310
0000
0002
0000
,
2003
3020
0030
1000
,
0010
0001
0010
0000
0100
0000
2000
0000
,
3020
0000
0230
0000
0302
0000
1003
0100
,
0010
0000
0010
0100
0010
0100
0010
0000
,
0100
0000
0010
1000
0001
1000
0001
0010
,
0100
0000
0100
0001
0100
0001
0100
0000
,
0100
0000
0000
0000
,
0000
0000
0000
0000
,
0000
0000
0000
0000
,
0000
0000
0000
0000
,
0000
0000
0000
0000
0000
0000
1000
0100
,
0010
0001
0010
0100
1000
0000
1000
0000
,
1000
0010
1000
0000
1010
0000
0010
0001
,
0010
0100
0010
0000
0010
0000
0100
1000
,
0100
0010
0100
0000
0101
0000
0001
1000
,
0100
0010
0001
0100
0001
0000
0001
0000
,
1000
0000
0100
0000
0010
0000
0001
0000
0010
0000
0100
0000
1000
0000
0000
0010
,
0000
0000
1000
0000
0001
0000
0000
0100
0000
0000
0010
0000
0100
0000
0000
0001
,
0000
0100
1000
0100
0010
0000
0001
1000
,
0010
1000
0010
0000
0010
0000
1000
0100
,
0010
0001
0010
0000
0010
0000
1000
0010
,
0001
0000
0001
0010
1000
0000
1000
0010
,
0001
0000
0001
0010
1000
0000
1000
0100
,
0010
0001
1000
0000
1000
0000
0001
1000
,
0100
0010
0001
0000
0001
0000
1000
0100
,
0001
0000
0001
0100
1000
0000
1000
0100
,
0001
0000
0001
0100
1000
0000
2000
0000
,
3002
0000
0203
0000
0000
0000
0310
0100
,
0010
0000
0010
0000
0110
0000
0100
0010
,
0100
0000
0100
0000
0110
0000
0010
0100
,
0010
0000
0010
0000
1010
0000
1000
0001
,
1000
0000
0001
0000
0001
0000
1000
0010
,
1000
0000
1000
0000
1010
0000
0100
0001
,
0100
0000
0001
0000
0101
0000
0001
1000
,
0001
0000
0000
0000
0001
0000
0000
0000
1000
0000
0001
0000
1000
0000
0000
0010
,
0000
0000
0100
0000
0010
0000
0000
0001
0000
0000
1000
0000
0001
0000
0010
0000
,
0100
0000
1000
0000
0001
0000
0000
0100
0000
0000
1000
0000
0001
0000
0010
0000
,
0100
0000
0100
0010
1000
0010
1000
0000
,
0001
0000
0100
0010
0001
1000
1001
0000
,
1000
0010
0001
0000
0001
0000
1001
0000
;

//---------------dance-single - ----------------
#NOTES:
     dance-single:
     :
     Easy:
     5:
     0.248,0.265,0.116,0.042,0.000: // measure 1
0000
0000
0000
0000
,  // measure 2
0000
0000
0000
0000
,  // measure 3
0000
0000
0000
0000
,  // measure 4
0000
0000
0000
0000
,  // measure 5
0000
0000
0000
0100
,  // measure 6
0100
0100
0000
0010
,  // measure 7
0010
0010
0000
1000
,  // measure 8
1000
1000
0000
0001
,  // measure 9
0001
0001
0001
1000
,  // measure 10
1000
0101
0000
0010
,  // measure 11
0010
0001
0100
0001
,  // measure 12
0001
0100
0010
1000
,  // measure 13
0100
0100
0000
0010
,  // measure 14
0010
0100
0000
0010
,  // measure 15
0010
0001
0010
1000
,  // measure 16
0100
0100
0010
0001
,  // measure 17
0001
0010
0100
1000
,  // measure 18
1000
1000
0010
0010
,  // measure 19
0010
1000
1000
1000
,  // measure 20
0001
0001
0001
1000
,  // measure 21
1000
1000
0010
0010
,  // measure 22
0010
0100
0100
0100
,  // measure 23
0001
0001
0001
0100
,  // measure 24
0000
0001
0000
1000
,  // measure 25
0000
0001
0000
0010
,  // measure 26
0010
0010
0100
0000
,  // measure 27
0001
0001
0001
1000
,  // measure 28
0010
1000
0010
1000
,  // measure 29
0010
1000
0010
0000
,  // measure 30
0001
0001
0001
1000
,  // measure 31
1001
1000
1000
0100
,  // measure 32
0001
0100
0001
0100
,  // measure 33
0001
0100
0001
2000
,  // measure 34
0001
0002
3003
0100
,  // measure 35
0100
0100
0110
0001
,  // measure 36
0001
0001
1001
1000
,  // measure 37
1000
1000
1010
0010
,  // measure 38
0010
0010
0011
0001
,  // measure 39
0001
0001
0101
0100
,  // measure 40
0100
0100
0110
0100
,  // measure 41
0100
0100
1100
0100
,  // measure 42
0100
0100
0101
0001
,  // measure 43
0001
0000
2002
0000
0000
3003
1000
0000
,  // measure 44
1000
0100
0000
0001
,  // measure 45
0001
0010
1000
1000
,  // measure 46
0100
0001
0010
0010
;

//---------------dance-single - Copied from----------------
#NOTES:
     dance-single:
     Copied from:
     Beginner:
     2:
     0.156,0.169,0.000,0.021,0.000:
0000
0000
0000
0000
,
0000
0000
0000
0000
,
0000
0000
0000
0000
,
0000
0000
0000
0000
,
0000
0000
0000
0100
,
0000
0100
0100
0001
,
0000
0001
0001
1000
,
0000
1000
1000
0010
,
0010
0010
0010
0100
,
0000
0100
0000
0001
,
0001
0001
0000
1000
,
0000
1000
0000
0001
,
0001
0001
0000
0100
,
0000
0100
0000
0010
,
0010
0010
0000
0100
,
0000
0100
0000
0001
,
0001
0001
0000
1000
,
0000
1000
0000
1000
,
0000
1000
1000
1000
,
0000
0001
0000
0001
,
0000
0001
0001
0001
,
0000
0010
0000
0010
,
0000
0010
0000
0100
,
0000
0100
0000
0100
,
0000
0100
0000
0010
,
0010
0010
0010
0000
,
0100
0100
0100
1000
,
0000
0001
0000
1000
,
0000
0001
0000
1000
,
0000
1000
0000
0010
,
0010
0000
0010
0100
,
0000
0010
0000
0100
,
0000
0010
0000
0200
,
0000
0000
0000
0301
,
0000
0001
0000
1000
,
0000
1000
0000
0001
,
0001
0001
0000
1000
,
1000
1000
0000
0010
,
0000
0010
0000
0100
,
0000
0100
0000
1000
,
1000
1000
0000
0001
,
0001
0001
0001
2000
,
0000
0000
0000
3001
,
0000
0001
0000
0001
,
0001
0000
1000
0000
,
1000
0000
1000
1000
;

//---------------dance-single - Copied from----------------
#NOTES:
     dance-single:
     Copied from:
     Challenge:
     12:
     0.507,0.506,0.274,0.284,0.184:
0000
0000
0000
0000
,
0000
0000
0000
0000
,
0000
0000
0000
0000
,
0000
0000
0000
0000
,
0000
0000
0000
0000
0000
0000
0000
0000
1000
0000
0010
0000
1000
0000
0000
0010
,
0000
0001
2000
0000
3001
MMMM
0102
0000
,
2003
0000
0000
0000
3020
0000
0000
0000
0030
0000
MMMM
0000
1000
0000
0000
0001
,
0010
1000
0020
0000
0130
MMMM
1002
0000
,
0203
0000
2300
0000
3020
0000
1030
MMMM
,
0001
0000
0100
0000
0010
0000
1000
0000
0010
1000
0010
0000
1010
0000
MMMM
0000
,
0100
0000
0001
0000
0010
0000
2000
3000
0002
0003
0020
0030
2000
3000
0001
0000
,
0100
0000
0001
0000
1000
0000
0010
0000
0010
0100
0010
0000
1000
0000
MMMM
0000
,
1000
0000
0100
0000
0001
0000
0100
0000
1000
0100
0000
0000
1001
0000
1000
0000
,
0100
0000
0001
0000
1000
0000
0001
0000
0100
0010
0100
0000
0110
0000
MMMM
0000
,
0001
0100
0001
2000
3002
0203
0320
0130
,
1000
0000
MMMM
0000
0001
0000
0100
0000
1000
0001
1000
0000
0010
0000
0100
0000
,
0001
1000
0010
0001
1001
0000
1010
MMMM
,
0010
0000
0100
0000
0001
0010
0100
0000
1000
0000
0010
0000
0100
0000
0001
0000
,
1000
0010
0100
MMMM
0110
0100
0010
1000
,
0010
0000
0100
0000
1000
0100
0010
0000
0001
0000
1000
0000
0010
0000
0100
0000
,
0001
1000
0001
0100
0101
MMMM
0110
1000
,
0010
0000
0100
0000
0001
0000
0010
0000
0100
0000
1000
0000
0001
0010
1000
0000
,
0010
0000
0100
0000
1000
0000
0001
0000
0101
0000
0001
0000
0101
0000
0000
0110
,
0000
0000
MMMM
0000
1010
0000
0000
0110
0000
0000
MMMM
0000
0101
0000
0000
1001
,
0000
1000
0010
0100
0001
0100
1001
MMMM
,
0010
0100
0001
0010
0110
MMMM
0100
1000
,
0010
0000
0001
0000
0100
0000
1000
0000
0001
0000
0100
0000
0001
0000
0000
1000
,
0010
0000
0100
0000
0001
0000
0000
0001
0100
0000
0010
0000
1000
0000
0000
0100
,
0010
0000
1000
0000
0001
0000
0000
0001
1000
0000
0100
0000
0010
0000
0000
1000
,
0001
0000
0100
0000
0010
0000
1000
0000
0001
0000
MMMM
0000
1001
0000
0010
0100
,
0010
0000
1000
0000
0010
0000
1000
0000
0001
0000
0100
0000
0010
0000
0000
1000
,
0010
0000
0100
0000
0010
0000
0001
0000
1000
0000
0010
0000
0100
0000
0000
1000
,
0010
0000
0100
0000
0001
0000
0000
1000
0010
0000
0100
0000
0002
0000
0000
0000
,
0203
0000
0000
0000
0302
0000
1003
0000
0010
0000
0100
0000
1000
0000
0000
0010
,
0000
0000
1000
0000
0001
0000
0000
0000
MMMM
0000
0000
0000
0001
0000
0000
0010
,
0000
0000
1000
0000
0010
0000
0000
0000
MMMM
0000
0000
0000
1000
0000
0000
0010
,
0100
0000
1000
0000
1001
0000
0000
0000
MMMM
0000
0000
0000
1000
0000
0000
0100
,
0001
0000
0001
0000
1001
0000
MMMM
0000
1000
0000
0010
0000
1000
0000
0000
0010
,
0000
0000
0100
0000
0010
0000
0000
0000
MMMM
0000
0000
0000
2000
0000
0000
3000
,
0002
0000
0000
0003
0200
0000
0000
0000
0310
0000
MMMM
0000
1000
0000
0000
0001
,
1000
0000
0010
0000
0100
0000
MMMM
0000
0001
0000
1000
0000
0010
0000
0000
0100
,
0000
0000
0001
0000
1000
0000
0000
0010
0000
0000
0100
0000
0001
0000
1000
0010
,
1000
0010
0000
0000
0101
0000
0000
1010
0000
0000
0001
0000
0101
0000
0100
0000
,
0010
0000
0001
0000
0010
0000
0100
0000
0010
0100
0010
0000
1000
0000
MMMM
0000
,
0001
0100
0100
2000
3002
0203
0320
0031
,
1000
0000
0001
0000
0100
0000
0010
0000
1000
0010
1000
0000
1010
0000
0000
0000
;
