#TITLE:Crazy For You;
#SUBTITLE:;
#ARTIST:DE DE MOUSE;
#TITLETRANSLIT:;
#SUBTITLETRANSLIT:;
#ARTISTTRANSLIT:;
#CREDIT:;
#BANNER:Crazy For You BN.png;
#BACKGROUND:Crazy For You BG.png;
#LYRICSPATH:;
#CDTITLE:CDTITLE.png;
#MUSIC:Crazy For You.ogg;
#OFFSET:0.680;
#SAMPLESTART:29.720;
#SAMPLELENGTH:15.000;
#SELECTABLE:YES;
#BPMS:0.000=138.000;
#STOPS:;
#BGCHANGES:;

//---------------dance-single - ----------------
#NOTES:
     dance-single:
     :
     Beginner:
     2:
     0.151,0.216,0.016,0.016,0.000:
0000
0000
0000
0000
,
0000
0000
0000
0000
,
0000
0000
0000
0000
,
0000
0000
0000
0000
,
0000
0000
0000
0000
,
0000
0000
0010
0010
,
0000
0000
0010
0010
,
0000
0000
1000
0000
,
1000
0000
1000
0000
,
0000
0000
0100
0000
,
0100
0000
0100
0000
,
0000
0000
0001
0000
,
0001
0000
0001
0000
,
0000
0000
0010
0010
,
0000
0000
0100
0100
,
0000
0000
0001
0001
,
0000
1000
1000
0000
,
0000
0000
0010
0000
,
0010
0000
0100
0000
,
0100
0000
0001
0000
,
0001
0000
1000
0000
,
1000
0000
0100
0000
,
0100
0000
0010
0000
,
0010
0000
0001
0000
,
0001
0000
0010
0000
,
0010
0000
0100
0000
,
0100
0000
1000
0000
,
1000
0000
0001
0000
,
0001
0000
0100
0000
,
0100
0000
0010
0000
,
0010
0000
0100
0000
,
0100
0000
0001
0000
,
0001
0000
1000
0000
,
1000
0000
0010
0000
,
0010
0000
0010
0000
,
0000
0010
1000
0000
,
1000
0000
1000
0000
,
1000
0000
0100
0100
,
0000
0000
0010
0010
,
0000
0000
0001
0001
,
0000
1000
1000
0000
,
0000
0000
0100
0000
,
0100
0000
0010
0000
,
0010
0000
0100
0000
,
0100
0000
0001
0001
,
0001
0001
0000
1000
,
0000
1000
0000
0010
,
0000
0010
0000
0100
,
0000
0001
0000
0100
,
0000
0000
0010
0000
,
0100
0000
0220
0000
,
0330
0000
0100
0000
,
0100
0000
0010
0000
,
0010
0000
0001
0000
,
0001
0000
1000
0000
,
1000
0000
0010
0000
,
0010
0000
1000
0000
,
1000
0000
0001
0000
,
0001
0000
0100
0100
,
0100
0100
0001
0000
,
0001
0000
1000
0000
,
1000
0000
0010
0000
,
0010
0000
0100
0000
,
0100
0000
0001
0000
,
0001
0000
0010
0000
,
0010
0000
1000
1000
,
1000
0001
0001
0001
,
0100
0010
0110
0000
;

//---------------dance-single - ----------------
#NOTES:
     dance-single:
     :
     Easy:
     6:
     0.316,0.298,0.289,0.128,0.000:
0000
0000
0000
0000
,
0000
0000
0000
0000
,
0000
0000
0000
0000
,
0000
0000
0000
0000
,
0000
0000
0000
0000
,
0000
0000
0100
0100
,
0100
0010
0010
0010
,
1000
1000
1000
0001
,
0001
0001
0010
0010
,
0010
0100
0100
0010
,
0100
0010
1000
0010
,
1000
0001
0100
0001
,
0100
1000
0100
0001
,
0010
0001
0100
0010
,
0100
1000
0010
1000
,
0100
0001
0100
0010
,
0100
0010
0220
0000
,
0330
0000
1000
1000
,
1000
1001
0001
0001
,
0001
0101
0100
0100
,
0100
0110
0010
0010
,
0010
1010
1000
1000
,
1000
1001
0001
0001
,
0001
0101
0100
0100
,
0100
0110
2002
0000
,
0000
3003
0100
0010
,
0100
0110
0001
1000
,
0001
1001
0001
0100
,
0001
0101
0010
1000
,
0010
1010
0100
1000
,
0100
1100
0100
0001
,
0100
0101
0010
0100
,
0010
0110
0000
0010
,
0010
1000
0100
0100
,
0100
0010
0010
0010
,
1000
1000
1000
0001
,
0001
0001
0100
0100
,
0100
0010
0010
0010
,
1000
1000
1000
0001
,
0001
0001
0100
0100
,
0100
0100
2002
0000
,
0000
3003
0100
0010
,
0100
0010
1000
0010
,
1000
0010
0100
0001
,
0100
0001
0202
0000
,
0000
0303
0001
1000
,
0001
1000
0100
0010
,
0100
0010
0001
0100
,
0001
0100
2020
0000
,
0000
3030
1000
1000
,
0001
0001
2002
0000
,
3003
0000
1000
1000
,
1000
1001
0001
0001
,
0001
0101
0100
0100
,
0100
0110
0010
0010
,
0010
1010
1000
1000
,
1000
1001
0001
0001
,
0001
0101
0100
0100
,
0100
0110
2020
0000
,
0000
3030
1000
1000
,
1000
1010
0010
0010
,
0010
0011
0001
0001
,
0001
1001
1000
1000
,
1100
0100
0100
0100
,
0100
0101
0001
0001
,
0001
1001
0220
0000
,
0000
0330
0100
0010
,
0100
0010
0110
0000
;

//---------------dance-single - Copied from----------------
#NOTES:
     dance-single:
     Copied from:
     Medium:
     10:
     0.521,0.568,0.008,0.096,0.144:
0000
0000
0000
0000
,
0000
0000
0000
0000
,
0000
0000
0000
0000
,
0000
0000
0000
0000
,
0000
0000
0000
0000
,
0000
0000
0000
0000
0010
0001
0010
0001
,
0000
0000
0100
0000
0000
0000
0010
0000
0100
0010
0000
0100
0000
0000
0000
0000
,
0000
0000
0000
0000
1000
0010
1000
0010
,
0000
0000
0100
0000
0000
0000
0001
0000
0100
0001
0000
0100
0000
0000
0000
0000
,
0000
0000
0000
0000
1000
0010
2000
0000
,
3000
0001
0100
0002
0000
0003
0000
0200
,
0000
0010
0310
0000
0100
0001
0200
0000
,
0300
0010
0001
0020
0000
0030
0000
2000
,
0000
0100
3100
0000
0100
0010
0100
0010
,
0000
0000
1000
0000
0000
0000
0010
0000
1000
0010
0000
1000
0000
0000
0000
0000
,
0010
0000
0100
0000
0100
0001
0100
0001
,
0000
0000
0000
0100
0000
0000
0001
0000
0000
0100
0000
0000
1000
0000
0001
0000
1000
0000
0001
0000
1000
0000
0001
0000
,
1000
0000
0000
0000
0001
0100
0001
1000
,
0001
0010
0100
0010
0100
1000
0001
0100
,
0001
0100
0010
1000
0010
0001
0010
0100
,
0010
1000
0100
0001
0100
0010
1000
0001
,
0100
0010
0001
0100
1000
0001
0100
0010
,
1000
0001
0100
0010
0001
0010
1000
0100
,
0001
0100
0010
1000
0001
0100
0010
1000
,
0001
0100
0010
1000
0001
0100
0010
0001
,
0100
0010
0001
0010
0100
1000
0010
0100
,
0010
0000
1000
0010
1000
0000
0001
0100
,
0001
0100
1000
0000
1000
0001
0100
0001
,
0100
0000
0010
0100
0010
0001
1000
0010
,
1000
0001
0100
0010
0001
0000
0001
1000
,
0001
1000
0100
0010
0100
0000
1000
0010
,
1000
0010
0100
0010
0001
0010
0100
0010
,
1000
0100
0001
0010
0100
1000
0100
0010
,
0001
0010
0100
0001
0010
0100
0020
0000
,
0030
1000
0001
2000
0000
3000
0000
0002
,
0000
0010
0013
0000
1000
0010
2000
0000
,
3000
0100
0001
0200
0000
0300
0000
0020
,
0000
0100
0130
0000
1000
0010
1000
0010
,
0000
0000
0010
0000
0000
0000
0100
0000
0010
0100
0000
0010
0000
0000
0001
0000
,
1000
0001
0100
0000
0001
0100
0001
0100
,
0000
0000
0000
0001
0000
0000
0000
0000
0000
0001
0000
0000
0010
0000
0100
0000
0010
0000
0100
0000
0010
0000
0100
0000
,
0010
0000
0000
0000
1000
0010
0100
0001
,
1000
0001
0100
0010
1000
0001
0100
0010
,
1000
0010
0100
0001
0100
0001
0100
0001
,
0010
0000
0000
0100
0000
0000
1000
0000
0000
0001
0000
0000
0100
0000
0001
0000
0100
0000
0001
0000
0100
0000
0001
0000
,
0100
0000
0001
0000
0100
0000
0001
0000
0100
0000
0001
0000
1000
0000
0000
0010
0000
0000
1000
0000
0000
0100
0000
0000
,
0001
0100
0010
1000
0001
0100
0010
1000
,
0001
0100
0010
0001
0001
1000
0001
0100
,
0010
1000
0010
0100
0001
0001
0100
1000
,
0001
0100
0010
1000
0001
1000
0001
0000
,
0100
0000
0000
0010
0000
0000
0100
0000
0000
0000
0000
0000
1000
0000
0010
0000
1000
0000
0010
0000
1000
0000
0010
0000
,
1000
0000
0010
0000
0100
1000
0010
0001
,
0100
1000
0001
0100
0010
1000
0010
0001
,
0100
1000
0001
0100
0010
0001
0010
1000
,
0100
0001
0100
1000
0001
0010
1000
0001
,
0100
0010
0001
0100
1000
0100
0001
0010
,
0001
0010
0100
1000
0001
0100
0010
1000
,
0010
0100
0001
0100
0001
0010
0100
1000
,
0100
0000
0000
0001
0000
0000
0010
0000
0000
1000
0000
0000
0001
0000
0100
0000
0001
0000
0100
0000
0001
0000
0100
0000
,
0001
0000
0100
0000
0001
0000
0100
0000
0001
0000
0100
0000
0001
0000
0000
0010
0000
0000
1000
0000
0000
0001
0000
0000
,
0100
0010
0001
1000
0001
0100
0010
1000
,
0001
0100
0010
0001
0010
0100
1000
0001
,
0100
0001
0100
0010
0001
1000
0100
0010
,
0001
0100
0010
1000
0001
0100
0010
0100
,
0001
1000
0001
0100
0001
1000
0010
0100
,
0001
0100
1000
1000
0001
1000
0001
1000
,
0001
1000
0001
1000
0001
1000
0001
1000
,
0001
1000
0001
1000
1001
0000
0000
0000
;

//---------------dance-single - Copied from----------------
#NOTES:
     dance-single:
     Copied from:
     Hard:
     14:
     0.646,0.649,0.297,0.160,0.505: // measure 1
0000
0000
0000
0000
,  // measure 2
0000
0000
0000
0000
,  // measure 3
0000
0000
0000
0000
,  // measure 4
0000
0000
0000
0000
,  // measure 5
0000
0000
0000
0000
,  // measure 6
0000
0000
0000
0000
1000
0010
0100
0001
,  // measure 7
0000
0000
1000
0000
0000
0000
0010
0000
0100
0001
0000
0100
0000
0000
1000
0000
,  // measure 8
0100
1000
0000
0000
0100
1000
0001
0100
,  // measure 9
0000
0000
1000
0000
0000
0000
0010
0000
1000
0010
0000
0200
0000
0000
0000
0000
,  // measure 10
0000
1300
0001
1001
1010
1010
2020
0000
,  // measure 11
3030
0101
0101
0202
0000
0303
0000
0100
,  // measure 12
0000
1000
0001
0000
0110
0110
0220
0000
,  // measure 13
0330
1001
1001
2002
0000
3003
0000
0100
,  // measure 14
0010
0010
1000
0001
1000
0010
0100
0002
,  // measure 15
0000
0000
1003
0000
0000
0000
0010
0000
0010
0001
0000
0100
0000
0000
1000
0000
,  // measure 16
0010
0100
0010
0001
1000
0010
0100
0001
,  // measure 17
0000
0000
0000
0100
0000
0000
0000
0000
0000
0010
0000
0000
0100
0000
0001
0000
0010
0000
0100
0000
1000
0000
0001
0000
,  // measure 18
0100
0000
0000
0000
0000
0000
0000
0000
1000
0000
0001
0000
0100
0000
0010
0100
,  // measure 19
0000
0100
0010
0000
0001
0000
0100
0000
1000
0000
0010
0000
0100
0000
0001
1000
,  // measure 20
0000
1000
0001
0000
0010
0000
1000
0000
0001
0000
0100
0000
0010
0000
1000
0010
,  // measure 21
0000
0010
1000
0000
0100
0000
0010
0000
1000
0000
0001
0000
1000
0000
0001
1000
,  // measure 22
0000
1000
0001
0000
0001
0000
0100
0000
0010
0000
0100
0000
1000
0000
0001
0100
,  // measure 23
0000
0100
0001
0000
1000
0000
0001
0000
0100
0000
0010
0000
0100
0000
1000
0010
,  // measure 24
0000
0010
1000
0000
0010
0000
0001
0000
0100
0000
0010
0000
1000
0000
0100
0001
,  // measure 25
0000
0000
0000
0001
0000
0000
0100
0000
0000
0000
0000
0000
0010
0000
0000
0000
0000
0000
1000
0000
0000
0000
0000
0000
0100
0000
0000
0000
0010
0000
0000
0000
1000
0000
0000
0000
0001
0000
0000
0000
0100
0000
0000
0000
0010
0000
0000
0000
,  // measure 26
0100
0000
0010
0000
1000
0000
0001
0000
0100
0000
0010
0000
0001
0000
0010
0100
,  // measure 27
0000
0100
0010
0000
0100
0000
0001
0000
1000
0000
0100
0000
0001
0000
0010
1000
,  // measure 28
0000
1000
0010
0000
0100
0000
0001
0000
0010
0000
1000
0000
0100
0000
0001
0010
,  // measure 29
0000
0010
0001
0000
0010
0000
1000
0000
0001
0000
0100
0000
0010
0000
0100
0010
,  // measure 30
0000
0010
0100
0000
0001
0000
1000
0000
0010
0000
0100
0000
0001
0000
0010
1000
,  // measure 31
0000
1000
0010
0000
0100
0000
0010
0000
0100
0000
0001
0000
0010
0000
1000
0010
,  // measure 32
0000
0010
1000
0000
0100
0000
0001
0000
0010
0000
1000
0000
0001
0000
0100
1000
,  // measure 33
0000
1000
0100
0000
0010
0000
0001
0000
1000
0000
0010
0000
0100
0000
0001
0000
,  // measure 34
0010
0100
1000
0010
1010
1010
2020
0000
,  // measure 35
3030
0101
0101
0202
0000
0303
0000
0020
,  // measure 36
0000
0130
0110
0000
1010
1010
2020
0000
,  // measure 37
3030
0101
0101
0202
0000
0303
0000
0020
,  // measure 38
0000
1030
1010
0000
0100
0010
1000
0001
,  // measure 39
0000
0000
1000
0000
0000
0000
0001
0000
0010
0100
0000
0010
0000
0000
1000
0000
,  // measure 40
0010
0001
0100
0001
1000
0010
0100
0001
,  // measure 41
0000
0000
0000
1000
0000
0000
0001
0000
0000
0010
0000
0000
1000
0000
0010
0000
0100
0000
0001
0000
0010
0000
1000
0000
,  // measure 42
0100
0000
0000
0000
0000
0000
0000
0000
1000
0000
0010
0000
0100
0000
0001
1000
,  // measure 43
0000
1000
0001
0000
1000
0000
0001
0000
0001
0000
1000
0000
0001
0000
0100
0010
,  // measure 44
0000
0010
0100
0000
0010
0000
0001
0000
0010
0000
1000
0000
0001
0000
0100
0001
,  // measure 45
0000
0000
0000
0001
0000
0000
0100
0000
0000
0000
0000
0000
0010
0000
0000
0000
0000
0000
0100
0000
0000
0000
0000
0000
1000
0000
0000
0000
0001
0000
0000
0000
0010
0000
0000
0000
1000
0000
0000
0000
0001
0000
0000
0000
0100
0000
0000
0000
,  // measure 46
0001
0000
0000
0000
1000
0000
0000
0000
0010
0000
0000
0000
0100
0000
0000
0000
0010
0000
0000
0000
0100
0000
0000
0000
0110
0000
0000
0000
0000
0000
1000
0000
0000
0000
0000
0000
0001
0000
0000
0000
0000
0000
0100
0000
0000
0010
0000
0000
,  // measure 47
0000
0010
0100
0000
0010
0000
1000
0000
0001
0000
0100
0000
0010
0000
1000
0001
,  // measure 48
0000
0001
1000
0000
0100
0000
0010
0000
0001
0000
0010
0000
1000
0000
0010
1000
,  // measure 49
0000
0000
0000
1000
0000
0000
0010
0000
0000
0000
0000
0000
0100
0000
0000
0000
0000
0000
0001
0000
0000
0000
0000
0000
1000
0000
0000
0000
0100
0000
0000
0000
0010
0000
0000
0000
0001
0000
0000
0000
0010
0000
0000
0000
0001
0000
0000
0000
,  // measure 50
1000
0000
0001
0000
1000
0000
0001
0000
1000
0000
0001
0000
1001
0000
0000
1001
0000
0000
1100
0000
0000
0000
0000
0000
,  // measure 51
1010
0000
0000
1010
0000
0000
1100
0000
0000
0000
0000
0000
1000
0000
0001
0000
0100
0000
0010
0000
1000
0000
0001
0000
,  // measure 52
0100
0000
0000
0000
0110
0000
0000
0000
1000
0000
0010
0000
0100
0000
0001
0100
,  // measure 53
0000
0100
0001
0000
0010
0000
0100
0000
0001
0000
0010
0000
0100
0000
1000
0010
,  // measure 54
0000
0010
1000
0000
0100
0000
0001
0000
0010
0000
1000
0000
0001
0000
0100
0001
,  // measure 55
0000
0001
0100
0000
0010
0000
1000
0000
0100
0000
0001
0000
0010
0000
0100
1000
,  // measure 56
0000
1000
0100
0000
0100
0000
0001
0000
0010
0000
0100
0000
1000
0000
0010
1000
,  // measure 57
0000
1000
0010
0000
0010
0000
0001
0000
0100
0000
0010
0000
1000
0000
0001
0100
,  // measure 58
0000
0100
0001
0000
0010
0000
1000
0000
0100
0000
0001
0000
0010
0000
1000
0001
,  // measure 59
0000
0000
0000
0001
0000
0000
1000
0000
0000
0000
0000
0000
0010
0000
0000
0000
0000
0000
1000
0000
0000
0000
0000
0000
0001
0000
0000
0000
0100
0000
0000
0000
0010
0000
0000
0000
1000
0000
0000
0000
0010
0000
0000
0000
0100
0000
0000
0000
,  // measure 60
0001
0000
0000
0000
0100
0000
0000
0000
0010
0000
0000
0000
0100
0000
0000
0000
1000
0000
0000
0000
0001
0000
0000
0000
1001
0000
0000
0000
0000
0000
1000
0000
0000
0000
0000
0000
0010
0000
0000
0000
0000
0000
0100
0000
0000
0001
0000
0000
,  // measure 61
0000
0001
0100
0000
0010
0000
1000
0000
0100
0000
0001
0000
0010
0000
1000
0100
,  // measure 62
0000
0100
1000
0000
0100
0000
0001
0000
0100
0000
0010
0000
1000
0000
0100
0010
,  // measure 63
0000
0010
0100
0000
0001
0000
1000
0000
0100
0000
0001
0000
0010
0000
1000
0001
,  // measure 64
0000
0001
1000
0000
0100
0000
0001
0000
0100
0000
1000
0000
0010
0000
0100
0010
,  // measure 65
0000
0010
0100
0000
1000
0000
0001
0000
0100
0000
0010
0000
1000
0000
0001
1000
,  // measure 66
0000
0000
0000
1000
0000
0000
0001
0000
0000
0000
0000
0000
0100
0000
0000
0000
0000
0000
0010
0000
0000
0000
0000
0000
0100
0000
0000
0000
0001
0000
0000
0000
0010
0000
0000
0000
1000
0000
0000
0000
0001
0000
0000
0000
0010
0000
0000
0000
,  // measure 67
0100
0000
0000
0000
0010
0000
0000
0000
1000
0000
0000
0000
0001
0000
0000
0000
0100
0000
0000
0000
0010
0000
0000
0000
0100
0000
0000
0001
0000
0000
0100
0000
0000
0000
0000
0000
1000
0000
0000
0001
0000
0000
1000
0000
0000
0000
0000
0000
,  // measure 68
0100
0010
0100
0000
0001
0100
0001
0000
1001
0000
0000
0000
0000
0000
0000
0000
;
