#TITLE:Bounce To This;
#SUBTITLE:;
#ARTIST:andrid52;
#TITLETRANSLIT:;
#SUBTITLETRANSLIT:;
#ARTISTTRANSLIT:;
#CREDIT:;
#BANNER:Bounce To This BN.png;
#BACKGROUND:Bounce To This BG.png;
#LYRICSPATH:;
#CDTITLE:CDTITLE.png;
#MUSIC:Bounce To This.ogg;
#OFFSET:0.320;
#SAMPLESTART:78.820;
#SAMPLELENGTH:15.900;
#SELECTABLE:YES;
#BPMS:0.000=128.000;
#STOPS:;
#BGCHANGES:;

//---------------dance-single - KOSIN#931----------------
#NOTES:
     dance-single:
     KOSIN#931:
     Challenge:
     13:
     0.439,0.454,0.733,0.152,0.181:
0000
0000
0000
0000
,
0000
0000
0000
0000
,
0000
0000
0000
0000
,
0000
0000
0000
0000
,
0000
0000
0000
0000
,
0000
0000
0000
0000
1000
0000
0000
0100
0000
0000
0010
0000
0000
0001
0000
0000
,
1000
0000
0000
0000
0001
0000
0000
0010
0000
0000
0100
0000
0000
1000
0000
0000
,
0001
0000
0000
0000
1000
0000
0000
0001
0000
0000
0100
0000
0000
0010
0000
0000
,
1000
0000
0000
0000
0001
0000
0000
1000
0000
0000
0010
0000
0000
0100
0000
0000
,
0001
0000
1000
0010
1000
0010
1000
0010
,
0001
0010
0001
0010
0100
0010
0100
0010
,
0100
0010
0100
0010
0001
0010
0100
1000
,
0100
0010
0001
0000
1001
0000
1010
0000
,
0101
0000
0000
0000
2000
0000
0000
0000
3020
0000
0000
0000
0230
0000
0000
0300
,
0002
0000
1003
MMMM
0101
MMMM
0110
MMMM
,
1010
MMMM
0101
MMMM
1010
MMMM
0110
MMMM
,
0101
MMMM
1001
MMMM
0101
MMMM
0110
MMMM
,
1010
MMMM
0102
0000
2003
0000
3200
0000
,
0302
0000
1003
MMMM
0101
MMMM
0110
MMMM
,
1010
MMMM
0101
MMMM
0110
MMMM
1010
MMMM
,
0101
MMMM
0011
MMMM
1010
MMMM
0101
MMMM
,
0110
MMMM
0110
0000
1010
0000
0100
1000
,
0100
0000
1100
MMMM
0101
MMMM
0110
MMMM
,
0101
MMMM
1010
MMMM
0101
MMMM
0110
MMMM
,
1010
MMMM
1001
MMMM
0101
MMMM
1010
MMMM
,
0101
MMMM
1002
0000
0203
0000
2300
0000
,
3020
0000
1030
MMMM
0101
MMMM
0110
MMMM
,
1010
MMMM
0101
MMMM
0110
MMMM
1001
MMMM
,
0101
MMMM
1010
MMMM
0110
MMMM
0101
MMMM
,
1010
0000
MMMM
0000
0100
0000
0000
0001
0000
0000
0100
0000
0000
0010
0000
0000
,
1000
0000
0000
0000
0010
0000
0000
0001
0000
0000
1000
0000
0000
0010
0000
0000
,
0100
0000
MMMM
0000
0010
0000
0000
0001
0000
0000
0100
0000
0000
0001
0000
0000
,
0100
0000
MMMM
0000
1000
0000
0000
0001
0000
0000
1000
0000
0000
0010
0000
0000
,
0100
0000
MMMM
0000
0100
0000
0000
0001
0000
0000
0010
0000
0000
0001
0000
0000
,
1000
0000
MMMM
0000
0100
0000
0000
0010
0000
0000
0100
0000
0000
1000
0000
0000
,
0001
0000
MMMM
0000
1000
0000
0000
0001
0000
0000
1000
0000
0000
0010
0000
0000
,
1000
0000
MMMM
0000
0100
0000
0000
0010
0000
0000
0001
0000
0000
0100
0000
0000
,
0001
0000
MMMM
0000
1000
0000
0000
0010
0000
0000
1000
0000
0000
0010
0000
0000
,
0001
0000
MMMM
0000
0100
0000
0000
0010
0000
0000
1000
0000
0000
0001
0000
0000
,
1000
0000
MMMM
0000
0100
0000
0000
0001
0000
0000
1000
0000
0000
0010
0000
0000
,
0100
MMMM
0100
0010
0100
0010
0001
0100
,
1000
0000
1000
0010
0100
0010
0100
0001
,
0100
0000
0110
MMMM
1010
MMMM
0110
MMMM
,
1010
MMMM
0101
MMMM
0110
MMMM
1001
MMMM
,
1010
MMMM
0101
MMMM
1010
MMMM
0110
MMMM
,
0101
0000
0000
0000
0100
0000
0000
0010
0000
0000
0100
0000
0000
1000
0000
0000
,
1010
0000
0110
MMMM
0101
MMMM
0011
MMMM
,
1010
MMMM
0110
MMMM
0101
MMMM
1010
MMMM
,
0110
MMMM
1001
MMMM
0110
MMMM
1010
MMMM
,
1001
MMMM
2000
0000
3002
0000
2003
0000
,
3020
0000
0000
0000
1030
0000
0000
0100
0000
0000
0010
0000
0000
0001
0000
0000
,
0010
0000
MMMM
0000
0001
0000
0000
0010
0000
0000
0100
0000
0000
1000
0000
0000
,
0010
0000
MMMM
0000
1000
0000
0000
0100
0000
0000
0010
0000
0000
0001
0000
0000
,
0010
0000
0000
0000
;
