#TITLE:Bad Elixir;
#SUBTITLE:;
#ARTIST:xi;
#TITLETRANSLIT:;
#SUBTITLETRANSLIT:;
#ARTISTTRANSLIT:;
#CREDIT:;
#BANNER:Bad Elixir BN.png;
#BACKGROUND:Bad Elixir BG.png;
#LYRICSPATH:;
#CDTITLE:CDTITLE.png;
#MUSIC:Bad Elixir.ogg;
#OFFSET:0.300;
#SAMPLESTART:44.860;
#SAMPLELENGTH:15.000;
#SELECTABLE:YES;
#BPMS:0.000=203.001;
#STOPS:;
#BGCHANGES:1.000=Bad Elixir.avi=1.000=1=1=0,
99999=-nosongbg-=1.000=0=0=0 // don't automatically add -songbackground-
;

//---------------dance-single - ----------------
#NOTES:
     dance-single:
     :
     Challenge:
     18:
     0.918,1.000,0.407,0.098,0.577:
0000
0000
0000
0000
,
0000
0000
0000
0000
,
0000
0000
0000
0000
,
0000
0000
0000
0000
,
0000
0000
0000
0000
,
0000
0000
0000
0000
,
0000
0110
0000
1000
,
0000
0010
0000
0100
,
0000
0001
0000
0100
,
0000
1000
0100
0001
,
0100
0000
1000
0000
0000
0010
0000
0000
,
1000
0000
0010
0000
0100
0001
0100
0000
,
0010
0000
0011
0000
1000
0100
1000
0000
,
0010
0000
0110
0000
0001
1000
0001
0000
,
0100
0000
0101
0000
1000
0010
1000
0000
,
0100
0001
0100
0000
0010
1000
0010
0000
,
0100
0000
1000
0010
1000
0010
1000
0010
,
1000
0000
0001
0000
1000
0000
0010
0000
0100
0001
0100
0001
0100
0001
0100
0001
,
0100
0001
0100
0001
0202
0000
0000
0000
0000
0000
0000
0000
0000
0000
0000
0000
,
0000
0000
0000
0000
,
0000
0000
0000
0000
0000
0000
0000
0000
0000
0000
0000
0000
0000
0303
0000
0000
,
0100
0000
0010
0000
1000
0000
0010
0000
0100
0000
0001
0000
1000
0100
0010
0000
,
0001
0010
0100
0000
1000
0000
0010
0000
0100
0000
0001
0000
0001
1000
0100
0000
,
0010
0100
1000
0000
0100
0000
0001
0000
1000
0000
0100
0000
0100
0010
0001
0000
,
1000
0010
0100
0000
0001
0000
1000
0000
0100
0000
0010
0000
0001
0100
1000
0000
,
1000
0010
0001
0000
1000
0000
0100
0000
0001
0000
0001
0000
1000
0010
0100
0000
,
0001
0100
1000
0000
0100
0000
0010
0000
1000
0000
0100
0000
0010
0100
1000
0000
,
0100
0010
0001
0000
1000
0000
0001
0000
0100
0000
1000
0000
0100
0010
0001
0000
,
0001
0010
0100
0000
1000
0000
0010
0000
0100
0000
0001
0000
0010
0100
1000
0000
,
1000
0010
0001
0000
1000
0000
0010
1000
0010
0000
0100
0000
0010
0000
0001
0000
,
0010
1000
0101
0000
0001
1000
0100
0010
,
0001
0100
0010
1000
0001
0100
0010
0001
,
0100
0010
1000
0100
0010
1000
0010
0001
,
0100
0001
0100
0001
0010
0100
1000
0001
,
0010
0000
0100
0000
1000
0000
0010
1000
0010
0000
0000
0000
0100
0000
0001
0000
,
0100
1000
0001
0010
1000
0100
0001
1000
,
0100
0001
0010
1010
0001
0010
0100
0101
,
1000
0000
0000
0100
0000
0000
0110
0000
0000
0000
0101
0000
0000
0000
0110
0000
0000
0000
1010
0000
0000
0000
0110
0000
,
0000
0000
0101
0000
0000
0000
1001
0000
0000
1000
0000
0000
0001
0000
0000
0100
0000
0000
0010
0000
0000
1000
0000
0000
,
0001
0000
0010
0000
1000
0010
1000
0000
0100
0001
0100
0000
0010
1000
0010
0000
,
0100
0010
0100
0000
0010
0001
0010
0000
1000
0000
0001
0000
0100
0000
0010
0000
,
1000
0000
0001
0000
1000
0010
0001
0000
1000
0000
0001
0000
0100
0000
0010
0000
,
1000
0100
0001
0010
1000
0100
0010
0001
,
1000
0001
0100
0010
0100
0001
1000
0010
,
1000
0001
1000
0000
0100
0001
0100
0000
0010
1000
0010
0000
0100
0010
0100
0000
,
0001
0100
0001
0000
1000
0010
1000
0000
0100
0010
0100
0000
0010
0001
0010
0000
,
1000
0100
1000
0000
0200
0000
0000
0000
0000
0000
0000
0000
0000
0000
0000
0000
,
0000
0302
0000
2003
,
0000
0000
3001
0100
0010
0001
1000
0100
,
0010
0001
0100
1000
0001
0100
0010
1000
,
0001
0100
0001
1001
1000
1100
0100
0110
,
0010
0011
0010
1010
1000
1100
0100
0101
,
0001
0101
0100
1100
0100
0110
0010
0011
,
0010
0000
0110
0000
0100
0000
0000
0110
0000
0000
0101
0000
0000
1010
0000
0000
,
0110
0110
0101
1000
0100
0010
0001
0010
,
1000
0000
0001
0000
0100
0000
0010
0000
0001
0000
0100
0000
0010
1000
0010
0000
,
0100
0001
0100
0000
0100
0010
0100
0000
0220
0000
0000
0000
0000
0000
0000
0000
,
0000
0000
0000
0330
,
0100
0000
0000
0000
0100
0010
0100
0010
0100
0010
0100
0010
0100
0010
0100
0010
,
0100
0010
0100
0010
0100
0010
0100
0010
0100
0010
0001
0010
0100
1000
0100
0010
,
0001
2001
0000
0010
,
0000
0001
0000
0010
,
0100
0001
0000
0100
,
0000
0010
0000
0100
,
0001
3020
0000
0001
,
0000
1000
0000
1000
,
0100
0001
0000
0001
,
0100
0000
0000
0000
1030
0000
0000
0000
1000
0000
0010
1000
0010
0000
0100
0000
,
0001
0000
0101
0000
1000
0010
1000
0100
,
0001
0000
0100
0000
1000
0010
1000
0000
0100
0001
0100
0000
0010
1000
0010
0000
,
0100
0000
0110
0000
1000
0001
0100
0010
,
1000
0000
0000
0000
0100
0001
0100
0000
0010
1000
0010
0000
0100
0010
0100
0000
,
0010
0000
0000
0000
0110
0000
0000
0000
1000
0010
1000
0000
0100
0001
0100
0000
,
0010
1000
0010
0000
0110
0000
0000
0000
1000
0001
1000
0000
0100
0001
0100
0000
,
0010
1000
0010
0000
0110
0000
0000
0000
0001
0010
0001
0000
1000
0100
1000
0000
,
0100
0010
0100
0000
0101
0000
0001
1000
0001
1000
0001
1000
0001
1000
0001
1000
,
0001
1000
0001
1000
0001
0000
0000
0000
1000
0000
0010
0000
1000
0000
0010
0000
,
0100
0000
1000
0000
0001
0000
0100
0000
0010
0000
0001
0000
1000
0010
1000
0000
,
0100
0010
0100
0000
0010
0001
0010
0000
1000
0000
0100
0000
0001
0000
0010
0000
,
1000
0000
0100
0000
0001
0010
0100
0000
1000
0100
0010
0000
0001
0010
0100
0000
,
1000
0100
0010
0000
0100
0000
0001
0000
0010
0000
0100
0000
1000
0000
0010
0000
,
0100
0000
0010
0000
0100
0001
0010
0000
1000
0100
0010
0000
0001
0010
0100
0000
,
1000
0010
0100
0000
0001
0000
0100
0000
1000
0000
0100
0000
0001
0000
0010
0000
,
1000
0000
0010
0000
1000
0001
1000
0000
0100
0001
0100
0000
0010
1000
0010
0000
,
0100
0010
0100
0000
0001
0000
0100
0000
1000
0000
0010
0000
0100
0000
0010
0000
,
0001
0000
0100
0000
1000
0010
0100
0000
0100
0001
1000
0000
0100
0010
1000
0000
,
0100
0001
0100
0000
0101
0000
0001
0000
0100
0000
1000
0000
0010
0000
0100
0000
,
0001
0000
0100
0000
1000
0010
1000
0000
0100
0010
0100
0000
0100
0001
0100
0000
,
1000
0010
1000
0000
0100
0000
0010
0000
1000
0000
0001
0000
0100
0010
0100
0000
,
1000
0010
1000
0000
1000
0010
1000
0010
1000
0100
1000
0100
1000
0100
1000
0100
,
1000
0010
1000
0010
2000
0000
0100
0000
0010
0000
0001
0000
0010
0000
0001
0000
,
0010
0001
0010
0100
0010
0001
0100
0010
,
0001
0010
0002
0000
0000
0000
0000
0000
,
0000
0000
0000
3003
,
1010
0000
0000
0000
0101
0000
1000
0000
0001
0010
0100
0000
1000
0100
0010
0000
,
0001
0000
0100
0000
1000
0000
0010
0000
0100
0001
0010
0000
0100
0010
0001
0000
,
1000
0000
0010
0000
0100
0000
0001
0000
0010
0100
1000
0000
0100
0001
0010
0000
,
0100
0100
1001
1010
0110
0101
0101
1010
,
0110
0000
1001
0000
1001
0000
1000
0000
0010
0100
1000
0000
1000
0100
0010
0000
,
0001
0000
0100
0000
1000
0000
0100
0000
0001
0100
1000
0000
1000
0100
0001
0000
,
0100
0000
1000
0000
0010
0000
0100
0000
1000
0100
0010
0000
0100
0010
0001
0000
,
1000
0000
0001
0000
0100
0000
0010
0000
1000
0001
0100
0000
0010
0100
0001
0000
,
1000
0100
1000
0000
0100
0010
0001
0000
0100
0010
0100
0000
0001
0100
0001
0000
,
1000
0010
1000
0000
0100
0000
0000
0000
2002
0000
0000
0000
0000
0000
0000
0000
,
0000
0000
0000
0000
,
3003
0000
0000
0000
1000
0010
1000
0010
1000
0010
1000
0010
0001
0010
0001
0010
,
0001
0010
0100
0010
0100
0010
0100
0010
0100
0001
0100
0001
0100
0001
0100
0001
,
0100
1000
0100
1000
0100
0000
0000
0000
0000
0000
0000
0000
0000
0000
0000
0000
;
