#TITLE:34+35;
#SUBTITLE:;
#ARTIST:Ariana Grande;
#TITLETRANSLIT:;
#SUBTITLETRANSLIT:;
#ARTISTTRANSLIT:;
#CREDIT:;
#BANNER:34+35 BN.png;
#BACKGROUND:34+35 BG.png;
#LYRICSPATH:;
#CDTITLE:CDTITLE.png;
#MUSIC:34+35.ogg;
#OFFSET:0.600;
#SAMPLESTART:89.440;
#SAMPLELENGTH:15.000;
#SELECTABLE:YES;
#BPMS:0.000=110.000;
#STOPS:;
#BGCHANGES:1.125=34+35.avi=1.000=1=1=0,
99999=-nosongbg-=1.000=0=0=0 // don't automatically add -songbackground-
;

//---------------dance-single - ----------------
#NOTES:
     dance-single:
     :
     Hard:
     8:
     0.408,0.384,0.292,0.217,0.025:
0000
0000
0000
0000
,
0000
0000
0000
0000
,
0000
0000
0000
0000
,
1000
0000
0000
0000
,
0000
0000
0000
0000
,
0110
0000
0100
0010
0100
0010
0100
0010
,
0110
0000
1000
0001
1000
0001
1000
0001
,
1001
0000
0000
0000
0100
0010
0000
0000
0010
0100
0000
0000
0100
0010
0000
0000
,
0020
0230
0302
2003
,
3010
0000
0100
0010
0001
0010
0100
0001
,
0101
0000
1000
0010
1000
0100
1000
0010
,
1010
0000
0100
0010
0100
0001
0100
0001
,
0010
0100
1000
0010
0100
0001
0101
0000
,
1001
0000
1000
0100
0010
0001
0100
0010
,
0110
0000
0001
0010
0100
1000
0010
0010
,
1010
0000
1000
0010
0100
0001
0100
0001
,
0101
0000
0001
0010
0100
1000
0010
0100
,
0110
0000
0010
0000
0010
0100
0010
1000
,
1010
0000
0001
0000
0100
0001
0100
0001
,
0101
0000
1001
0000
0100
0010
0100
0010
,
0200
0302
2003
3002
,
2003
0000
3001
0000
0100
0001
0100
0001
,
0101
0000
0010
0000
0010
1000
0010
1000
,
1010
0000
0010
0000
0010
0100
0010
0100
,
2000
3020
0230
0320
,
0130
0200
0001
0010
,
0001
0000
0010
0000
0001
0000
0301
0001
,
1001
0102
0010
0100
,
1000
0100
0010
0103
,
1001
0000
1000
0001
1000
0001
1000
0001
,
1001
0000
0100
0010
0100
0010
0100
0010
,
0110
0000
0000
0000
1000
0001
0000
0000
0001
1000
0000
0000
1000
0001
0000
0000
,
2000
0000
3020
0000
0230
0001
0301
0000
,
0101
0000
0001
1000
0010
0100
0010
0001
,
0101
0000
0010
0100
0010
1000
0010
1000
,
1001
0000
1000
0010
1000
0010
1000
0010
,
1000
0010
0100
0001
0010
0000
0011
0000
,
1001
0000
0100
0010
0100
0010
0100
0010
,
0110
0000
0001
0100
0001
0100
0001
0100
,
0101
0000
1000
0010
1000
0010
1000
0010
,
1010
0000
1000
0010
0100
0010
0100
0010
,
0110
0000
0010
0000
1000
0010
1000
0010
,
1010
0000
0010
0000
0100
0001
0100
0001
,
0101
0000
0001
0000
0100
0010
0100
0010
,
0200
0302
2003
3020
,
0130
0000
0010
0000
1000
0001
1000
0001
,
1001
0000
0001
0000
0100
0001
0100
0001
,
0101
0000
0001
0000
0100
1000
0100
1000
,
2100
3020
0230
0302
,
1003
0000
0010
0000
0100
0010
0001
0000
,
0001
0010
0100
0000
1000
0100
0010
0000
,
0100
0010
0001
0000
0000
0000
0000
0000
;

//---------------dance-single - ----------------
#NOTES:
     dance-single:
     :
     Challenge:
     13:
     0.515,0.489,0.250,0.317,0.300:
0000
0000
0000
0000
,
0000
0000
0000
0000
,
0000
0000
0000
0000
,
0000
0000
0000
0000
,
0000
0000
0000
0000
,
1000
0000
0000
0000
0010
1000
0100
0000
0010
0000
0100
0000
0001
0000
0010
0000
,
0011
0000
0000
0000
0100
0010
0001
0000
0001
0000
0100
0000
0010
0000
0010
0000
,
0110
0000
0000
0000
1000
0010
0000
0000
0010
0001
0000
0000
0001
1000
0000
0000
,
2001
3020
0230
0302
,
0103
0000
0000
0000
1000
0001
1000
0001
1000
0000
0010
0000
0100
0000
0001
0000
,
1001
0000
0000
0000
0010
1000
0010
1000
0010
0000
0100
0000
0001
0000
0100
0000
,
0101
0000
0000
0000
1000
0010
1000
0010
1000
0000
0100
0000
0001
0000
0100
0000
,
0010
0001
1000
0010
0100
0001
0010
0000
,
0110
0000
0000
0000
1000
0010
1000
0000
0100
0000
0001
0000
0100
0000
0100
0000
,
0101
0000
0000
0000
0001
1000
0001
0000
0100
0000
0010
0000
0001
0000
0001
0000
,
0101
0000
0000
0000
1000
0010
0000
0000
0010
0000
0010
0000
0020
0000
0000
0000
,
0130
0000
0100
0000
0100
0010
0100
0000
0010
0000
0001
0000
1000
0000
0100
0000
,
1010
0000
0000
0000
0101
0000
0000
0000
0100
0001
0000
0001
0100
0000
0001
0000
,
1000
0000
0100
0001
0010
0000
1000
0000
0010
0100
0000
0100
0010
0000
0100
0000
,
0001
0000
0100
0001
0100
0000
0010
0000
1000
0001
0000
0001
1000
0000
0100
0000
,
0002
1000
2003
0100
3200
0010
0320
0001
,
0031
0000
0000
0000
0101
0000
0000
0000
1000
0010
0000
0010
1000
0000
0100
0000
,
0001
0000
0100
0010
1000
0000
0100
0000
0010
0100
0000
0100
0010
0000
0100
0000
,
0001
0000
0100
0001
0100
0000
0010
0000
0001
1000
0000
1000
0001
0000
0100
0000
,
0002
1000
0203
0010
0320
0100
2030
0001
,
3001
2010
3020
0230
,
0302
0023
2030
3002
,
0103
1002
0203
2300
,
3002
0203
0320
0032
,
1003
0000
0000
0000
1000
0010
1000
0000
0100
0000
0001
0000
0100
0000
0100
0000
,
0101
0000
0000
0000
0001
0100
0001
0000
0100
0000
1000
0000
0010
0000
0010
0000
,
1010
0000
0000
0000
1000
0001
0000
0000
0001
1000
0000
0000
1000
0001
0000
0000
,
2001
0000
0000
0000
3020
0000
0000
0000
0230
0000
0000
0001
0301
0000
0000
0000
,
1001
0000
0000
0000
1000
0010
1000
0010
1000
0000
0001
0000
0010
0000
0100
0000
,
1010
0000
0000
0000
0100
0001
0100
0001
0100
0000
0010
0000
0001
0000
1000
0000
,
1001
0000
0000
0000
0010
0100
0010
0100
0010
0000
0001
0000
0010
0000
0100
0000
,
0010
0001
0010
0001
0010
0000
0001
0000
0100
0000
1000
0000
0010
0000
0100
0000
,
0110
0000
0000
0000
0100
0010
0100
0010
0100
0000
0001
0000
0010
0000
0100
0000
,
1010
0000
0000
0000
0100
0001
0100
0001
0100
0000
0010
0000
0001
0000
0100
0000
,
0101
0000
0000
0000
1000
0010
1000
0010
1000
0000
0100
0000
0001
0000
0100
0000
,
1000
0000
0000
0000
0100
0001
0100
0001
0100
0000
0010
0000
1000
0000
0010
0000
,
0110
0000
0000
0000
1001
0000
0000
0000
0001
0100
0000
0100
0001
0000
0001
0000
,
1001
0000
0100
0010
0001
0000
1000
0000
1000
0010
0000
0010
1000
0000
1000
0000
,
1010
0000
0100
0010
0100
0000
0010
0000
0100
1000
0000
1000
0100
0000
0010
0000
,
0002
0010
0203
0010
0302
1000
0203
0010
,
0301
0000
1000
0000
0100
0000
0010
0000
0010
0001
0000
0001
0010
0000
0100
0000
,
0001
0000
1000
0010
1000
0000
0100
0000
1000
0001
0000
0001
1000
0000
0100
0000
,
0001
0000
1000
0010
1000
0000
0100
0000
0001
0100
0000
0100
0001
0000
0010
0000
,
2000
0001
3020
0100
0230
0001
0302
1000
,
1003
0000
0000
0000
1010
0000
0000
0000
1000
0010
1000
0000
1001
0000
0100
0001
,
0000
0001
0100
0000
0100
0000
0000
0000
0010
0000
0000
0000
0110
0000
0000
0000
,
1001
0000
0000
0000
;

//---------------dance-single - ----------------
#NOTES:
     dance-single:
     :
     Medium:
     5:
     0.289,0.331,0.133,0.067,0.000:
0000
0000
0000
0000
,
0000
0000
0000
0000
,
0000
0000
0000
0000
,
0000
0000
0000
0000
,
0000
0000
0000
0000
,
1000
0000
0010
1000
0010
0000
0100
0010
,
0100
0000
0010
0001
0010
0000
1000
0010
,
1000
0000
0100
0010
0100
0010
0100
0010
,
0200
0302
2003
3020
,
0130
0000
1000
0010
1000
0000
1000
0100
,
0010
0000
0001
0100
0001
0000
0001
0010
,
0100
0000
0100
0010
0100
0000
0100
0000
,
0001
0010
0100
0010
0001
0000
0101
0000
,
0001
0000
1000
0100
1000
0000
1000
0100
,
0010
0000
0001
0100
0001
0000
0001
0010
,
0100
0000
1000
0010
1000
0000
0010
0100
,
1000
0000
1000
0100
0010
0100
1000
0000
,
0100
0010
0100
0001
,
0011
0000
1000
0001
,
0011
0010
0100
0001
,
0100
2000
0010
0010
,
3010
0000
0100
0010
,
0101
0000
0010
0100
,
1010
0000
0100
0010
,
0101
0002
1000
1000
,
1003
1000
0010
0001
,
0010
1000
0010
0001
,
0000
0001
0100
1000
,
0100
0001
0100
1000
,
0001
1000
0010
1010
,
0000
0100
0001
0101
,
0000
1000
0010
1000
,
0001
0100
0001
0100
,
0110
0000
1000
0010
1000
0000
1000
0100
,
0010
0000
0001
0100
0001
0000
0001
0010
,
0100
0000
1000
0010
1000
0000
0010
0000
,
1000
0100
0010
0100
1000
0000
0000
0000
,
0000
0000
0100
0001
0100
0000
0001
0010
,
0100
0000
1000
0100
1000
0000
1000
0100
,
0010
0000
0001
0010
0001
0000
0001
0010
,
0100
0000
0001
0010
0100
0010
0001
0000
,
1001
0000
0000
0000
1000
0010
1000
0000
,
1010
0000
0000
0000
1000
0010
1000
0000
,
1001
0000
0000
0000
0100
0001
0100
0000
,
0101
0002
0100
0100
,
0103
0000
0000
0000
1000
0001
1000
0000
,
1001
0000
0000
0000
0001
1000
0001
0000
,
1001
0000
0000
0000
1000
0010
1000
0000
,
1010
0200
0001
0001
,
0301
0001
1000
0001
,
0100
0000
0010
0100
,
0010
0001
0000
1000
,
0010
1000
0001
1000
,
0001
0000
0000
0000
;

//---------------dance-single - ----------------
#NOTES:
     dance-single:
     :
     Easy:
     3:
     0.181,0.191,0.000,0.033,0.000:
0000
0000
0000
0000
,
0000
0000
0000
0000
,
0000
0000
0000
0000
,
0000
0000
0000
0000
,
0000
0000
0000
0000
,
0000
0100
0100
0100
,
0000
0010
0010
0010
,
0000
1000
0001
1000
,
0002
1000
1000
1003
,
0000
0100
0100
0100
,
0000
0001
0001
0001
,
0000
1000
1000
1000
,
0010
0010
0010
0020
,
0030
0100
0100
0100
,
0000
0001
0001
0001
,
0000
1000
1000
1000
,
0000
0010
0010
0010
,
0000
0000
1000
0001
,
1000
0000
0100
0001
,
0100
0000
0010
1000
,
0010
0010
0010
0010
,
0010
0000
0100
0001
,
0100
0000
0010
1000
,
0010
0000
1000
0001
,
1000
1000
1000
1000
,
1000
0100
0010
0100
,
0010
0100
0010
0100
,
0000
0001
1000
0001
,
1000
0001
1000
0001
,
1000
0001
0001
0001
,
0000
1000
1000
1000
,
0000
0010
0010
0010
,
0200
0010
0010
0010
,
0310
1000
1000
1000
,
0000
0001
0001
0001
,
0000
0100
0100
0100
,
0001
0001
0001
0002
,
0003
1000
1000
1000
,
0000
0010
0010
0010
,
0000
0100
0100
0100
,
0000
0010
0010
0010
,
0000
0000
0100
0001
,
0100
0000
0010
1000
,
0010
0000
0100
0010
,
0100
0010
0010
0010
,
0010
0000
1000
0001
,
1000
0000
0100
0001
,
0100
0000
0100
0010
,
0100
0100
0100
0100
,
0100
0000
0010
0000
,
0100
0000
0010
0000
,
0100
0000
0000
0000
;

//---------------dance-single - Copied from----------------
#NOTES:
     dance-single:
     Copied from:
     Beginner:
     1:
     0.124,0.143,0.000,0.033,0.000: // measure 1
0000
0000
0000
0000
,  // measure 2
0000
0000
0000
0000
,  // measure 3
0000
0000
0000
0000
,  // measure 4
0000
0000
0000
0000
,  // measure 5
0000
0000
0000
0000
,  // measure 6
0000
0100
0000
0100
,  // measure 7
0000
0010
0000
0010
,  // measure 8
0000
0100
0000
0100
,  // measure 9
0001
0001
0001
0001
,  // measure 10
0000
1000
0000
1000
,  // measure 11
0000
0010
0000
0010
,  // measure 12
0000
0100
0000
0100
,  // measure 13
0000
0001
0000
0001
,  // measure 14
0000
1000
0000
1000
,  // measure 15
0000
0001
0000
0001
,  // measure 16
0000
0100
0000
0100
,  // measure 17
0000
0010
0000
0010
,  // measure 18
0000
0000
0100
0100
,  // measure 19
0100
0000
0001
0001
,  // measure 20
0001
0000
1000
1000
,  // measure 21
1000
2000
0000
0000
,  // measure 22
3000
0000
0100
0100
,  // measure 23
0100
0000
0010
0010
,  // measure 24
0010
0000
1000
1000
,  // measure 25
1000
0002
0000
0000
,  // measure 26
0003
0100
0000
0001
,  // measure 27
0000
0100
0000
0001
,  // measure 28
0000
0010
0000
1000
,  // measure 29
0000
0010
0000
1000
,  // measure 30
0000
0001
0000
0001
,  // measure 31
0000
1000
0000
1000
,  // measure 32
0000
0001
0000
0001
,  // measure 33
0001
0001
0001
0001
,  // measure 34
0000
1000
0000
1000
,  // measure 35
0000
0010
0000
0010
,  // measure 36
0000
0100
0000
0100
,  // measure 37
0000
0001
0000
0001
,  // measure 38
0000
0100
0000
0100
,  // measure 39
0000
1000
0000
1000
,  // measure 40
0000
0001
0000
0001
,  // measure 41
0000
0010
0000
0010
,  // measure 42
0000
0000
0001
0001
,  // measure 43
0001
0000
1000
1000
,  // measure 44
1000
0000
0001
0001
,  // measure 45
0001
0002
0000
0000
,  // measure 46
0003
0000
1000
1000
,  // measure 47
1000
0000
0001
0001
,  // measure 48
0001
0000
0100
0100
,  // measure 49
0100
0200
0000
0000
,  // measure 50
0300
0000
0000
0000
;
