#TITLE:Sorairo Days;
#SUBTITLE:Tengen Toppa Gurren Lagann OP;
#ARTIST:Shoko Nakagawa;
#TITLETRANSLIT:;
#SUBTITLETRANSLIT:;
#ARTISTTRANSLIT:;
#CREDIT:;
#BANNER:BANNER.png;
#BACKGROUND:BG.png;
#LYRICSPATH:LYRICS.lrc;
#CDTITLE:;
#MUSIC:Sorairo Days.mp3;
#OFFSET:0.000;
#SAMPLESTART:15.800;
#SAMPLELENGTH:16.000;
#SELECTABLE:YES;
#BPMS:0.000=173.980;
#STOPS:;
#BGCHANGES:-2.550=VID.avi=1.000=0=0=0,
256.000=BG.PNG=0.900=1=0=0,
99999=-nosongbg-=1.000=0=0=0 // don't automatically add -songbackground-
;

//---------------dance-single - ----------------
#NOTES:
     dance-single:
     :
     Hard:
     7:
     0.419,0.571,0.345,0.122,0.000: // measure 1
0000
0000
0000
0000
,  // measure 2
0000
0000
0000
0000
,  // measure 3
0000
0000
0000
0000
,  // measure 4
0000
0000
0000
0000
,  // measure 5
0000
0000
0000
1000
0100
0010
0001
0000
,  // measure 6
0000
0001
0010
0100
1000
0000
1000
0100
,  // measure 7
1000
1000
0000
1000
0100
0010
0100
1000
,  // measure 8
0000
1000
0100
0010
0001
0010
0110
0000
,  // measure 9
1100
0000
1000
0100
0010
0100
1000
1000
,  // measure 10
0000
0100
1000
0100
0010
0002
0000
0000
,  // measure 11
0000
0000
0000
0000
,  // measure 12
1003
0000
0110
0000
0000
0100
1000
0000
,  // measure 13
0000
1000
0000
0100
0000
0010
0100
0000
,  // measure 14
0000
0000
1000
0000
0000
0100
1000
0000
,  // measure 15
0001
0010
0000
0010
0001
0000
0011
0000
,  // measure 16
0000
0000
1000
0000
0000
0100
0010
0000
,  // measure 17
0000
0101
0000
0011
0000
0100
0010
0000
,  // measure 18
0000
0001
0010
0000
0010
0100
0000
0100
,  // measure 19
2000
0000
0000
0000
,  // measure 20
3000
0000
1000
0000
0000
0100
0010
0000
,  // measure 21
0000
0101
0000
1010
0000
0100
0001
0000
,  // measure 22
0000
0000
1000
0000
0000
0100
0010
0000
,  // measure 23
0001
0010
0000
0010
0100
0000
0110
0000
,  // measure 24
0000
0000
1000
0000
0000
0100
0001
0000
,  // measure 25
0000
1100
0000
0011
0000
0100
0010
0000
,  // measure 26
0000
1000
0100
0000
0000
0110
0000
0001
,  // measure 27
0010
1000
0000
0000
0000
0000
1000
0000
,  // measure 28
0100
0000
0010
0000
0001
0010
0100
0000
,  // measure 29
1000
0100
0000
0100
0010
0001
0010
0000
,  // measure 30
0000
1000
0100
0000
0010
0100
0000
0001
,  // measure 31
0000
1100
0000
0101
0000
0000
0000
0000
,  // measure 32
0000
0100
1000
0000
0100
0010
0001
0000
,  // measure 33
1000
0010
0000
0001
0010
1000
0010
0000
,  // measure 34
1000
0100
0010
0000
0000
0001
0020
0000
,  // measure 35
0000
0000
0000
0000
,  // measure 36
1030
0000
1100
0000
0100
0010
0000
0110
,  // measure 37
0000
1001
0000
0000
0000
0000
0000
0100
,  // measure 38
0010
0100
1000
0000
0010
0100
0000
1001
,  // measure 39
0000
0110
0000
0000
0000
0000
1000
0000
,  // measure 40
0001
0000
0100
0000
1000
0100
0000
0010
,  // measure 41
0000
1000
0000
0000
1000
0100
0000
0010
,  // measure 42
0000
1100
0000
0000
0000
0110
0000
0001
,  // measure 43
0010
0200
0000
0000
0000
0000
0300
0000
,  // measure 44
1010
0000
0011
0000
0001
0010
0000
0100
,  // measure 45
0000
0001
0000
0000
0000
0000
0000
0100
,  // measure 46
1000
0100
0010
0000
0001
0010
0000
1100
,  // measure 47
0000
0011
0000
0000
0000
0000
1000
0000
,  // measure 48
0100
0000
0010
0000
1000
0100
0000
0010
,  // measure 49
0000
1000
0000
0000
0100
0000
0010
0000
,  // measure 50
1000
0000
0011
0000
0000
1100
0000
0110
,  // measure 51
0000
2002
0000
0000
0000
0000
3003
0000
,  // measure 52
1000
0000
0100
0000
0010
0100
0000
0001
,  // measure 53
0000
2200
0000
0000
0000
0000
3300
0000
,  // measure 54
0001
0000
0010
0000
0100
0010
0000
1000
,  // measure 55
0000
0011
0000
0000
0000
0000
2000
0000
,  // measure 56
0000
0200
0000
0000
,  // measure 57
0000
0000
3300
0000
,  // measure 58
0000
0000
0000
0100
1000
0100
0010
0001
,  // measure 59
0000
0001
0010
0100
1000
0100
0010
0001
,  // measure 60
0010
0000
0001
0010
0001
0100
0001
1000
,  // measure 61
0000
0001
0010
0100
1000
0200
0000
0000
,  // measure 62
0000
0000
0000
0000
,  // measure 63
0000
0000
0000
0000
,  // measure 64
0000
0000
0000
0000
,  // measure 65
0000
0300
0000
0000
;

//---------------dance-single - ----------------
#NOTES:
     dance-single:
     :
     Medium:
     6:
     0.343,0.429,0.089,0.067,0.000:
0000
0000
0000
0000
,
0000
0000
0000
0000
,
0000
0000
0000
0000
,
0000
0000
0000
0100
,
1000
0001
0010
0010
,
1000
0100
0010
0001
,
0001
0010
0100
0001
,
0100
1000
0100
0001
,
0100
0000
1000
0100
1000
0100
1000
0100
,
0000
0010
0001
0010
0001
0020
0000
0000
,
0000
0000
0000
0000
,
0030
0000
1000
0000
0000
0100
0010
0000
,
0000
0001
0000
0001
0000
0100
0100
0000
,
0000
0000
1000
0000
0000
0100
0100
0000
,
0001
0001
0000
0010
0010
0000
0001
0000
,
0100
0000
1000
0000
0000
0010
0010
0000
,
0000
0001
0000
0010
0000
0000
1000
0000
,
0000
1000
0100
0000
1000
0100
0000
1000
,
0200
0000
0000
0000
,
0300
0000
1000
0000
0000
0100
0100
0000
,
0000
0001
0000
0010
0000
0000
0100
0000
,
0000
1000
0000
0100
,
0010
0010
0000
0000
0001
0000
0010
0000
,
0000
1000
0100
0010
,
0000
0001
0000
0010
0000
0000
0100
0000
,
0000
1000
0100
0000
0000
0010
0000
0001
,
0000
0001
0000
0000
0000
0000
1000
0000
,
0100
0010
0000
0001
,
0000
1000
0000
0100
0010
0100
0010
0000
,
0000
0001
0001
0000
1000
1000
0000
0100
,
0000
0010
0000
1001
0000
0000
0000
0000
,
0000
1000
0100
0010
,
1000
0100
0001
0010
,
0100
1000
0100
0000
0000
0100
0020
0000
,
0000
0000
0000
0000
,
0030
1000
0100
0010
,
0010
0000
0100
0000
0000
0000
0000
0100
,
1000
0100
1000
0000
0000
1000
0000
0010
,
0000
0100
0000
0000
0000
0000
1000
0000
,
0010
0000
0100
1000
0001
0000
0001
1000
,
0010
0100
0000
0000
0010
0000
1000
0000
,
0100
0000
0110
0000
0000
1001
0000
1000
,
0100
0010
0000
0000
0000
0000
0000
0000
,
1000
0000
0100
0000
0010
0010
0000
0001
,
0000
1000
0000
0000
0000
0000
0000
1000
,
0100
1000
0100
0000
0010
0010
0000
0100
,
0000
1001
0000
0000
0000
0000
1000
0000
,
0100
0010
1000
0010
,
0100
0001
1000
0100
,
0010
0000
1001
0000
0000
1100
0000
0100
,
0000
0101
0000
0000
0000
0000
0000
0000
,
1000
0000
0100
0000
0010
0100
0000
0100
,
0000
1001
0000
0000
0000
0000
0000
0000
,
1000
0000
0100
0000
0010
0010
0000
1000
,
0000
0100
0000
0000
0000
0000
0200
0000
,
0000
0020
0000
0000
,
0330
1000
0100
0010
,
1000
0001
0100
0010
,
1000
0001
1000
0100
,
0010
0000
1000
0100
1000
0100
1000
0100
,
0000
0010
0001
0010
0001
0020
0000
0000
,
0000
0000
0000
0000
,
0000
0000
0000
0000
,
0000
0000
0000
0000
,
0000
0030
0000
0000
;

//---------------dance-single - Copied from----------------
#NOTES:
     dance-single:
     Copied from:
     Easy:
     5:
     0.284,0.464,0.156,0.100,0.000:
0000
0000
0000
0000
,
0000
0000
0000
0000
,
0000
0000
0000
0000
,
0000
0000
0000
0100
,
0100
1000
0100
0100
,
0001
1000
0001
0010
,
0010
1000
0100
1000
,
0010
0100
0001
1000
,
0010
2001
0001
3001
,
0110
1002
1000
1003
,
0000
0000
0000
0000
,
0000
0100
0000
0010
,
0000
0001
0010
0100
,
0000
1000
0000
0100
,
0000
0010
0100
1000
,
0000
0010
0000
1000
,
0000
0100
0001
0010
,
0000
0000
0100
0000
0000
0010
0000
0000
,
0002
0000
0000
0000
,
0003
1000
0010
0100
,
0000
0001
0100
0010
,
0000
1000
0000
0001
,
0100
0010
0100
0110
,
0000
1000
0000
0100
,
0000
0010
0100
1000
,
0000
0000
1000
0000
0000
0010
0000
0000
,
0000
0100
0000
0000
0000
0000
0100
0000
,
1000
0010
0000
0010
,
0000
1000
0100
0010
,
0000
1000
0100
0010
,
0000
0011
0000
0011
0000
0000
0000
0000
,
0000
1000
0100
0001
,
0010
0001
0100
1000
,
0100
0020
0000
0200
,
0000
0000
0000
0000
,
0330
1000
0100
0010
,
0010
0100
0000
0000
,
1000
0100
0001
0100
,
0100
0100
0000
1000
,
0100
0000
0010
0000
0000
1000
0000
0000
,
0000
0100
0000
0000
0000
0010
0000
0000
,
0000
0001
0000
0000
0000
1000
0000
0100
,
0000
0100
0000
0000
0000
0000
0000
0000
,
1000
0010
0100
0010
,
0001
0010
0000
0000
,
0100
0000
0010
0000
0010
0000
0000
1000
,
0000
1000
0000
0000
0000
0000
1000
0000
,
0100
0000
0010
0000
0000
0001
0000
0000
,
0000
1000
0000
0000
0100
0000
0010
0000
,
0001
0000
0110
0000
0000
0110
0000
1001
,
0000
0110
0000
0000
0000
0000
0000
0000
,
1000
0000
0100
0000
0010
0000
0000
0001
,
0000
0010
0000
0000
0000
0000
0000
0000
,
1000
0100
1000
0010
,
1000
0001
0000
0200
,
0000
0020
0000
0000
,
0000
0000
0000
0000
,
0330
0000
1000
0100
,
0010
1000
0100
0010
,
0110
1002
1000
1003
,
0110
2001
0001
0001
,
0000
0000
0000
0000
,
0000
0000
0000
0000
,
0000
0000
0000
0000
,
0000
3000
0000
0000
;

//---------------dance-single - ----------------
#NOTES:
     dance-single:
     :
     Beginner:
     2:
     0.191,0.250,0.145,0.056,0.000:
0000
0000
0000
0000
,
0000
0000
0000
0000
,
0000
0000
0000
0000
,
0000
0000
0000
0000
,
0000
1000
0000
0000
,
0000
0100
0000
0000
,
0000
0000
0001
0000
,
0000
0000
0010
0000
,
0000
1000
1000
1000
,
0000
0110
0000
0220
,
0000
0000
0000
0000
,
0330
1000
0000
0000
,
0000
0100
0000
0000
,
0000
0010
0000
0000
,
0010
0000
0000
1000
,
0000
0110
0000
0000
,
0000
1000
0000
0100
,
0000
1001
0000
0000
,
1001
0000
0000
0000
,
0000
1000
0000
0000
,
0000
0010
0010
0010
,
0000
1000
0000
0100
,
0000
0010
0010
0010
,
0000
1000
0000
0100
,
0000
1000
1000
1000
,
0000
0110
0000
0000
,
0110
0000
0000
1000
,
1000
0100
0000
0010
,
0000
1000
1000
1000
,
0000
0100
0000
0010
,
0000
1001
0000
0000
,
0000
1000
0000
0100
,
0000
0010
0100
0010
,
0000
1001
0000
0110
,
0000
0000
0000
0000
,
1000
1000
0000
0100
,
0000
0010
0000
0000
,
1000
1000
0000
0100
,
0000
0110
0000
1000
,
0000
0100
0000
0100
,
0000
0010
0000
0001
,
0000
0010
0000
0100
,
0100
0110
0000
0000
,
0000
1000
0000
0000
,
0100
0000
0000
0000
,
0001
0001
1000
0100
,
0100
0010
0000
1000
,
0000
0100
0000
0010
,
0000
0001
0000
1000
,
0000
0100
0000
0000
,
0110
0000
0000
0000
,
0000
1000
0000
0000
,
0000
0100
0000
0000
,
1000
1000
0000
0100
,
0000
0010
0000
2000
,
0000
0002
0000
0000
,
0000
0000
0000
0000
,
3003
0000
1000
0000
,
0000
0100
0000
0010
,
0000
1000
1000
1000
,
0010
0100
0100
0200
,
0000
0000
0000
0000
,
0000
0000
0000
0000
,
0000
0000
0000
0000
,
0000
0300
0000
0000
;
