#TITLE:Right there, Ride on;
#SUBTITLE:;
#ARTIST:SONIC RUSH;
#TITLETRANSLIT:;
#SUBTITLETRANSLIT:;
#ARTISTTRANSLIT:;
#CREDIT:;
#BANNER:Right there, Ride on [SMALL].PNG;
#BACKGROUND:Right there, Ride on-bg [MEDIUM].png;
#LYRICSPATH:;
#CDTITLE:;
#MUSIC:Right there, Ride on.mp3;
#OFFSET:0.500;
#SAMPLESTART:0.000;
#SAMPLELENGTH:17.000;
#SELECTABLE:YES;
#BPMS:0.000=162.020;
#STOPS:;
#BGCHANGES:;

//---------------dance-single - ----------------
#NOTES:
     dance-single:
     :
     Hard:
     9:
     0.379,0.413,0.403,0.160,0.006: // measure 1
0000
0000
0000
0000
,  // measure 2
0000
0000
0000
0000
,  // measure 3
0000
0000
1000
0100
,  // measure 4
0010
0000
0001
0010
0000
0100
0100
0000
,  // measure 5
1100
0000
1000
0100
1000
0000
1100
0000
,  // measure 6
1010
0000
0100
0010
0000
0010
0100
0000
,  // measure 7
1001
0110
2010
0100
,  // measure 8
0010
0001
3100
0010
,  // measure 9
0101
0000
1010
0000
1000
0100
1000
0000
,  // measure 10
1010
0000
0100
0100
0010
0001
0010
0100
,  // measure 11
1100
0000
1000
0100
0001
0000
1001
0000
,  // measure 12
1010
0000
0101
0100
0000
0100
1100
0000
,  // measure 13
1010
0000
0000
0000
1000
1000
0100
1000
,  // measure 14
1100
0000
0000
0000
1000
0100
0010
0100
,  // measure 15
0000
0000
0000
0000
1100
0100
0100
0110
,  // measure 16
0010
0010
0011
0010
0110
0100
0100
1100
,  // measure 17
0100
0100
1100
0000
0110
0000
0001
0010
,  // measure 18
0100
0000
1010
0000
0101
0000
1000
0100
,  // measure 19
0010
0000
0011
0000
1010
0000
0010
1000
,  // measure 20
0001
0000
1010
0000
1100
0000
1000
0100
,  // measure 21
0001
0000
0002
0100
0103
0000
1000
1000
,  // measure 22
0100
0000
0200
0010
0310
0000
0001
0001
,  // measure 23
1000
0000
2000
0000
3100
0100
0010
0001
,  // measure 24
0101
0010
0100
0010
0101
0010
2000
0100
,  // measure 25
3100
0000
0000
0000
1000
0100
0010
0001
,  // measure 26
0010
0100
1000
0100
0010
0001
0001
0010
,  // measure 27
0100
0010
0010
0000
0001
0010
0100
1000
,  // measure 28
0100
0010
0001
0010
0100
1000
1000
0100
,  // measure 29
0010
0100
0100
0000
0100
0010
0100
0001
,  // measure 30
0100
1000
0100
0010
0100
0100
0001
1000
,  // measure 31
0010
0100
0100
0000
1000
0100
1000
0010
,  // measure 32
1000
0001
1000
0100
1000
0010
0010
0100
,  // measure 33
1000
0100
1100
0000
0210
0000
0000
0000
,  // measure 34
0000
0000
0000
0020
0000
0030
0010
0001
,  // measure 35
0310
1010
0201
0000
,  // measure 36
0000
0000
0000
0020
0000
0030
0001
0001
,  // measure 37
0310
0110
1020
0000
,  // measure 38
0000
0000
0000
2000
0000
3000
0100
1000
,  // measure 39
0031
1000
0101
0000
,  // measure 40
1100
0000
0000
1010
0000
0011
0000
0000
,  // measure 41
1001
0000
0000
0000
1000
1000
0100
0010
,  // measure 42
0010
0000
0000
0000
0001
0010
0100
0010
,  // measure 43
0000
0000
0000
0000
1000
0100
0010
0001
,  // measure 44
0010
0000
0000
0000
0010
0100
1000
0100
,  // measure 45
0000
0000
0000
0000
2100
0100
0010
0001
,  // measure 46
3010
0000
0000
0000
1020
0100
0001
0130
,  // measure 47
0000
0000
0000
0000
0101
0010
0001
1100
,  // measure 48
0001
1000
0110
0001
1010
0100
0001
1010
,  // measure 49
0100
0011
0001
0011
0100
1000
0100
0010
,  // measure 50
0002
0010
0103
1000
0100
0010
0001
2000
,  // measure 51
0100
3000
0000
0000
1000
0010
0100
0001
,  // measure 52
2000
0010
3100
1000
0001
0100
0010
0002
,  // measure 53
0100
0003
0000
0000
1000
0100
0010
0100
,  // measure 54
0020
0001
0130
0010
0100
1000
0100
0010
,  // measure 55
0200
1000
0300
0000
1100
0001
0001
1010
,  // measure 56
0100
0100
0011
1000
0101
0010
1000
0100
,  // measure 57
0010
0000
0000
0000
1000
0100
0010
0000
,  // measure 58
0110
0000
1000
0010
0100
0001
0000
1010
,  // measure 59
0000
0100
1000
0010
0001
0000
0000
1010
,  // measure 60
0000
0000
0000
1000
0000
0000
0001
0000
0000
0100
0000
0000
0011
0000
0000
0000
0000
0110
0000
0000
0000
0000
1100
0000
,  // measure 61
0000
2000
3100
0000
,  // measure 62
0000
0002
0013
0000
,  // measure 63
0000
0200
0310
0000
,  // measure 64
0000
0020
0130
0000
,  // measure 65
0000
0000
2200
3300
1100
0000
0000
0000
;
