#TITLE:Helicopter;
#SUBTITLE:;
#ARTIST:Bloc Party;
#TITLETRANSLIT:;
#SUBTITLETRANSLIT:;
#ARTISTTRANSLIT:;
#CREDIT:;
#BANNER:banner.PNG;
#BACKGROUND:bg.png;
#LYRICSPATH:;
#CDTITLE:;
#MUSIC:Helicopter.mp3;
#OFFSET:-0.100;
#SAMPLESTART:34.200;
#SAMPLELENGTH:12.000;
#SELECTABLE:YES;
#BPMS:0.000=170.260;
#STOPS:;
#BGCHANGES:;

//---------------dance-single - ----------------
#NOTES:
     dance-single:
     :
     Hard:
     9:
     0.718,0.778,0.578,0.209,0.040: // measure 1
0000
0000
0000
0000
,  // measure 2
0000
0000
0000
0000
,  // measure 3
0000
0000
0000
0000
,  // measure 4
0000
0000
0000
0000
,  // measure 5
0000
1000
0100
0010
0001
0001
0010
0010
,  // measure 6
0001
0010
0100
0010
1000
0100
0100
0001
,  // measure 7
0001
0010
0100
0010
1000
0001
0010
1000
,  // measure 8
0100
0110
0000
1100
0000
1001
0000
0101
,  // measure 9
0000
1000
0100
0010
0100
1000
1000
0010
,  // measure 10
0010
1000
0100
0010
1000
0001
0001
0010
,  // measure 11
0010
0001
0100
1000
0001
0001
0010
0010
,  // measure 12
0100
1000
0100
0010
0100
1000
1000
0010
,  // measure 13
0010
0100
0001
0010
0010
0100
0100
1000
,  // measure 14
0100
0010
0100
0001
0010
1000
1000
0010
,  // measure 15
0010
1000
0010
0100
0100
0010
0010
0100
,  // measure 16
0100
0000
1000
0000
0110
0000
0000
0000
1000
0001
1000
0001
0000
0000
1001
0000
,  // measure 17
0000
0000
1000
0100
1000
0010
0000
0000
,  // measure 18
0001
0000
0010
0000
1000
0000
0100
0000
0000
0000
0001
0000
0000
0100
0000
0000
,  // measure 19
0001
0000
0100
0001
0010
1000
0000
0000
,  // measure 20
0010
0001
0010
0100
0000
1001
0000
0110
,  // measure 21
0000
0000
1000
1000
0100
0100
0000
0000
,  // measure 22
1000
0001
1000
0010
0000
1000
0100
0010
,  // measure 23
0000
0000
1000
0100
0010
0010
0000
0000
,  // measure 24
0010
0011
0000
1100
0000
1001
0000
0101
,  // measure 25
0000
1000
0100
0010
0100
0001
0010
0100
,  // measure 26
0010
2000
0000
3100
0000
0010
0001
0100
,  // measure 27
0100
0000
1000
0100
1000
0100
0010
0100
,  // measure 28
0001
0210
0010
0302
0010
1003
0200
0301
,  // measure 29
0010
0000
1000
0010
0100
0001
0010
0100
,  // measure 30
0010
1010
0000
0011
0000
1000
0100
0010
,  // measure 31
0200
0000
0310
1000
0100
0001
0010
0001
,  // measure 32
1000
0100
0110
0010
0001
0100
0010
1010
,  // measure 33
0000
2000
0000
0100
0000
0000
0000
0100
,  // measure 34
0000
0200
3000
0010
0000
0000
0000
0010
,  // measure 35
0000
0002
0300
0010
0000
0000
0000
0013
,  // measure 36
0000
0021
0000
1030
0000
0000
0000
0200
,  // measure 37
0000
0000
0000
0010
0000
0020
0300
0001
,  // measure 38
0000
0100
0000
1000
0000
0200
0030
1000
,  // measure 39
0000
0010
0000
1000
0000
0301
0000
1001
,  // measure 40
0000
1100
0000
0021
0000
2030
0000
0100
,  // measure 41
0000
0000
0000
0001
0000
0020
3000
0001
,  // measure 42
0000
0000
0000
1000
0000
0200
0030
0001
,  // measure 43
0000
0000
0000
1300
0000
0210
0000
1300
,  // measure 44
0000
0000
0000
0100
1000
0100
1000
0100
,  // measure 45
1000
0100
0010
0100
0010
0100
0010
0100
,  // measure 46
0010
1000
0100
0010
0100
0100
0000
0100
,  // measure 47
0010
0001
0010
0100
0010
1000
0100
1000
,  // measure 48
0100
1100
0000
0101
0000
1000
0100
0010
,  // measure 49
0000
0001
0010
0100
0000
1000
0100
1000
,  // measure 50
0000
0001
0010
0001
0000
1000
0100
0001
,  // measure 51
0000
0010
0100
0010
0001
0010
0100
1000
,  // measure 52
0100
0110
0000
1001
0000
1000
0100
1010
,  // measure 53
0000
0001
1000
0101
0000
0001
1000
0110
,  // measure 54
0000
0010
0100
1001
0000
1000
0010
1100
,  // measure 55
0000
0001
1000
0011
0010
0100
0001
0100
,  // measure 56
0010
0110
0000
1100
0100
0100
0100
0100
,  // measure 57
0010
0001
0001
0001
0001
0001
0001
0001
,  // measure 58
0010
0100
0100
0100
0100
0100
0100
0100
,  // measure 59
0100
0000
0000
1000
0100
0010
0100
0001
,  // measure 60
1000
1001
0000
0110
0100
1000
0001
0010
,  // measure 61
1000
2000
0100
3200
0010
0320
0001
0032
,  // measure 62
0010
1003
0010
0100
0000
1001
0000
1010
,  // measure 63
0000
0000
0001
0010
0100
1000
0000
1000
0100
0010
0001
0010
0100
0000
0000
0000
,  // measure 64
0000
1000
0100
0110
0010
0011
0010
1010
,  // measure 65
1001
1000
0100
0001
0010
1000
1000
0010
,  // measure 66
0010
1000
0010
1100
0100
0110
0010
0011
,  // measure 67
1001
0010
0100
1000
0010
0100
0100
0001
,  // measure 68
0001
0100
1000
0011
0010
1010
1000
1100
,  // measure 69
0101
0010
0100
1000
0001
0100
0100
0010
,  // measure 70
0010
1000
0001
1001
0100
1001
0100
1001
,  // measure 71
0110
1000
0100
0010
0001
0011
0011
1010
,  // measure 72
1010
0000
0000
0000
;
