#TITLE:Hanamaru Sensation;
#SUBTITLE:Kodomo no Jikan Ending;
#ARTIST:Little Non;
#TITLETRANSLIT:;
#SUBTITLETRANSLIT:;
#ARTISTTRANSLIT:;
#CREDIT:Desho;
#BANNER:BANNER.png;
#BACKGROUND:BG.png;
#LYRICSPATH:;
#CDTITLE:;
#MUSIC:Hanamaru Sensation (TV Size).mp3;
#OFFSET:0.770;
#SAMPLESTART:58.385;
#SAMPLELENGTH:20.991;
#SELECTABLE:YES;
#BPMS:0.000=191.500,27.000=175.860,28.000=190.500,42.000=188.300,44.000=190.500,60.000=189.780,124.000=186.160,126.000=190.000,142.000=190.500,156.000=189.780,158.000=190.500,186.000=194.000,190.000=190.000;
#STOPS:;
#BGCHANGES:3.000=Hanamaru Sensation.avi=1.000=1=0=0,
280.000=KodomoBG.png=1.000=1=0=0,
99999=-nosongbg-=1.000=0=0=0 // don't automatically add -songbackground-
;

//---------------dance-single - ----------------
#NOTES:
     dance-single:
     :
     Hard:
     9:
     0.628,0.709,0.322,0.389,0.000:
0000
0000
0000
0000
,
0000
0000
0000
0000
,
0000
0000
1000
1000
,
0100
0000
0001
0010
0001
0000
1000
0100
,
1000
0000
0010
0100
0001
0000
1000
0000
,
0100
0010
0001
0100
1000
0100
0010
0001
,
0010
0000
1000
1000
1000
0000
0010
0100
,
1000
0000
1000
0100
0010
0001
0010
0100
,
1000
0000
0100
1000
0010
0000
0001
0010
,
0100
0010
0001
0010
0100
1000
0100
0010
,
0110
1100
0101
0000
,
1000
0100
0001
0100
1000
0100
0001
0010
,
1000
0010
0001
0100
1000
0100
0010
0100
,
1000
0100
0010
0001
0010
0100
0001
0010
,
0110
1001
0110
0000
,
0000
1000
0100
0010
0001
0010
0100
0010
,
0100
1000
0100
0001
0010
0010
0010
0000
,
0000
1000
0100
0001
0010
1000
0100
0001
,
0010
0100
1000
0001
0100
0100
0100
0000
,
0000
1000
0100
0010
0001
0010
0100
1000
,
1010
0000
0110
0000
0000
1000
0100
1000
,
0010
0100
0001
0010
1000
0100
0010
0000
,
1100
0011
0000
0000
,
0000
1000
0100
1000
0010
1000
0001
1000
,
0000
0100
0010
1000
0100
0001
0001
0000
,
0000
0001
1000
0100
0001
1000
0001
0010
,
1000
0100
0020
0000
0031
0000
0000
0000
,
0000
1000
0100
0010
0010
0100
0001
0010
,
0110
0000
1100
0000
0000
0100
1000
0100
,
0110
1100
0101
1010
,
1001
0110
0000
0000
,
2000
0000
0200
0000
,
0000
0000
0000
0000
0000
3000
0002
0300
,
0200
0303
2000
0000
0020
0000
0000
0000
,
0000
3000
0032
0203
0020
0300
1000
0000
,
1000
0000
0100
0000
0100
0000
0000
0032
,
2000
0000
0000
0000
0000
0000
0000
0003
,
0020
3000
0001
0000
1000
0000
0000
0230
,
0002
0000
0000
0303
,
2000
0000
0020
0000
,
0000
0000
0000
0000
0000
3000
0100
0000
,
0001
1000
0200
0000
,
0000
0030
0002
0300
0020
0003
0200
0030
,
2000
0300
0002
3000
0020
0000
0003
0230
,
0002
0000
0000
0000
0000
0000
0000
0300
,
2003
0000
0002
0000
,
0000
0000
0000
3003
,
1000
0000
1000
0000
0100
0000
1000
0100
,
0001
0000
0001
0100
1000
0000
1000
0010
,
0001
0000
0001
0010
1000
0100
0001
0010
,
1000
0100
0001
0010
0001
0000
0100
0100
,
0100
0000
1000
0100
0010
0000
0001
0010
,
0100
0000
1000
0100
0100
0000
0001
0010
,
0010
0000
1000
0100
0010
0001
0010
0100
,
1000
0100
0010
0001
0011
0000
0110
0000
,
1100
0000
0010
0000
1001
0000
1000
0100
,
1000
0000
0001
0010
0001
0000
1000
0100
,
1000
0000
0001
0000
0100
0010
0100
1000
,
0100
0010
0001
0010
0100
0000
0100
0010
,
0001
0000
1000
0000
0100
0000
0010
0100
,
1000
0100
0010
0100
1000
0000
1000
0100
,
0001
0000
0010
0100
0010
1000
0001
1000
,
0010
0100
0010
1000
1100
0000
1010
0000
,
1100
0000
0000
0000
1000
0100
1000
0010
,
1000
0001
1000
0001
0010
0001
0100
0001
,
0010
0100
1000
0100
2000
0000
0000
0000
,
0200
3000
0002
0300
,
0020
0003
0000
2000
0000
0000
0000
0000
,
0000
0000
0000
0000
,
3030
2001
3001
0000
,
0000
0210
0310
1001
,
0110
0000
0000
0000
;

//---------------dance-single - ----------------
#NOTES:
     dance-single:
     :
     Medium:
     7:
     0.496,0.552,0.255,0.278,0.000:
0000
0000
0000
0000
,
0000
0000
0000
0000
,
0000
0000
0010
0010
,
0100
0000
1000
0100
1000
0000
0100
0010
,
0100
0000
0010
0001
0010
0000
1000
0000
,
1000
0100
0010
0100
,
0010
1000
1100
0001
,
1000
0000
0010
0100
0010
0000
0010
0001
,
0010
0000
0010
1000
0010
0000
1000
0000
,
0100
0001
0010
0100
,
2100
0010
3001
0000
,
1000
0100
0010
0000
0001
0000
0100
0000
,
0010
0100
1000
0000
0001
0000
0100
0000
,
0010
0100
0001
0000
0100
0010
1000
0000
,
2100
0100
3100
0000
,
1000
0100
0001
1000
,
0010
0000
0100
0000
0001
0010
0001
0000
,
0000
1000
0001
0100
,
0010
0000
0010
0000
1000
0100
0010
0000
,
0000
1000
0010
0100
,
1000
1000
0000
0001
,
1000
0010
1000
0001
,
1100
0101
0000
0000
,
0000
1000
0100
1000
0100
1000
1000
0100
,
0000
0010
0100
0010
0100
0010
0010
0000
,
0000
0100
1000
0010
,
0100
0001
0001
0000
,
0000
1000
0100
0010
,
1000
1000
0100
0001
,
1010
0100
1001
0010
,
1100
0101
0000
0000
,
2000
0000
3020
0000
,
0000
0000
0000
0130
,
1000
1100
0022
0000
,
0033
0000
1000
0100
0010
0000
0001
0000
,
0010
0000
0001
0000
1000
0000
0000
0100
,
0020
0000
0000
0000
,
0130
0000
1000
0000
0001
0000
0000
0100
,
0020
0000
0000
0030
,
2000
0000
3020
0000
,
0000
0000
0000
0130
,
1000
1010
0022
0000
,
0033
1000
1000
0100
,
0100
0000
0010
0000
0010
0000
0000
0001
,
0002
0000
0000
0000
,
2003
0000
0200
0000
,
0000
0000
3300
0000
,
0010
0000
0010
0000
0001
0000
0100
1000
,
0100
0000
0010
0001
0010
0000
0100
1000
,
0100
0000
0001
0000
1000
0100
0010
0000
,
1000
0100
0010
0100
0010
0000
1000
0100
,
1000
0000
0100
0000
0010
0000
1000
0100
,
0010
0000
0010
0100
1000
0000
1000
0100
,
0010
0000
0001
0000
1000
0100
1000
0000
,
1000
0100
0010
0000
0011
0000
1001
0000
,
1100
0000
0100
0000
1000
0000
0100
0010
,
0010
0000
0001
0010
0010
0000
1000
0100
,
0100
0000
0001
0000
1000
0100
1000
0000
,
1000
0100
1000
0010
1000
0000
1000
0100
,
0010
1000
0100
2000
,
3100
0020
0130
0002
,
0103
0000
1000
0000
1000
0100
0010
0001
,
0010
0100
1000
0000
0110
0000
1100
0000
,
0101
0000
0000
0000
1000
0100
0010
0000
,
0001
0010
0100
0000
1000
0100
1000
0000
,
0001
0010
0001
0000
2000
0000
0000
0000
,
3200
0000
0320
0000
,
0032
0000
0023
0000
,
0000
0000
0000
0000
,
0030
2001
3001
0000
,
0000
1002
1003
1010
,
1001
0000
0000
0000
;

//---------------dance-single - ----------------
#NOTES:
     dance-single:
     :
     Easy:
     5:
     0.454,0.512,0.411,0.377,0.000: // measure 1
0000
0000
0000
0000
,  // measure 2
0000
0000
0000
0000
,  // measure 3
0000
0000
0100
0100
,  // measure 4
1000
0100
0001
0010
,  // measure 5
1000
0100
0010
1000
,  // measure 6
0010
0010
1000
1000
,  // measure 7
0100
0110
1001
0001
,  // measure 8
1000
0100
0010
0001
,  // measure 9
0001
1000
1000
0001
,  // measure 10
0100
0010
0100
1000
,  // measure 11
1001
0110
1001
0000
,  // measure 12
1000
0100
0001
0010
,  // measure 13
0001
1000
0100
0010
,  // measure 14
1000
0010
0100
1000
,  // measure 15
1001
0110
1001
0000
,  // measure 16
0000
1000
0100
0010
,  // measure 17
0100
0001
0010
0010
,  // measure 18
0000
0001
0010
0100
,  // measure 19
0010
1000
0100
0100
,  // measure 20
0000
1000
0100
0010
,  // measure 21
0100
0100
0000
0001
,  // measure 22
1001
1000
1001
0001
,  // measure 23
1001
1100
0000
0000
,  // measure 24
0000
1000
0100
0010
,  // measure 25
0010
1000
0010
0100
,  // measure 26
0000
1000
0100
0010
,  // measure 27
1000
0200
0310
0000
,  // measure 28
0000
0001
0100
0010
,  // measure 29
1000
1000
0000
1000
,  // measure 30
1001
0001
1001
1000
,  // measure 31
1100
0101
0000
0000
,  // measure 32
2000
0000
3200
0000
,  // measure 33
0000
0000
0000
0320
,  // measure 34
0001
0001
0032
0000
,  // measure 35
0000
1000
0100
0010
,  // measure 36
0100
1003
0110
0000
,  // measure 37
2002
0000
0000
3003
,  // measure 38
0010
0100
1001
0000
,  // measure 39
0220
0000
0000
0330
,  // measure 40
0020
0000
0032
0000
,  // measure 41
0000
0000
0000
1000
,  // measure 42
0100
1000
2003
0000
,  // measure 43
3000
2000
3200
0320
,  // measure 44
0230
2300
3100
0000
,  // measure 45
2002
0000
0000
3003
,  // measure 46
0200
0000
0002
0000
,  // measure 47
0000
0000
0303
0000
,  // measure 48
0010
0010
1000
0100
,  // measure 49
0010
1000
0100
1001
,  // measure 50
1001
0010
0100
0001
,  // measure 51
1000
0010
0100
1001
,  // measure 52
1001
0010
1000
0001
,  // measure 53
0010
0100
0010
1001
,  // measure 54
1001
0010
0100
1000
,  // measure 55
0001
0100
2100
3200
,  // measure 56
2300
3010
0001
1000
,  // measure 57
0100
0010
1000
0110
,  // measure 58
0110
0001
1000
0100
,  // measure 59
0001
0010
1000
0110
,  // measure 60
0110
0001
1000
0100
,  // measure 61
0001
0010
1000
0110
,  // measure 62
0110
1000
0001
0010
,  // measure 63
1000
0001
0201
0320
,  // measure 64
2030
3000
1000
1000
,  // measure 65
0010
0010
0100
0100
,  // measure 66
1000
1000
0002
0000
,  // measure 67
2003
0000
3200
0000
,  // measure 68
0320
0000
2000
0000
,  // measure 69
0000
0000
0000
0000
,  // measure 70
3030
0200
0301
0000
,  // measure 71
0000
2000
3100
0110
,  // measure 72
0011
0000
0000
0000
;

//---------------dance-single - Copied from----------------
#NOTES:
     dance-single:
     Copied from:
     Beginner:
     3:
     0.259,0.394,0.289,0.078,0.000:
0000
0000
0000
0000
,
0000
0000
0000
0000
,
0000
0000
0100
0100
,
0100
0000
1000
0000
,
0010
0000
1000
0000
,
0100
0000
0001
0000
,
1000
0000
1001
0000
,
0001
0000
0100
0000
,
1000
0000
0001
0000
,
1000
0000
0001
0000
,
1001
1001
1001
0000
,
0200
0000
0310
0000
,
0020
0000
0130
0000
,
2000
0000
3001
0000
,
1001
1001
1001
0000
,
0000
1000
0000
0100
,
0000
0010
0001
0001
,
0000
0001
0000
1000
,
0000
0100
0010
0010
,
0000
0001
0000
0000
,
0100
0100
0000
0000
,
0010
0000
1000
0000
,
1001
0000
0000
0000
,
0000
1000
0000
0010
,
0000
0000
0100
0000
,
0000
1000
0000
0000
,
0010
0000
0001
0000
,
0000
1000
0000
0010
,
0100
0100
0000
0000
,
1000
1000
0100
0100
,
1000
1000
0000
0000
,
1000
0000
0100
0000
,
0000
0000
0000
0010
,
0010
0010
0010
0000
,
0000
0000
1001
0000
,
0000
0000
0110
0000
,
0000
0000
0000
0000
,
1000
0000
0001
0000
,
1000
0000
0000
0000
,
1000
0000
0010
0000
,
0000
0000
0000
0100
,
0100
0100
0100
0000
,
0000
0000
1001
0000
,
1000
0000
0010
0000
,
0110
0000
0000
0000
,
0100
0000
0010
0000
,
0000
0000
0000
0000
,
1000
1000
1000
0000
,
0010
0000
1000
0000
,
0001
0000
0100
0000
,
0001
0000
1000
0000
,
1001
0000
1000
0000
,
0001
0000
0100
0000
,
1000
0000
0010
0000
,
0001
0000
1001
1001
,
1001
0000
0010
0000
,
1000
0000
0010
0000
,
0100
0000
0001
0000
,
0010
0000
1000
0000
,
1001
0000
0010
0000
,
1000
0000
0001
0000
,
0100
0000
0010
0000
,
1000
0000
1001
1001
,
1001
0000
2000
0000
,
3001
0000
0002
0000
,
1003
0000
2002
0000
,
0000
0000
0000
0000
,
0000
0000
0000
0000
,
0000
0000
0000
0000
,
3003
1001
1001
0000
,
0000
0100
0110
0110
,
0110
0000
0000
0000
;
