#TITLE:Shades of Grey;
#SUBTITLE:;
#ARTIST:Fracus;
#TITLETRANSLIT:;
#SUBTITLETRANSLIT:;
#ARTISTTRANSLIT:;
#CREDIT:KKiONI;
#BANNER:Shades of Grey.png;
#BACKGROUND:Shades of Grey-bg.png;
#LYRICSPATH:;
#CDTITLE:./CDTITLES/Dance Dance Revolution SuperNOVA 2.png;
#MUSIC:Shades of Grey.mp3;
#OFFSET:-0.023;
#SAMPLESTART:11.304;
#SAMPLELENGTH:15.000;
#SELECTABLE:YES;
#BPMS:0.000=170.000;
#STOPS:;
#BGCHANGES:;

//---------------dance-single - ----------------
#NOTES:
     dance-single:
     :
     Challenge:
     10:
     0.680,1.000,0.709,0.172,0.064: // measure 1
0000
0000
0000
0000
,  // measure 2
0000
0000
0000
0000
,  // measure 3
0000
0000
1000
1000
,  // measure 4
1100
0000
0001
0001
,  // measure 5
0011
0000
0100
0100
,  // measure 6
0110
0000
0100
0100
,  // measure 7
0101
0000
0010
0010
,  // measure 8
1010
0000
0110
0110
,  // measure 9
1100
0000
1100
0000
1000
0100
0010
0001
,  // measure 10
1001
0000
0110
0000
0010
0100
1000
0100
,  // measure 11
1010
0000
1100
0000
1000
0100
0010
0100
,  // measure 12
0011
0000
1100
0000
1000
0100
0001
0010
,  // measure 13
1100
0000
0101
0000
1000
0100
1000
0010
,  // measure 14
0101
0000
0110
0000
1000
0100
0010
0100
,  // measure 15
1010
0011
1000
0100
,  // measure 16
0010
0010
0000
0000
1000
0000
0100
0000
,  // measure 17
1001
0100
1000
0100
0010
0001
0010
0100
,  // measure 18
1000
0100
0010
0001
0010
0100
1000
0100
,  // measure 19
0010
0000
0010
0100
0000
0100
1000
0010
,  // measure 20
0001
0010
1000
0100
0001
0010
1000
0100
,  // measure 21
0001
0010
0001
0100
0001
1000
0001
0010
,  // measure 22
0100
1000
0100
1000
0010
1000
0001
1000
,  // measure 23
0100
0000
0100
0010
0000
0010
0001
0100
,  // measure 24
1000
0100
0001
0010
1000
0100
0010
0001
,  // measure 25
1001
0000
1000
0100
0000
0000
0100
0010
,  // measure 26
0000
0000
0001
0010
0000
1010
0000
0000
,  // measure 27
1000
0000
0100
0010
0000
0010
0100
0000
,  // measure 28
1000
0100
0010
0001
0010
0100
1000
0100
,  // measure 29
0010
0001
0010
0000
0010
0000
0100
0000
,  // measure 30
1000
0100
0010
1001
,  // measure 31
1000
0100
1000
0000
0100
0010
0100
0000
0001
1000
0001
0000
0100
0001
0100
0000
,  // measure 32
1000
0100
0010
0001
1000
0100
0010
0001
1000
0100
0010
0001
1000
0100
0010
0001
,  // measure 33
2000
3100
0120
0031
,  // measure 34
1020
0031
0201
1300
,  // measure 35
1000
0100
0010
0001
0000
1001
0000
0001
,  // measure 36
0010
0100
1000
0100
0000
0100
0000
1001
,  // measure 37
0000
1001
0000
1010
0000
0101
0000
1001
,  // measure 38
0000
0110
0000
1100
0000
0101
0000
1100
,  // measure 39
0000
1100
0000
0011
0000
0011
0000
0000
,  // measure 40
0200
0000
2300
0020
3000
0032
0200
0303
,  // measure 41
1001
1000
0100
0010
0001
0010
0100
1000
,  // measure 42
1001
0001
0010
0100
1000
0100
0010
0001
,  // measure 43
1001
0100
0010
0100
1000
0100
0010
0100
,  // measure 44
0110
0010
0001
0010
0100
0010
0001
0010
,  // measure 45
0011
0001
0010
0100
0010
0001
0010
0100
,  // measure 46
1100
1000
0100
0010
0100
1000
0100
0010
,  // measure 47
1010
1000
0100
0010
0011
0001
0010
0100
,  // measure 48
1100
1000
0100
0010
0001
0020
0000
0000
,  // measure 49
0130
0000
1100
0010
0001
0010
0100
0010
,  // measure 50
1001
0000
0110
1000
0100
0010
0001
0010
,  // measure 51
0101
0000
1010
0100
0010
0001
0010
0100
,  // measure 52
1001
0000
1010
0001
0100
1000
0100
0001
,  // measure 53
1010
0000
0101
0010
0100
1000
0100
0010
,  // measure 54
1100
0000
0101
0010
0100
0010
0001
0010
,  // measure 55
1100
0000
0011
0100
1000
0100
0010
0001
,  // measure 56
1000
0100
1000
0100
0001
0010
0000
0000
,  // measure 57
0020
1000
0000
0100
0000
0001
0000
0100
,  // measure 58
0000
1000
0000
0100
0000
0001
0000
1000
,  // measure 59
0200
0000
0330
0000
,  // measure 60
1000
0100
0010
0001
0010
0010
0000
0000
,  // measure 61
0200
0010
0000
0001
0000
1000
0000
0001
,  // measure 62
0000
0010
0000
1000
0000
0010
0000
0001
,  // measure 63
0020
0000
0000
0000
0000
0330
0000
0000
,  // measure 64
1100
0000
0101
0000
,  // measure 65
2002
0000
0000
0000
,  // measure 66
3003
0000
0000
0000
;
