#TITLE:山岡家テーマソング Hardcore Edit;
#SUBTITLE:;
#ARTIST:DJ Myosuke;
#TITLETRANSLIT:yamaokaya theme song Hardcore Edit;
#SUBTITLETRANSLIT:;
#ARTISTTRANSLIT:DJ Myosuke;
#GENRE:POP;
#CREDIT:;
#BANNER:yamaokaya theme song Hardcore Edit.png;
#BACKGROUND:yamaokaya theme song Hardcore Edit-bg.png;
#LYRICSPATH:;
#CDTITLE:;
#MUSIC:yamaokaya theme song Hardcore Edit.ogg;
#OFFSET:1.186000;
#SAMPLESTART:12.147000;
#SAMPLELENGTH:14.667000;
#LASTBEATHINT:0.496059;
#SELECTABLE:YES;
#BPMS:0.000000=180.000000
;
#STOPS:
;
#BGCHANGES:3.500=yamaokaya theme song Hardcore Edit.avi=1.000=0=0=0=====,
99999=-nosongbg-=1.000=0=0=0 // don't automatically add -songbackground-
;
#KEYSOUNDS:;
#ATTACKS:;

//---------------dance-single - ----------------
#NOTES:
     dance-single:
     :
     Medium:
     13:
     0.689423,0.754698,0.572074,0.616080,0.828774,329.000000,290.000000,39.000000,42.000000,0.000000,0.000000,0.689423,0.754698,0.572074,0.616080,0.828774,329.000000,290.000000,39.000000,42.000000,0.000000,0.000000:
0000
0000
0000
0000
,
0000
0000
0000
0000
,
0001
0000
0100
0010
0000
1000
0100
0000
0010
0001
0000
1000
,
0002
0000
2003
3000
0011
0000
1100
0000
,
1000
0000
0100
0010
0000
0001
1000
0000
0010
0100
0000
0001
,
1000
0000
0000
0000
0001
0000
0020
0000
0000
0030
0000
0000
0011
0000
0000
0000
0000
0000
1100
0000
0000
0000
0000
0000
,
0001
0000
0100
0010
0000
1000
0100
0000
0010
0001
0000
1000
,
0002
0000
2003
3000
1001
0000
1001
0000
,
0001
0000
0100
0010
0000
1000
0001
0000
0010
0100
0000
1000
,
0001
2001
3020
0230
,
0310
0000
1000
0001
0000
0010
0100
0000
0000
1000
0000
0001
,
0100
0000
0010
0100
0000
0001
0000
0000
0001
2000
0000
0000
,
3010
0000
0000
0010
0000
0100
0001
0000
1000
0001
0000
0010
,
0100
0000
1000
0001
0000
0010
0200
0000
0000
1300
0000
1000
,
0001
0000
0100
0000
0000
0010
1000
0000
0001
0200
0000
0010
,
0010
0000
0000
0010
0000
0310
0000
0000
0100
0002
0000
0000
,
0103
0000
0010
1000
0000
0010
0100
0000
0010
1000
0000
1000
,
0001
0000
0010
0100
0000
0010
0001
0000
0010
0100
0000
0000
,
1000
0000
0010
0000
0000
1000
0001
0000
0000
0010
0000
0000
,
0100
0000
1000
0001
0000
0001
2000
0000
0000
0010
0000
0000
,
0001
0000
0000
0010
0000
0000
3002
0023
0230
2300
3002
0023
,
0130
0000
0000
1000
0000
0010
0100
0000
0001
1000
0000
0001
,
0020
0000
0000
0230
0000
0000
2300
0000
0000
3002
0000
0103
,
0010
0000
0010
0100
0000
0100
0020
0000
0000
0130
0000
0000
,
1010
0101
0011
1100
,
1001
0000
0001
0100
0000
0100
1000
0000
1000
0100
0000
0100
,
0002
0000
0000
2003
0000
3000
1100
0000
0000
0011
0000
0000
,
1001
0000
1000
0100
0000
0100
0001
0000
0001
0100
0000
0100
,
1000
1002
0100
0103
,
0110
1001
0011
0011
,
1100
0000
0000
0101
0000
0000
1100
0000
0000
1000
0001
1000
,
0001
0101
0101
1010
,
1100
0000
0000
0101
0000
0000
1100
0000
0000
1001
0000
0001
,
1000
0000
0100
0010
0000
0000
0001
0000
1000
0100
0000
0100
,
0001
0000
1000
0010
0000
0010
0001
0000
1000
0020
0000
0000
,
1030
0000
0100
0010
0000
0100
0001
0000
0100
1000
0000
0001
,
0100
0000
0010
0100
0000
1000
0100
0010
1000
0100
0010
0001
,
1000
0000
0020
0000
0000
0130
0002
0000
0000
0023
0000
0000
,
0130
0000
1000
0010
0000
0010
0002
0000
0000
1000
0000
0000
,
0010
0000
0000
1000
0000
0000
0023
2030
3200
0320
0032
2003
,
3100
0000
0000
1000
0000
0010
0100
0000
0001
1000
0000
0001
,
0100
0001
1000
0100
1000
0001
0100
0001
1000
0100
1000
0001
,
0100
0000
1000
0100
0000
0001
0020
0000
0000
0130
0000
0000
,
1100
1001
0101
0210
,
0310
0000
1000
1000
0000
0010
0100
0000
0001
0001
0000
0010
,
0100
1001
0011
1100
,
1001
0000
0001
0001
0000
0010
0100
0000
1000
1000
0001
0100
,
0010
0220
0000
0000
,
0000
0000
0000
0000
,
0330
0000
0000
0000
;

//---------------dance-single - ----------------
#NOTES:
     dance-single:
     :
     Hard:
     15:
     0.871732,0.934388,0.513400,0.469394,1.459522,416.000000,381.000000,35.000000,32.000000,0.000000,0.000000,0.871732,0.934388,0.513400,0.469394,1.459522,416.000000,381.000000,35.000000,32.000000,0.000000,0.000000:
0000
0000
0000
0000
,
0000
0000
0000
0000
,
0101
0000
0100
0001
0000
1000
0001
0000
0010
0100
0000
1000
,
0001
0110
1010
0101
,
0011
0000
0010
0100
0000
1000
0010
0000
0100
0001
0000
0010
,
0100
0000
1000
0001
0000
0100
0010
0000
0000
0010
1000
0001
,
1000
0000
0001
0010
0000
0100
1000
0000
0001
0100
0000
0010
,
1000
1001
0011
1100
,
1010
0000
0010
1000
0000
0001
0010
0000
0100
1000
0001
1000
,
0010
0000
0000
0110
0000
0100
0001
0010
0100
1000
0001
0010
,
0100
0000
1000
0010
0000
1000
0100
0000
1000
0010
0000
1000
,
0100
0000
0010
0001
0000
0001
1000
0000
1000
0001
0100
0001
,
0100
0000
0001
0010
0000
0001
0100
0000
0001
0010
0000
0001
,
0100
0000
0010
1000
0000
1000
0100
0010
0001
1000
0000
0001
,
0100
0000
0010
0100
0000
0001
1000
0000
0001
0200
0000
0010
,
0010
0000
0010
0310
0000
0010
0100
0000
0001
1000
0000
0001
,
0010
0000
0010
0100
0000
0100
1000
0000
1000
0010
0000
0010
,
0100
0000
0100
0001
0000
0001
1000
0001
1000
0001
0010
0100
,
1000
0000
0001
1000
0000
1000
0001
0000
0001
1000
0000
0001
,
0100
0001
1000
0100
1000
0001
0100
0001
1000
0100
0010
0001
,
1000
0001
1000
0001
1000
0001
2000
3200
0320
0032
2003
3200
,
0320
0000
0031
1000
0000
1000
0010
0000
0010
0100
0000
0001
,
1000
0100
0100
0001
0100
0100
1000
0100
0100
0001
0100
0100
,
1000
0000
0010
0100
0000
0001
0010
0000
0100
1000
0000
0001
,
1100
0000
1000
0011
0000
0001
0010
0100
1000
0110
0000
1000
,
0001
0000
0010
0100
0000
1000
0010
0000
0100
0001
0000
1000
,
0100
1001
1100
0011
,
1001
0000
0001
0100
0000
0010
1000
0000
0001
0010
0100
1000
,
0010
0000
0000
0110
0000
0100
0001
0010
0100
1000
0001
0010
,
0200
0000
1300
0020
0000
0031
2000
0000
3100
0002
0000
0013
,
0200
0000
0301
0200
0000
1300
0200
0000
0310
0001
1000
0010
,
0002
0000
0013
2000
0000
3100
0020
0000
1030
0020
0000
0130
,
2000
0000
3001
0200
0000
0310
0110
0000
0000
1001
0000
0001
,
0100
0000
1000
0100
0000
0001
0100
0000
1000
0100
0000
0001
,
0010
0000
1000
0010
0000
0001
0010
0000
1000
0010
0000
0001
,
0101
0000
1000
1010
0000
0001
0101
0000
1000
1001
0000
0001
,
0011
0000
1000
1100
0000
0100
1000
0001
1000
0001
0010
0100
,
0110
0000
1000
0101
0000
0001
1100
0000
1000
0101
0000
1000
,
0001
0100
0001
1000
0100
1000
0001
0100
0001
1000
0100
1000
,
0100
0100
0100
0100
0100
0100
0002
0023
0230
2300
3002
0023
,
0230
0000
1300
0010
0000
0100
0001
0000
1000
0100
0000
0010
,
0001
0100
0100
1000
0010
0010
0001
0100
0100
1000
0010
0010
,
0001
0000
0100
0010
0000
0100
1000
0000
0100
0010
0000
0100
,
0001
0000
0001
0020
0000
0000
0130
1000
0001
0200
0000
0000
,
0310
0000
1000
1000
0000
0010
0010
0000
0100
0100
0000
0001
,
0001
1001
0101
1010
,
1001
0000
0001
0001
0000
0010
0010
0000
0100
0100
1000
0010
,
0010
0220
0000
0000
,
0000
0000
0000
0000
,
0330
0000
0000
0000
;

//---------------dance-single - ----------------
#NOTES:
     dance-single:
     :
     Challenge:
     19:
     1.186058,1.473457,0.865445,0.762765,2.310299,566.000000,507.000000,59.000000,52.000000,0.000000,2.000000,1.186058,1.473457,0.865445,0.762765,2.310299,566.000000,507.000000,59.000000,52.000000,0.000000,2.000000:
// measure 0
0000
0000
0000
0000
,  // measure 1
0000
0000
0000
0000
,  // measure 2
0101
0000
0001
0010
0000
0010
0100
0000
1000
0010
0000
0010
,  // measure 3
0110
0000
0000
1001
0000
0000
1010
1000
0001
0101
0000
0000
,  // measure 4
0110
0000
0010
1000
0000
1000
0100
0000
0010
0001
0000
0001
,  // measure 5
0100
0000
0000
0000
0010
0000
1002
0000
0000
0000
1003
0010
0100
0000
0000
0000
0001
0010
0100
0000
1000
0000
0001
0000
,  // measure 6
1001
0000
1000
0100
0000
0100
0010
0000
0001
0100
0000
0100
,  // measure 7
0110
0000
0000
0000
0000
0000
1001
0000
0000
0000
1000
0001
0100
0000
0000
0000
0001
1000
0100
0000
0000
0000
0000
0000
,  // measure 8
1100
0000
0000
0000
1000
0000
0100
0000
0000
0000
0100
0000
0010
0000
0000
0000
0001
1000
0010
0000
0100
0000
0001
0000
,  // measure 9
0101
0000
0000
0000
0000
0000
1001
0000
0000
0000
0001
0010
0100
0000
1000
0000
0001
0000
0010
0000
0100
0000
1000
0000
,  // measure 10
1100
0000
0000
0000
0100
1000
0001
0000
0000
0000
0100
0000
0010
0000
0000
0000
0100
0001
1000
0000
0000
0000
0100
0000
,  // measure 11
0010
0000
0000
0000
0001
0010
0100
0000
0000
0000
1000
0010
0100
0000
0000
0000
0001
0010
0100
0000
1000
0000
0010
0000
,  // measure 12
0110
0000
0000
0000
0100
0001
1000
0000
0000
0000
0100
0000
0010
0000
0000
0000
0100
1000
0001
0000
0000
0000
0100
0000
,  // measure 13
0010
0000
0000
0000
0100
0001
1000
0000
0000
0000
0001
0010
0200
0000
1000
0000
1000
0000
1300
0000
0000
0000
0001
0000
,  // measure 14
0100
0000
0000
0000
0010
1000
0001
0000
0000
0000
0010
0000
1000
0000
0000
0000
0010
0001
1000
0000
0000
0000
0020
0000
,  // measure 15
0200
0000
0030
0000
0310
0200
0020
0000
0300
0000
0130
0010
0100
0000
0010
0000
0100
0000
0110
0000
0000
0000
1000
0000
,  // measure 16
1010
0010
1000
1001
0001
0100
0101
0001
0010
0110
0100
1000
,  // measure 17
1001
0001
0100
0110
0010
1000
1010
0010
1000
1001
0001
0010
,  // measure 18
0110
0000
0100
1000
0010
0100
0001
0010
0001
0100
0010
1000
,  // measure 19
0001
1000
0100
0000
0010
0000
0100
1000
0001
0000
0100
0000
0001
1000
0100
0000
0010
0000
0100
1000
0001
0000
0100
0000
,  // measure 20
0001
1000
0001
1000
0001
1000
0001
1000
0001
1000
0001
1000
0002
0020
0233
2300
3002
0023
0230
2300
3002
0023
0230
2300
,  // measure 21
3001
0000
0000
0000
1000
0100
0010
0000
0000
0000
0001
0010
0100
0000
0000
0000
1000
0100
0010
0000
0000
0000
0001
0000
,  // measure 22
0100
1000
1000
0100
0010
0010
0100
0001
0001
0010
0100
0100
,  // measure 23
0110
0000
0001
0010
0000
1000
0010
0000
0001
0100
1000
0100
,  // measure 24
0110
0000
0000
0000
0010
1000
0001
0000
0000
0000
0010
0000
0110
0000
0100
0000
1000
0000
0001
0010
0100
1000
0001
0010
,  // measure 25
0100
0000
1000
0100
0000
0100
1000
0000
0001
0100
0000
0100
,  // measure 26
0110
0000
0000
0000
0000
0000
1001
0000
0000
0000
1000
0100
0010
0000
0000
0000
0001
0010
0100
0000
0000
0000
0000
0000
,  // measure 27
0110
0000
0000
0000
0010
0000
0001
0000
0000
0000
1000
0000
0001
0000
0000
0000
1000
0010
0100
0000
0001
0000
1000
0000
,  // measure 28
1100
0000
0000
0000
0000
0000
0011
0000
0000
0000
0001
0010
0100
0000
1000
0000
0001
0000
0010
0000
0100
0000
1000
0000
,  // measure 29
0020
0000
0000
0000
0130
0001
2000
0000
0000
0000
3100
0000
0002
0000
0000
0000
0103
1000
0020
0000
0000
0000
0031
0000
,  // measure 30
2000
0000
0000
0000
3100
0001
0020
0000
0000
0000
1030
0000
0002
0000
0000
0000
0103
1000
0010
0000
0010
0000
0010
0000
,  // measure 31
0200
0000
0000
0000
0310
1000
0002
0000
0000
0000
0013
0000
2000
0000
0000
0000
3010
0001
0200
0000
0000
0000
1300
0100
,  // measure 32
0020
0000
0000
0000
1030
0100
0002
0000
0000
0000
1003
0010
0200
0000
1000
0000
0010
0000
0302
0000
0000
0000
1003
0000
,  // measure 33
0100
0000
0000
0000
0001
0010
1000
0000
0000
0000
0010
0000
0001
0000
0000
0000
1000
0010
0001
0000
0000
0000
0010
0000
,  // measure 34
1000
0000
0000
0000
0001
0010
1000
0000
0000
0000
0010
0001
1000
0000
0010
0000
0100
0000
0101
0000
0000
0000
1000
0000
,  // measure 35
0101
1000
0010
1100
0001
0010
0101
1000
0010
1100
0001
0010
,  // measure 36
0101
1000
0010
1100
0001
0010
0101
0100
0100
1100
0100
0100
,  // measure 37
0101
0000
0001
0010
0100
1000
0010
0100
0001
0010
0100
1000
,  // measure 38
0010
1000
0001
0000
0010
0000
0100
1000
0001
0000
0100
0000
0010
1000
0001
0000
0010
0000
0100
1000
0001
0000
0010
0000
,  // measure 39
0100
0100
0100
0100
0100
0100
0100
0100
0100
0100
0100
0100
0002
0020
0233
2300
3002
0023
0230
2300
3002
0023
0230
2300
,  // measure 40
3001
0000
1000
0000
0001
0100
0010
0000
1000
0000
0001
0010
0100
0000
1000
0000
0010
0100
0001
0000
1000
0000
0010
0000
,  // measure 41
0120
1000
1030
0210
0001
0301
0120
1000
1030
0210
0001
0301
,  // measure 42
0110
0000
1000
0010
0000
0100
0001
0000
0010
0100
1000
0010
,  // measure 43
0101
0000
0000
0000
0001
1000
0200
0000
0000
0000
0310
0000
0100
0000
1000
0000
0001
0000
1000
0100
0010
0001
1000
0100
,  // measure 44
0010
0000
0001
1010
0000
0001
0110
0000
0001
1100
0000
0001
,  // measure 45
0110
0000
0000
0000
0000
0000
0110
0000
0000
0000
1000
0100
0010
0000
0000
0000
0001
0100
0010
0000
0000
0000
0000
0000
,  // measure 46
0110
0000
0000
0000
1000
0000
0101
0000
0000
0000
1000
0000
0110
0000
0000
0000
0001
0010
0100
0000
1000
0000
0001
0000
,  // measure 47
0110
2002
0000
0000
,  // measure 48
0000
0000
0000
0000
,  // measure 49
3003
0000
0000
0000
;
