#TITLE:ウォーアイニー;
#SUBTITLE:;
#ARTIST:水曜日のカンパネラ;
#TITLETRANSLIT:wo ai ni;
#SUBTITLETRANSLIT:;
#ARTISTTRANSLIT:WEDNESDAY CAMPANELLA;
#GENRE:ANIME;
#CREDIT:;
#MUSIC:wo ai ni.ogg;
#BANNER:wo ai ni.png;
#BACKGROUND:wo ai ni-bg.png;
#CDTITLE:;
#SAMPLESTART:48.156;
#SAMPLELENGTH:13.241;
#SELECTABLE:YES;
#OFFSET:1.085;
#BPMS:0.000=145.000;
#STOPS:;
#LASTBEATHINT:0.155520;
#BGCHANGES:2.500=wo ai ni.avi=1.000=0=0=0=StretchNoLoop====,
99999.000=-nosongbg-=1.000=0=0=0=StretchNoLoop====
;
#FGCHANGES:;

//--------------- dance-single - ----------------
#NOTES:
     dance-single:
     :
     Hard:
     12:
     0,0,0,0,0:
0000
0000
0000
0000
,
0000
0000
0000
0000
,
0001
0000
1000
0100
1000
0000
0010
0000
,
0100
0001
0100
0001
1000
0100
0010
0001
,
1000
0000
0001
0010
0100
0000
1000
0000
,
1100
0000
0101
0000
1001
0000
0000
0001
,
0100
1000
0000
1000
0100
0001
0000
1000
,
0000
0001
0010
0000
0100
0000
1000
0000
,
0001
0000
0100
0010
0100
0000
1000
0000
,
0100
0001
1000
0100
0001
0000
0000
0100
,
1000
0001
0000
0100
0001
1000
0000
0001
,
0000
0010
0100
1000
0001
0000
0110
1000
,
0001
1000
0010
0100
0000
0100
0000
0100
,
0001
1000
0000
0000
0001
0010
0100
0010
,
1000
0001
0100
1000
0000
0010
0000
0100
,
0001
0100
0000
0000
0010
1000
0010
0001
,
0010
0100
0000
0101
0000
1020
0000
0100
,
0000
0100
0000
1000
0000
0001
0000
0230
,
0000
0000
0301
0010
0000
0100
1000
0001
,
0000
0000
0100
0000
0010
0100
1001
0000
,
0001
0100
1000
0100
0001
0100
0001
0100
,
1000
0100
0001
1000
0100
0000
0100
1000
,
0100
0001
0100
1000
0100
1000
0100
0001
,
0100
1000
0001
0000
0100
0000
1000
0100
,
0001
0010
1000
0010
0001
0010
1000
0010
,
1000
0010
0001
1000
0010
0000
0010
0001
,
0010
1000
0010
0001
0010
0001
0010
1000
,
0100
0010
0001
1000
0110
0000
0100
1000
,
0020
0001
0100
1000
,
0130
0001
0010
0100
1000
0000
0110
0000
,
0001
0000
1000
0100
0000
0010
0001
1100
,
0000
0011
0000
0120
0000
0100
0130
0000
,
0001
1000
0010
0100
0010
1000
0001
0010
,
0000
0010
0100
1000
0001
0010
0100
0000
,
1001
0000
1000
0100
0010
0100
1000
0011
,
0000
1001
0000
1100
0002
0100
0103
0010
,
1000
0000
1000
0010
0000
0010
0100
0002
,
0000
1003
0001
0010
0200
1000
1300
0001
,
0010
0000
1000
0000
0010
0000
0001
0100
0000
0010
0000
0100
0001
0000
0010
0000
,
0100
0000
0100
0000
1000
0000
1000
0000
0001
0000
0000
1001
0000
0000
1000
0000
,
0010
0000
0001
0000
0010
0000
1000
0100
0000
0010
0000
0100
1000
0000
0001
0000
,
0100
0000
0010
0000
0100
0000
0010
0000
0110
0000
0000
1001
0000
0000
0001
0000
,
0100
0000
1000
0000
0100
0000
0010
1000
0000
0001
0000
0010
0100
0000
0020
0000
,
0001
0000
0000
0100
0000
0000
1030
0000
0010
0000
0001
0000
1000
0000
0001
0000
,
0100
0001
1000
0100
0000
0100
0010
0100
,
0000
1000
0001
0000
0011
0000
2100
0000
,
3200
1300
0200
1300
0002
0103
0002
0103
,
0002
1003
0200
1300
0002
0103
0002
0000
,
2003
0000
3100
0000
0002
0000
0100
0003
2000
0000
3100
0000
0002
0000
0103
0000
,
2000
3001
2000
3001
2000
3010
0200
0000
,
0320
1030
0020
1030
0002
0013
0002
0013
,
0002
1003
0020
1030
0002
0013
0002
0000
,
2003
3010
0002
0013
2000
3010
0002
0013
,
2000
3001
2000
3001
2000
3100
0110
0000
;

//--------------- dance-single - ----------------
#NOTES:
     dance-single:
     :
     Challenge:
     16:
     0.919215,1.103157,0.366101,0.532511,0.987364,580,547,33,48,0,0,0.919215,1.103157,0.366101,0.532511,0.987364,580,547,33,48,0,0:
0000
0000
0000
0000
,
0000
0000
0000
0000
,
0001
0000
0000
1000
0000
0000
0100
0000
,
0010
0000
0000
0010
0000
0001
1000
0100
,
1100
0000
1000
0110
0001
0100
0001
1001
,
0000
1001
0101
1000
0100
0000
0100
0010
,
0110
1000
0001
1001
0010
0100
0000
1010
,
0100
0101
0001
1100
0010
0000
0001
0000
,
1002
0000
0000
1003
0010
0000
0200
0000
0000
0000
0310
0000
0100
0000
0002
0000
,
1000
0000
0000
0013
0100
0000
2000
0000
0001
0000
0100
0000
3100
0000
0000
0000
,
0021
0000
0000
0130
1000
0000
0020
0000
1000
0000
0100
0000
1030
0000
0002
0000
,
0000
0000
0000
0013
0100
0000
2000
0000
0010
0000
0100
3000
0110
0000
0010
0000
,
0001
0000
1000
0100
0010
0000
0100
0000
1000
0010
0100
0000
1000
0000
0100
0001
,
1000
0000
0100
0000
0010
0100
1000
0000
0001
0000
1000
0010
0100
0000
0010
0000
,
1000
0000
0100
0010
0001
0000
0100
0000
0010
0100
0001
0000
0010
0000
0100
0000
,
0001
0000
0000
0000
0000
0000
0100
0000
0000
0010
0000
0000
0001
0000
0000
0000
0000
0000
1000
0000
0000
0000
0000
0000
0001
0000
0010
0000
0100
0000
1000
0000
0100
0000
0010
0000
0100
0000
1000
0000
0100
0000
0010
0000
0001
0000
1000
0000
,
0010
0000
0100
0001
1000
0000
0100
0000
0001
0100
0010
0000
0001
0000
1000
0010
,
0100
0000
1000
0000
0100
0001
0010
0000
0100
0000
1000
0100
0001
0000
0100
0000
,
1000
0000
0001
0100
0010
0000
1000
0000
0001
0010
0100
0000
1000
0000
0001
0000
,
0100
0000
0010
1000
0001
0000
1000
0000
0001
0010
0100
1000
1001
0000
0000
0000
,
1000
0000
0001
0010
0100
0010
0100
1000
0001
0010
0100
1000
0001
1000
0100
0010
,
0001
0100
0010
0100
0010
1000
0001
0100
0010
1000
0001
1000
0100
0000
0000
0000
,
0100
0000
1000
0010
0100
0010
0100
0001
1000
0010
0100
0001
1000
0001
0100
0010
,
1000
0100
0010
0100
0010
0001
1000
0100
0010
0001
1000
0001
0100
0000
0000
0000
,
0100
0001
1000
0001
1000
0100
0010
0001
1000
0001
0010
0100
1000
0001
1000
0001
,
0100
0010
1000
0001
1000
0100
0010
0001
0010
0100
1000
0010
0001
0000
0010
0000
,
1000
0001
0100
0010
0100
0001
0010
0100
1000
0100
0010
0100
1000
0010
0100
0001
,
0010
0100
1000
0001
0100
0010
0100
0001
1001
0000
1000
0010
0100
0000
0001
0000
,
1000
0000
0100
0000
1000
0000
0001
0000
1000
0000
0100
0000
1000
0000
0001
0000
0100
0000
0001
0000
1000
0000
0001
0000
0100
0000
0001
0000
1000
0000
0100
0000
0010
0000
0001
0000
1000
0000
0000
0010
0000
0000
0100
0000
0000
0001
0000
0000
,
0010
0100
1000
0100
0010
0001
1000
0002
0010
0000
0100
0003
0110
0000
0000
0000
,
0001
0000
0100
0101
0000
1010
0100
0110
,
0000
0000
0000
1010
0000
0000
0000
0000
0000
0101
0000
0000
0001
0010
0100
1000
0001
0010
0100
0000
0000
1000
0000
0000
,
0100
0000
0001
0100
0010
0000
0001
0000
0100
0000
1000
0100
0010
0000
1000
0000
,
0001
0000
0010
0100
1000
0000
0010
0100
0001
0000
0010
0100
1000
0000
0000
0000
,
1001
0000
0001
0100
1000
0000
0100
0000
0001
0000
1000
0100
0001
0000
0101
0000
,
0000
0000
0110
0000
0000
0000
1100
0000
0001
0000
0100
0010
0100
0000
1000
0100
,
0001
0000
1000
0000
1100
0000
0010
0000
0001
0000
1000
0100
0010
0000
0002
0000
,
0000
0000
1003
0000
0001
0000
0010
0000
0200
0000
1000
0000
1300
0000
0001
0200
,
0010
0000
1000
0000
0310
0000
0002
0100
0000
1000
0000
0103
0010
0000
0100
0000
,
0010
1000
0010
0100
0001
0100
0010
1000
0001
0000
0000
1001
0000
0000
1000
0200
,
0001
0000
0010
0000
1300
0000
0001
0200
0000
1000
0000
0301
1000
0000
0100
0000
,
0010
0001
0010
0100
0010
0001
0010
0100
1000
0000
0000
0101
0000
0000
0001
0200
,
1000
0000
0010
0000
0301
0000
1000
0200
0000
0001
0000
1300
0001
0000
0100
0000
,
1010
0000
0000
0110
0000
0000
0101
0000
0001
0000
0010
0100
1000
0000
0001
0000
,
0101
0000
0000
0000
1000
0010
0100
0000
0010
0000
1000
0001
1000
0000
0010
0000
,
0100
0000
0000
0010
0000
0000
0100
0000
0000
0000
0000
0000
0001
0000
0000
0000
0000
0000
0010
0000
0000
0100
0000
0000
1000
0000
0000
0000
0000
0000
0001
0000
0000
0000
0000
0000
1000
0000
0001
0000
0010
0000
0001
0000
0010
0000
0100
0000
,
2000
0000
0001
3010
2000
0000
0010
3001
2000
0000
0001
3010
2000
0000
0010
0000
,
3010
0001
2000
0001
3010
2000
0010
3001
2000
0000
0100
0000
3200
0000
1000
0310
,
0002
0000
0010
1003
0002
0000
1000
0013
0002
0000
0010
1003
0002
0000
1000
0000
,
1000
0013
0002
0010
1003
0002
1000
0013
0002
0000
0010
0000
0023
0000
0130
0001
,
2000
0000
0001
3100
2000
0000
0100
3001
2000
0000
0001
3100
2000
0000
0100
0000
,
3100
0001
2000
0001
3100
2000
0100
3001
2000
0000
0010
0000
3020
0000
1000
0130
,
0002
0000
0100
1003
0002
0000
1000
0103
0002
0000
0100
1003
0002
0000
1000
0000
,
1000
0103
0002
0100
1003
0002
1000
0103
0002
0000
0103
0000
0110
0000
0000
0000
;
