#TITLE:ウツシヨノユメ;
#SUBTITLE:;
#ARTIST:ナノ;
#TITLETRANSLIT:utsushiyo no yume;
#SUBTITLETRANSLIT:;
#ARTISTTRANSLIT:nano;
#GENRE:ANIME;
#CREDIT:;
#MUSIC:utsushiyo no yume.ogg;
#BANNER:utsushiyo no yume.png;
#BACKGROUND:utsushiyo no yume-bg.png;
#CDTITLE:;
#SAMPLESTART:50.863;
#SAMPLELENGTH:11.798;
#SELECTABLE:YES;
#OFFSET:0.697;
#BPMS:0.000=178.000;
#STOPS:;
#BGCHANGES:2.000=utsushiyo no yume.avi=1.000=0=0=0=StretchNoLoop====,
99999.000=-nosongbg-=1.000=0=0=0=StretchNoLoop====
;
#FGCHANGES:;

//--------------- dance-single - ----------------
#NOTES:
     dance-single:
     :
     Hard:
     15:
     0,0,0,0,0:
0000
0000
0000
0000
,
1001
0000
0000
1000
0010
0000
0110
0000
0000
0000
0001
0000
1000
0000
0001
0000
,
0100
0000
0010
0100
0001
0000
1000
0100
,
0010
0000
0000
1001
0000
0000
0011
0000
0000
0011
0000
0000
1000
0000
0010
0000
,
1001
0000
0000
0000
1001
0000
0000
0000
1000
0100
1000
0000
0001
0010
0001
0000
,
1000
0000
0100
1000
0100
0000
0010
0000
0001
0000
1000
0100
1000
0000
0001
0000
,
0010
0000
0100
1000
0100
0000
0010
0000
0001
0000
0001
0000
1000
0000
1000
0000
,
0010
0000
0100
0001
0100
0000
0010
0000
1000
0000
0001
0100
0001
0000
1000
0000
,
0010
0000
0100
0001
0100
0000
0010
0000
0100
0000
0100
0000
0010
0000
0010
0000
,
1000
0000
0010
0100
0010
0000
1000
0000
0001
0000
0100
0010
0100
0000
1000
0000
,
0100
0100
0001
0010
0010
0100
1000
1000
,
0100
0000
0010
0100
0010
0000
0001
0000
1000
0000
0100
0010
0100
0000
1000
0000
,
0001
0000
0010
0100
0010
0000
0100
0000
1000
0000
0010
0000
1000
0000
0010
0000
,
0100
0000
0010
1000
0010
0000
0100
0000
0001
0000
1000
0010
1000
0000
0010
1000
,
0010
0010
0010
0010
1000
1000
0001
0001
,
2000
0000
0010
0000
0010
0000
3010
0100
,
0101
0000
1001
0000
0001
0010
0100
1000
,
0002
0100
2003
0100
3020
0100
2030
0100
,
3001
0110
0000
0001
1001
0000
1001
0000
,
0011
0001
0001
0010
0110
0000
1000
0001
,
0010
0001
0010
0100
0011
0000
1100
0000
,
0101
0001
0100
0010
1010
0000
1000
0001
,
1001
0000
0000
0011
0000
0000
1100
0000
1001
0000
0000
1010
0000
0000
0101
0000
,
0001
0001
0100
0010
1000
1000
0100
0010
,
0001
0010
0000
0001
0010
0000
0100
1000
0000
0100
1000
0000
0001
0010
0001
0010
,
0100
0100
1000
1000
0001
0001
0100
0100
,
0010
1000
0010
0000
0100
0001
0100
0000
0010
1000
0010
0000
0100
0001
0100
0000
,
0010
1000
0010
1000
0001
0010
1000
0001
,
0100
1000
0100
1000
0001
0100
1000
0001
,
0010
0000
0100
0000
1000
0000
0100
0000
0010
0000
1000
0000
0001
0000
0010
0100
,
0010
0000
0100
0010
0100
0000
1000
0000
0001
0000
0001
0000
1000
0000
1000
0000
,
2010
0000
0000
0010
3020
0000
0100
0230
,
0000
0001
0001
0301
0101
0000
1001
0100
,
0020
0000
0000
0000
0030
0000
2002
0000
0000
3003
0000
0000
0022
0000
0000
0000
,
0033
2100
0000
0001
0001
0001
0001
3001
,
1001
0000
1010
0100
0001
0100
0010
1000
,
0010
0000
0100
0000
0001
0000
0010
0000
0001
0100
0010
0000
1000
0010
0100
0000
,
1001
0000
0101
0000
1010
0101
0000
1100
,
0000
0000
1001
0000
0100
0010
0100
1001
,
0000
0110
0001
1000
0000
0110
0001
1000
,
0000
0110
0001
1000
0000
1001
0000
0001
,
1100
0000
0100
1000
1100
0010
1001
0000
,
0110
0001
1000
0001
1000
0010
2010
0000
,
3100
0010
0100
0010
0100
0010
0002
0000
,
0103
0010
1010
0100
0001
0010
1100
0000
,
0011
0100
1000
0100
0011
0100
1000
0100
,
0011
0000
0001
0000
0011
0000
1000
0000
1100
0000
1000
0000
0001
0100
0010
0100
,
0002
0100
0023
1000
0230
0010
0302
0100
,
2003
0100
3100
0000
2000
0100
3020
0001
,
0230
0310
1010
0000
0001
0010
0011
0000
,
1000
0100
1100
0000
0100
0010
1001
0100
,
0010
0011
0001
0100
1010
0000
0101
0010
,
0100
0110
0000
1001
0000
0100
0100
0100
,
1000
1000
0001
0001
0100
0100
0010
0010
,
1000
0010
1000
0000
0001
0100
0001
0000
1000
0100
1000
0000
0001
0010
0001
0000
,
1001
1001
0010
0000
1001
1001
0100
0010
,
0000
1100
0101
1100
1001
0000
0010
0100
,
1000
0000
1000
0100
1000
0000
1000
0000
1000
0000
1000
0100
1000
0000
1000
0000
,
1000
0000
1000
0100
1000
0000
1000
0000
0010
0000
0010
0000
0100
0000
0100
0000
,
0001
0000
0001
0100
0001
0000
0001
0000
0001
0000
0001
0100
0001
0000
0001
0000
,
0001
0000
0001
0100
0001
0000
0001
0000
0010
0000
0010
0000
0100
0000
0100
0000
,
1000
0000
1000
0010
1000
0000
1000
0000
1000
0000
1000
0010
1000
0000
1000
0000
,
0001
0000
0001
0010
0001
0000
0001
0000
0001
0000
0001
0010
0001
0000
0001
0000
,
1000
0000
1000
0000
0001
0000
0001
0000
0001
0100
0001
0010
0001
0000
0001
0000
,
1000
0100
1000
0001
1000
0010
1000
0100
1000
0001
1000
0010
1000
0100
0010
0002
,
2000
0000
0000
0000
,
3003
0000
0001
2000
0002
0000
0000
0000
0000
0000
0000
0000
0000
0000
0000
0000
,
3003
0000
0000
0000
;

//--------------- dance-single - ----------------
#NOTES:
     dance-single:
     :
     Challenge:
     17:
     0.061133,0.051846,0,0.04389,0,39,39,0,4,0,0,0.061133,0.051846,0,0.04389,0,39,39,0,4,0,0:
0000
0000
0000
0000
,
1001
0000
0000
0001
0010
0000
0110
0000
0000
0000
1000
0000
0001
0000
1000
0000
,
0100
0000
1000
0000
0100
0000
0000
0000
0000
0000
0000
0000
0010
0000
0000
0000
0000
0000
0100
0000
0000
0000
0000
0000
1000
0000
0100
0000
1000
0000
0000
0000
0000
0000
0000
0000
0001
0000
0000
0000
0000
0000
0100
0000
0000
0001
0000
0000
,
0100
0000
0000
0011
0000
0000
0110
0000
0000
1100
0000
0000
0101
0000
0001
0000
,
1001
0000
0000
0000
1001
0000
0000
0000
0001
0100
0001
0100
0010
1000
0010
0100
,
0001
0000
0001
0100
0001
0000
0010
0000
0001
0000
0001
0100
0001
0000
0010
0000
,
0001
0000
0001
0100
0001
0000
0010
0000
0001
0100
0001
0010
0001
0100
0001
0010
,
0001
0000
1000
0100
1000
0000
0010
0000
1000
0000
1000
0100
1000
0000
0010
0000
,
1000
0000
1000
0100
1000
0000
0001
0000
1000
0100
1000
0010
1000
0100
1000
0010
,
1000
0000
0001
0100
0010
0000
0100
0000
0001
0000
0001
0100
0010
0000
0001
0000
,
0011
0011
0000
0110
0110
0000
1100
1100
,
1000
0000
1000
0100
0010
0000
0100
0000
1000
0000
1000
0100
0010
0000
0100
0000
,
1000
0000
1000
0100
0001
0000
0100
0000
1000
0100
0010
0100
1000
0100
0010
0100
,
0010
0000
0001
0010
0001
0000
1000
0000
0100
0000
0010
0001
0010
0000
0001
0010
,
0001
0110
0110
0110
1100
1100
0101
0101
,
1100
0000
0000
0001
0010
0000
0100
0000
0010
0000
0100
1000
0100
0000
0010
0000
,
0110
0000
1001
0000
0001
0100
0010
1000
,
0010
0000
0100
0001
0100
0000
0010
0000
1000
0000
1000
0000
0001
0000
0001
0000
,
0010
0000
0110
0000
0000
0000
0010
0001
0100
0000
0001
0000
1000
0000
0001
0000
,
0001
0000
1000
0100
1000
0000
0001
0000
0011
0000
0000
0000
0010
0000
0001
0000
,
0011
0001
0101
0100
1100
0000
1010
0000
,
0101
0100
0001
0010
1010
0000
1000
0010
,
0110
0000
0000
0101
0000
0000
0110
0000
1001
0000
0000
1010
0000
0000
0101
0000
,
0001
0000
0001
0010
0100
0000
0010
0000
0001
0000
0001
0010
0100
0000
0010
0000
,
0001
0010
0100
0010
0001
0010
0100
0000
1000
0100
0010
0100
1000
0100
0010
0100
,
1000
0000
1000
0010
0100
0000
0010
0000
1000
0000
1000
0010
0100
0000
0010
0000
,
0100
0001
0010
0000
0100
1000
0010
0000
0110
0000
0100
0001
0010
0100
1000
0010
,
0100
0000
0110
0000
0010
1000
0010
0000
0100
0000
0001
0010
0100
0010
0001
0000
,
0100
0000
1000
0000
0100
0001
0100
0000
0010
0000
0100
0000
0001
0100
0001
0000
,
0010
0000
0100
0000
1000
0100
0010
0000
0100
0000
0010
0100
1000
0010
0100
1000
,
0100
0000
0000
0100
0001
0000
0001
0000
0010
0000
0010
0000
0100
0000
0100
0000
,
2100
0000
0000
0000
0000
0000
3001
0100
0001
0000
0001
0000
0001
0000
0102
0000
,
0000
0000
1000
0000
1000
0000
1003
0000
2010
0000
0000
0000
3001
0100
0001
0100
,
0020
0000
0000
0000
0000
0000
1030
0001
2000
0000
0000
0000
0001
0000
3002
0000
,
0000
0010
0023
0000
0100
0100
0100
0130
,
0110
0000
0011
0010
1010
1000
1100
0100
,
0101
0000
0101
0000
1001
0000
1001
0000
0001
0100
0010
0100
0010
1000
0010
1000
,
0001
0000
1100
0001
0011
1100
0100
0011
,
0000
0000
0000
0000
1001
0000
0000
0000
1000
0100
0010
0001
1000
0100
0010
0000
,
0000
0000
1001
0000
0001
0010
0100
0000
1000
0000
1001
0000
0001
0010
0100
0000
,
1000
0000
1001
0000
0001
0010
0100
0000
1000
0000
1001
0000
0000
0000
0100
0000
,
1010
0000
0100
0001
0011
0100
1010
0001
,
0110
0000
0010
0000
1100
0000
0001
0000
1000
0100
0010
0100
1000
0000
0010
1000
,
0010
0000
0100
0000
0001
0100
0010
0100
0001
0000
0010
0100
0010
0000
0100
1000
,
0100
0010
0011
0001
1100
1000
0011
0001
,
1001
0100
1001
0010
1001
0100
1001
0001
,
0010
0000
0010
0000
0100
0000
0100
0000
1000
0000
1000
0000
0001
0100
0010
0100
,
1000
0000
0100
0001
0100
0000
0010
0000
0100
0000
1000
0100
1000
0000
0100
0000
,
0001
0000
1000
0100
1000
0000
0100
0000
0001
0000
0100
1000
0100
0000
1000
0000
,
0001
1000
0001
0100
0001
1000
0001
0010
0001
1000
0010
1000
0001
1000
0100
1000
,
0001
1000
0010
0000
1001
0000
0010
0001
0100
0000
1001
0000
1001
0000
1000
0100
,
0010
0000
0011
0000
1100
0000
1000
0100
0010
0000
0011
0000
1100
0000
0001
0100
,
0010
0000
0101
0000
0001
0100
0010
0000
1001
0000
0010
0000
0110
0000
0110
0000
,
0010
1000
0010
0000
0100
0001
0100
0000
0001
0010
0001
0000
1000
0100
1000
0000
,
0001
0010
0001
0010
0100
1000
0100
1000
0001
0010
0100
1000
0001
0100
0010
0000
,
1001
1001
0010
0000
1001
1001
0100
0010
,
0000
0000
0110
0000
1001
0000
0110
0000
1001
0000
0001
0100
0001
0100
0001
0100
,
0001
0000
0001
0100
0010
0000
0100
0000
0001
0000
0001
0100
0010
0000
0100
0000
,
0001
0000
0001
0100
0010
0000
0100
0000
0001
0100
1000
0100
0001
0100
1000
0100
,
0001
0000
1000
0100
0010
0000
0100
0000
1000
0000
1000
0100
0010
0000
0100
0000
,
1000
0000
1000
0100
0010
0000
0100
0000
1000
0100
0001
0000
0001
0100
1000
0000
,
0001
0000
0001
0010
0100
0000
0010
0000
0001
0000
0001
0010
0100
0000
0010
0000
,
0001
0000
0001
0010
1000
0000
0010
0000
0001
0010
0100
0010
0001
0010
1000
0000
,
1000
0010
0001
0100
0010
0000
0110
0000
0010
0001
0010
1000
0100
0000
0110
0000
,
0010
0001
0010
0100
0010
0001
0010
0100
1000
0100
0010
0100
1000
0100
0010
0002
,
2000
0000
0000
0000
,
3003
0000
0100
0010
0220
0000
0000
0000
0000
0000
0000
0000
0000
0000
0000
0000
,
0330
0000
0000
0000
;
