#TITLE:灯火のまにまに;
#SUBTITLE:;
#ARTIST:東山奈央;
#TITLETRANSLIT:tomoshibi no manimani;
#SUBTITLETRANSLIT:;
#ARTISTTRANSLIT:toyama nao;
#GENRE:ANIME;
#CREDIT:;
#MUSIC:tomoshibi no manimani.ogg;
#BANNER:tomoshibi no manimani.png;
#BACKGROUND:tomoshibi no manimani-bg.png;
#CDTITLE:;
#SAMPLESTART:60.425;
#SAMPLELENGTH:10.875;
#SELECTABLE:YES;
#OFFSET:0.679;
#BPMS:0.000=80.000
,10.000=160.000
,42.000=80.000
,58.000=160.000
,90.000=80.000
,106.000=160.000
;
#STOPS:;
#BGCHANGES:1.000=tomoshibi no manimani.avi=1.000=0=0=0=StretchNoLoop====,
99999.000=-nosongbg-=1.000=0=0=0=StretchNoLoop====
;
#FGCHANGES:;

//--------------- dance-single - ----------------
#NOTES:
     dance-single:
     :
     Hard:
     13:
     0,0,0,0,0:
0000
0000
0000
0000
0000
0000
0000
0000
0001
0000
0010
0100
1000
0001
1000
0010
,
1000
0000
0001
0010
0010
0100
1000
0001
0200
0000
0000
0320
0000
0000
2030
0000
,
3001
0100
0010
1000
1000
0100
0010
0010
0001
0000
0000
0000
0001
0000
0010
0000
,
1100
0000
0100
0011
0000
0001
0100
1000
,
0100
0000
0001
0000
0010
0000
0100
0000
1001
0000
0000
0000
1001
0000
0000
0001
,
0010
0100
1000
0002
0000
1003
0010
0100
,
0001
1001
2000
3002
,
1003
0100
0010
0001
0002
0000
2003
0000
,
3001
0100
0010
1000
0001
0001
0010
0010
,
0001
1000
0010
0100
0010
0010
1000
1000
,
0100
0010
0001
1000
1001
0000
0001
1000
,
1001
0000
1000
0001
0011
0000
1001
0010
,
1100
0000
0000
0000
1010
0000
0100
0000
0001
0010
0001
0000
0100
0000
0010
0000
,
1001
0000
0000
0000
1010
0000
0001
0000
0001
0010
0100
0000
0100
1000
0001
0000
,
0001
0100
0010
0000
0010
1000
0001
0000
0001
0000
1000
0000
0100
0000
0000
0000
,
0100
1000
0010
0000
0010
0100
0001
0000
,
0001
1000
0100
0000
0100
0010
0100
0010
,
0100
0010
0100
0010
0100
0100
0110
0110
,
0010
1001
1001
0000
0001
1000
0010
1000
,
0010
0100
0001
0100
0010
0001
1000
0100
,
0001
0010
1000
0001
0100
1000
0001
0001
,
0100
0100
1000
1000
0001
0010
0100
1000
,
0001
0001
0010
0010
2000
0000
3002
0023
,
0230
0000
0302
0000
0203
2300
3002
0203
,
0320
0000
0000
0030
2000
0000
3002
0000
0203
0000
0000
0000
0000
0000
0302
0000
,
2003
0000
3002
0000
0023
0230
2300
3002
,
0023
0000
0031
0010
0100
1000
0010
0100
0001
0000
0010
0000
0001
0000
0010
0000
,
0100
1000
0100
0010
0001
1000
0010
0100
,
0001
1000
0010
1000
0001
0100
1000
0100
,
0001
0100
1000
0100
0110
0110
0110
0110
,
0000
0000
0010
1000
0101
0000
0001
0010
,
1100
0000
0010
0002
0000
1003
0100
0010
,
0100
0000
0010
0000
0001
0000
0100
0000
0001
0000
0000
0001
0010
0000
0000
0010
,
0100
1000
0001
0100
1000
0100
0010
1000
,
0002
0000
0010
0000
0013
0000
0000
0000
0011
0000
0000
0010
0100
0000
0000
0100
,
1000
0000
0001
0000
0100
0000
0010
0000
1000
0000
0000
1000
0100
0000
0000
0100
,
0010
0001
1000
0001
1000
0011
0000
1100
,
0000
1010
0000
0101
0001
0010
0010
0010
,
0100
0100
1000
0100
0011
0000
0001
0100
,
1010
0000
0010
2000
0000
3100
0010
0001
,
2000
0000
0010
0000
3010
0000
0100
0000
0001
0000
0000
0001
0100
0000
0000
0100
,
0010
1000
0100
0001
0100
0001
0100
1000
,
0020
0000
0100
0000
0130
0000
0000
0000
1010
0000
0000
0010
1000
0000
0000
1000
,
0001
0010
0100
1000
0010
0000
1001
0001
,
1000
0001
1000
0100
0010
0001
0011
0010
,
1010
1000
1100
0100
0101
0001
1000
0001
,
1000
0000
0001
0100
0001
0000
1000
0100
1000
0000
0000
0000
0001
0000
0100
0000
,
1001
0000
0000
0000
0001
0000
0010
0000
0000
0000
0100
1000
0100
0000
2000
0000
,
0001
0001
0001
3001
0000
0000
0000
0000
;

//--------------- dance-single - ----------------
#NOTES:
     dance-single:
     :
     Challenge:
     15:
     0.674032,0.76966,0.263343,0.197507,0.433418,430,406,24,18,0,0,0.674032,0.76966,0.263343,0.197507,0.433418,430,406,24,18,0,0:
0000
0000
0000
0000
0000
0000
0000
0000
1000
0000
0010
0100
0001
1000
0001
0010
,
0001
0000
0000
0000
1000
0000
0001
0100
0001
0000
0010
0000
0001
0000
1000
0000
0200
0000
0000
0000
0000
0000
0320
0000
0000
0000
0000
0000
0032
0000
0000
0000
,
1003
0000
0100
0000
0010
0000
0001
0000
0001
0000
1000
0100
1000
0000
0001
0100
0001
0000
0000
0000
0000
0000
0000
0000
1000
0000
0000
0000
0001
0000
0000
0000
,
0011
0000
0000
0000
0100
0000
1010
0000
0000
0000
0001
0010
0100
0000
1000
0000
,
0010
0000
0100
0000
0001
0000
0100
0000
0110
0000
0000
0000
0110
0000
0000
0010
,
1000
0000
0100
0000
0010
0000
0002
0000
0000
0000
1003
0100
1000
0000
0010
0000
,
0110
0000
0000
0000
1001
0000
0000
0000
0010
0000
0000
0001
0010
0000
0000
1000
,
0010
0000
0001
0000
0100
0000
0010
0000
1000
0000
0000
0001
0100
0000
0000
1000
,
0100
0000
0100
0001
0010
0000
0100
0000
1000
0000
1000
0000
1000
0000
1000
0000
,
1000
0000
1000
0010
0100
0000
0001
0010
0100
0000
0100
0000
0100
0000
0100
0000
,
0100
0000
0100
1000
0001
0000
1000
0000
1001
0000
0000
0000
0100
0000
0001
0100
,
0101
0000
0000
0010
0110
0000
1000
0000
1100
0000
0000
0000
1001
0000
0100
0000
,
0110
0000
0000
1000
1001
0000
0010
0000
0001
1000
0001
0000
0100
0000
0010
0000
,
1001
0000
0000
0000
0011
0000
0001
0000
0001
0010
0100
1000
0001
0010
0100
0010
,
0001
0000
0010
0100
0010
0000
0100
0000
1000
0000
0001
0010
0001
0000
0100
0000
0001
0000
0000
0000
1000
0000
0010
0000
0100
0000
0000
0000
0001
0000
0000
0000
,
0100
0000
1000
0100
0010
0000
1000
0000
0100
0000
0010
0001
0010
0000
0100
0000
,
1000
0000
0001
0100
0010
0000
1000
0000
0100
0000
0010
0001
0100
0000
0010
1000
,
0100
0000
0010
0001
1000
0000
0100
1000
0100
0000
0100
0000
0011
0000
0010
0000
,
1001
0000
0001
0000
1100
0000
0100
0000
0010
0000
0001
0010
0001
0000
0010
0100
,
0010
0000
0100
1000
0001
0000
0100
0000
0010
0000
1000
0010
1000
0000
0010
0100
,
0010
0000
0100
0001
1000
0000
0100
0010
0001
0000
1000
0000
1000
0000
1000
0000
,
0010
0010
0100
0100
0001
0010
0100
1000
,
0010
0000
0100
0001
0100
0000
0010
1000
0200
0000
0000
0000
0310
0000
0001
0000
,
2000
0000
3000
0000
2001
0000
0000
0100
3100
0000
0010
0000
0010
0000
0002
0000
,
2000
0000
0003
0000
0000
0000
3100
0010
0100
0000
0000
0000
1001
0000
0000
0000
0200
0000
0000
0000
0000
0000
0000
0000
0010
0000
0010
0000
0310
0000
0000
0000
,
2000
0000
0000
0000
3002
0000
0010
0010
0013
0000
0100
0000
0010
0000
0100
0000
,
1000
0000
0000
0001
1000
0000
0001
0000
0010
0000
0100
0000
0010
0000
0100
0000
1001
0000
0000
0000
0001
0000
0000
0000
0010
0000
0000
0000
0001
0000
0000
0000
,
0010
0000
0100
0000
1000
0000
0001
0010
0001
0000
0000
0100
0010
0000
1000
0000
,
0010
0100
0001
0000
0001
0010
0100
1000
0001
0000
0100
0000
1000
0000
0100
0000
,
0001
0000
0010
0000
0100
0000
1000
0100
0110
0000
0110
0000
0110
0000
0110
0000
,
0000
0000
0000
0000
1100
0000
0100
0010
0001
0000
0000
0000
0101
0000
0100
0010
,
1000
0000
0001
0000
0010
0000
0200
0000
0000
0000
0310
0001
1000
0000
0100
0010
,
0001
0000
0100
0000
0100
0000
0100
0000
0001
0000
0000
0001
0010
0000
0000
0010
,
0100
0000
1000
0000
0001
0000
0010
0000
1000
0000
0010
0001
0200
0000
0010
0000
,
0320
0000
1000
0000
1030
0000
0000
0000
1010
0000
0000
0010
0100
0000
0000
0100
,
0001
0000
0010
0000
0100
0000
0100
1000
0010
0000
0000
0100
0001
0000
0000
0001
,
1000
0010
0100
0001
1000
0101
0010
1100
,
0010
1001
0100
1010
1000
0100
0100
0100
,
1000
0000
0010
0000
0110
0000
0100
0001
1000
0000
0000
0000
1001
0000
0001
0010
,
0100
0000
0010
0000
1000
0000
0020
0000
0030
0000
0001
0010
1000
0000
0001
0100
,
0010
0000
0001
0000
0001
0000
0001
0000
1000
0000
0000
0010
1000
0000
0000
0010
,
0100
0000
0001
0000
1000
0000
0100
0000
0001
0000
0100
1000
0001
0000
0100
1000
,
0002
0000
0010
0000
0013
0000
0000
0000
1010
0000
0000
0010
1000
0000
0000
1000
,
0001
0000
0010
0000
0100
0000
1000
0100
0010
0000
0000
0000
1001
0000
0100
0001
,
0010
0000
0100
1000
0010
0000
0100
0000
0010
0000
1000
0000
1000
0000
1000
0000
,
0001
0001
0010
0010
0001
0010
1000
0001
,
1000
0000
0010
0001
0100
0000
0010
1000
0100
0000
0000
0000
0100
0000
0010
0000
,
1001
0000
0000
0000
0001
0000
1010
0000
0000
0000
0010
0100
0010
0000
0200
0000
,
0010
0010
0010
0310
0000
0000
0000
0000
;
