#TITLE:snooze;
#SUBTITLE:;
#ARTIST:wotaku feat. SHIKI;
#TITLETRANSLIT:snooze;
#SUBTITLETRANSLIT:;
#ARTISTTRANSLIT:wotaku feat. SHIKI;
#GENRE:POP;
#CREDIT:;
#MUSIC:snooze.ogg;
#BANNER:snooze.png;
#BACKGROUND:snooze-bg.png;
#CDTITLE:;
#SAMPLESTART:67.222;
#SAMPLELENGTH:12.600;
#SELECTABLE:YES;
#OFFSET:1.578;
#BPMS:0.000=150.000;
#STOPS:;
#LASTBEATHINT:1.393382;
#BGCHANGES:6.750=snooze.avi=1.000=0=0=0=StretchNoLoop====,
99999.000=-nosongbg-=1.000=0=0=0=StretchNoLoop====
;
#FGCHANGES:;

//--------------- dance-single - ----------------
#NOTES:
     dance-single:
     :
     Medium:
     12:
     0,0,0,0,0:
0000
0000
0000
0000
,
0000
0000
0000
0000
,
0000
0000
0000
0000
,
0000
0000
0000
0000
,
0000
0000
0000
0000
,
0000
0000
0000
0000
,
0001
0100
0001
0100
,
0001
1000
0001
1000
,
0010
1000
0001
0100
0001
1000
0100
0010
,
0110
0000
0000
0000
,
0001
0000
0000
0001
0000
0000
0001
0000
1000
0000
0001
0000
0100
0000
0001
0000
,
1000
0000
0000
0100
0000
0000
1000
0000
0010
0000
0100
0000
0001
0000
1000
0000
,
0100
0000
0000
0010
0000
0000
0100
0000
1000
0000
0001
0000
0100
0000
0001
0000
,
1000
0000
0000
0100
0000
0000
1000
0000
0001
0000
1000
0000
0010
0000
0100
0000
,
0001
0000
0000
1000
0000
0000
0001
0000
0010
0000
0100
0000
1000
0000
0001
0000
,
0100
0000
0000
0010
0000
0000
1000
0000
0001
0000
0100
0000
0001
0000
1000
0000
,
0001
0000
0000
0010
0000
0000
0100
0000
1000
0000
0001
0000
0100
0000
0010
0000
,
0100
0000
0000
0001
0000
0000
1000
0000
0100
0000
1000
0000
0001
0000
0100
0000
,
0010
0000
0000
1000
0000
0000
0001
0000
2000
0000
0000
0000
3100
0000
0000
0000
,
1000
0000
0000
1000
0001
0000
0010
0000
0100
0000
1000
0000
0100
0000
0010
0000
,
0001
0000
0000
0001
1000
0000
0010
0000
0100
0000
0001
0000
0100
0000
0010
0000
,
1000
0000
0000
1000
0001
0000
0010
0000
0100
0000
1000
0000
0100
0000
0010
0000
,
0001
0000
0000
0001
1000
0000
0010
0000
0200
0000
0000
0000
03M0
0000
0000
0000
,
0001
0100
0001
0100
0001
0010
0100
1000
,
0001
0100
0001
0000
1000
0100
1000
0000
0001
0100
0001
0000
1000
0000
0000
0000
,
0001
0000
1000
0100
0000
1000
0100
0000
0010
0000
0001
0000
0010
0000
0100
0000
,
1000
0000
0001
0100
0000
0001
0100
0000
0010
0000
1000
0000
0001
0000
0000
0000
,
0110
0000
0000
0000
0000
0000
0000
0000
1001
0000
0000
0101
0000
0000
1100
0000
,
0000
0000
1000
0000
0001
0000
1000
0000
0010
0000
0000
0100
0001
0000
0010
0000
,
0200
0000
2300
0000
3001
0100
0001
0100
,
0001
1000
0100
0010
0001
0010
0100
1000
,
0010
0000
0110
0000
1002
0000
0000
0103
,
0000
0000
0100
0001
0000
1000
0000
0001
0010
0000
0000
0100
0000
0000
1000
0000
,
0001
0000
0000
0001
0000
0000
0001
0000
0020
0000
0000
0000
0230
0000
0000
0000
,
1300
0001
1000
0010
0100
0000
0100
0000
,
0100
0000
0001
0000
1000
0000
0100
0000
0010
0000
0000
0010
0000
0000
0010
0000
,
0000
0000
0000
0000
0000
0000
0001
0000
0000
0000
0000
0000
1000
0000
0000
0000
0000
0000
0002
0000
0000
0000
0000
0000
0000
0000
0000
0103
0000
0000
0000
0000
0000
0010
0000
0000
1000
0000
0000
0000
0001
0000
0000
0000
1000
0000
0000
0000
,
0001
0100
0001
0100
0010
0100
0010
1000
,
0000
1000
0000
0001
0100
0000
0100
0000
0001
0000
0001
0000
0000
0010
0000
0010
,
0100
0000
1000
0000
0001
0000
1000
0000
0100
0000
0000
0101
0000
0000
0100
0000
,
0000
1100
0000
0000
0100
0000
0000
0101
0000
0000
0100
0000
0000
1100
0000
0000
,
1000
0000
0001
0000
1000
0000
0001
0000
0010
0000
0000
0100
0000
0000
1000
0000
,
0010
0100
0001
1000
0001
0000
0001
0000
,
0100
0000
0000
0000
0010
0000
1000
0000
1010
0000
0000
0101
0000
0000
2010
0000
,
0000
3001
0020
0000
0130
2000
0000
3001
,
0100
1000
0100
0001
1000
0100
0010
0002
,
0000
1003
0010
0001
0010
2000
0000
0000
,
3001
0000
1000
0000
0100
0000
0010
0000
0011
0000
0000
1100
0000
0000
0012
0000
,
0000
0013
0200
0000
1300
0002
0000
1003
,
0100
0001
0100
1000
0010
0100
0001
2000
,
0000
3001
0010
1000
0010
0001
1000
0010
,
0000
0100
0010
0100
0010
0000
1002
0000
,
0013
0000
0100
1000
0002
0000
0103
0010
,
1000
0000
0001
0100
0000
0001
0000
1000
0100
0000
0010
0000
0000
0000
0010
0000
,
0001
0000
1000
0100
0000
0010
0000
0001
1000
0000
0010
0000
0100
0000
0010
0000
,
0000
0000
1000
0000
1000
0000
0001
0000
0001
0000
0100
0010
0000
0010
0100
0000
,
0002
0000
2003
0000
3100
0000
0010
0001
,
1000
0000
0010
0100
0000
0100
0001
0000
1000
0000
0001
0000
0000
0000
0010
0000
,
0100
1000
0000
0001
0000
1000
0000
0010
0100
0000
0001
0000
0010
0000
0100
0000
,
2000
0000
0000
3010
,
0110
0000
0100
0001
0010
0001
0200
0000
,
0000
0310
1000
0010
0001
0010
1000
0100
,
0110
0000
0100
1000
0010
1000
0200
0000
,
0000
0310
0001
0010
1000
0010
0001
0100
,
0120
0000
1030
0100
0001
0100
2000
0000
,
0000
3001
0100
1000
0001
0010
1000
0100
,
0120
0000
0031
0010
1000
0010
0002
0000
,
0000
1003
0010
0001
1000
0100
0001
1000
,
0010
0000
0000
0100
0000
0000
0001
0000
0000
0000
1000
0000
0100
0000
0000
0000
1000
0000
0001
0000
0100
0000
0000
0000
,
0000
0000
0000
0001
0000
1000
0010
0000
0100
0001
1000
0000
,
0100
0010
0100
1000
0001
0000
0001
0100
,
0010
1000
0001
0010
0100
1000
0001
0000
,
0110
0000
0000
0001
0000
0100
0010
0100
0000
0001
1000
0000
,
0000
0000
0000
1000
0000
0100
0010
0100
0000
1000
0001
0000
,
0100
0010
0100
0001
1000
0100
0010
0100
,
1000
0001
0100
0010
0001
1000
0100
0010
,
0110
0000
0000
0000
;

//--------------- dance-single - ----------------
#NOTES:
     dance-single:
     :
     Hard:
     15:
     0.690551,0.893777,0.291978,0.064884,0.624508,596,560,36,8,1,0,0.690551,0.893777,0.291978,0.064884,0.624508,596,560,36,8,1,0:
0000
0000
0000
0000
,
0000
0000
0000
0000
,
0000
0000
0000
0000
,
0000
0000
0000
0000
,
0000
0000
0000
0000
,
0000
0000
0000
0000
,
0001
0000
0000
0000
1000
0000
0001
0000
1000
0000
0000
0010
0000
0000
0100
0000
,
0000
0001
0020
0000
0000
0230
0000
1300
,
0100
0000
1000
0000
0001
0000
0100
0000
0001
1000
0001
1000
0001
1000
0001
1000
,
0100
0000
0000
0000
,
1000
0000
0000
1000
0000
0000
1000
0000
0001
0000
0100
0000
0001
0000
0010
0000
,
0011
0000
0000
0101
0000
0000
0011
0000
0010
0000
0001
0000
1000
0000
0100
0000
,
1100
0000
0000
1010
0000
0000
1100
0000
0100
0000
1000
0000
0001
0000
0100
0000
,
0101
0000
0000
1100
0000
0000
0101
0000
0100
0000
0001
0000
1000
0000
0010
0000
,
1010
0000
0000
0011
0000
0000
1010
0000
0010
0000
0100
0000
0001
0010
0100
1000
,
0010
0000
0000
0110
0000
0000
1001
0000
0001
0000
0010
0000
0100
0000
1000
0000
,
1100
0000
0000
1001
0000
0000
0101
0000
0100
0000
0001
0000
1000
0000
0010
0000
,
1010
0000
0000
1001
0000
0000
0011
0000
0010
0000
0001
0000
0010
0000
0100
0000
,
1100
0000
0000
1001
0000
0000
1100
0000
1000
0100
0010
0001
1000
0100
0010
0001
,
1000
0000
0010
0100
0000
0010
1000
0000
0001
0000
0100
0000
1000
0000
0100
0000
,
0001
0000
0010
0100
0000
0010
0001
0000
0001
0000
1000
0000
0100
0000
0001
0000
,
0100
0000
1000
0010
0000
0100
0010
0000
0100
0000
0001
0000
0010
0000
1000
0000
,
0010
0000
0001
0100
0000
0001
1000
0000
0020
0000
0000
0000
0M30
0000
0000
0000
,
1000
0000
0001
0100
0001
0100
0001
0100
0001
0010
0100
1000
0100
1000
0100
1000
,
0001
0100
0001
1000
0100
1000
0001
0010
0001
1000
0010
1000
0100
0000
0000
0000
,
2100
0000
0000
0001
0000
0000
3001
0000
0010
0000
0100
0000
1000
0000
0001
0000
,
0102
0000
0000
1000
0000
0000
1003
0000
0001
0000
0010
0000
0100
0000
0000
0000
,
0110
0000
0000
0000
0000
0000
0100
0020
0001
0000
0000
0100
0000
0000
1030
0000
,
0000
0000
1000
0000
0010
0000
0002
0000
0000
0010
0000
0013
0100
0000
1000
0000
,
0001
0100
0010
1000
0200
0000
0000
0000
1300
0000
0001
0000
1000
0000
0001
0000
,
0100
0000
0010
0000
1000
0000
0001
0010
0100
0000
0100
0000
1000
0000
1000
0000
,
0001
0000
0000
0000
0110
0000
0000
0000
0001
0100
0010
1000
0001
0010
0100
0000
,
0000
0000
0100
1000
0000
0001
0000
2000
0010
0000
0000
0010
0000
0000
3001
0000
,
0001
0000
0010
0100
0000
0000
1000
0000
0020
0000
0000
0000
0130
0000
0000
0000
,
0100
0000
0001
0000
1000
0000
0010
1000
0100
0000
0000
0100
1000
0000
0001
0000
,
0100
0000
0010
1000
0001
0000
0010
0100
2000
0000
0000
0001
0000
0000
3100
0000
,
0010
0000
0000
0000
0000
0000
0100
0000
0000
0000
0000
0000
1000
0000
0000
0000
0000
0000
0020
0000
0000
0000
0000
0000
0000
0000
0000
1000
0000
0000
0000
0000
0000
0130
0000
0000
0001
0000
0000
0000
0010
0000
0000
0000
0100
0000
0000
0000
,
1000
0000
0001
0000
1000
0000
0001
0000
0100
0000
0010
0100
0010
0000
0200
0000
,
0000
0001
0000
0301
1000
0000
0100
0000
0001
0000
0100
0000
0000
1000
0100
0010
,
0001
0000
1000
0001
0100
0010
1000
0010
0100
0000
0000
2001
0000
0000
3100
0000
,
0000
1002
0000
0000
0103
0000
0000
2001
0000
0000
3100
0000
0000
1002
0000
0000
,
1003
0000
1000
0000
0010
0000
0010
0000
0100
0001
0000
0001
0010
0100
1000
0001
,
0100
1000
0100
0001
0020
0000
0230
0000
,
2300
0000
0000
0000
3100
0000
0001
0000
0101
0000
0000
0110
0000
0000
1200
0000
,
0000
1300
0020
0000
0130
0002
0000
1003
,
0100
1000
0010
0001
0010
1000
0100
0020
,
0000
0130
1000
0001
0100
0020
0000
0000
,
0130
0000
0001
0000
0100
0000
1000
0000
1100
0000
0000
0110
0000
0000
0102
0000
,
0000
0013
0200
0000
1300
0002
0000
1003
,
0010
0100
0001
0010
1000
0010
0001
2000
,
0000
3010
0100
0001
0010
0100
1000
0001
,
0000
0110
0110
0110
0110
0000
1001
0000
,
0001
0000
0010
0000
0100
0000
1000
0000
0001
0000
0000
0000
1000
0000
0010
0100
,
0001
0000
0010
0100
0000
1000
0000
0010
0100
0000
0002
0000
0000
0000
1003
0000
,
0010
0000
0100
0010
0000
1000
0000
0001
0010
0000
1000
0000
0010
0000
0001
0000
,
0000
0000
1000
0100
1000
0000
0001
0100
0001
0000
0100
0010
0000
0100
0010
0000
,
2001
0000
3002
0000
0013
0100
1000
0001
,
0100
0000
1000
0100
0000
0001
1000
0000
0001
0000
0020
0000
0000
0000
1030
0010
,
0001
0100
0000
1000
0000
0100
0010
1000
0001
0000
0010
0000
0100
0000
1000
0000
,
0020
0000
0000
0130
,
1001
0000
0000
0000
0001
0000
0100
0010
0100
0000
0001
0000
2000
0000
0000
0000
,
3001
0000
0010
0100
1000
0000
0001
0000
1000
0000
0010
0100
0001
0000
1000
0000
,
0200
0000
0000
0000
0310
0000
0001
1000
0001
0000
0100
0000
0020
0000
0000
0000
,
0130
0000
0001
0010
0100
0000
0010
0000
0001
0000
1000
0010
0100
0000
0010
0000
,
0200
0000
0000
0000
0301
0000
1000
0100
0001
0000
0100
0000
2000
0000
0000
0000
,
3001
0000
0100
0010
0100
0000
0001
1000
0100
0000
0010
0001
1000
0000
0010
0000
,
0120
0000
0000
0000
1030
0000
0001
0100
1000
0000
0100
0000
0002
0000
0000
0000
,
1003
0000
0100
0010
0100
0000
1000
0001
0100
0000
0010
1000
0001
0000
0010
0000
,
0100
0000
0000
1000
0000
0000
0001
0000
0100
0000
1000
0000
0100
0000
0010
0000
0100
0000
0001
0000
1000
0000
0000
0000
,
0000
0000
0000
1000
0100
0001
0100
0010
0100
1000
0001
0000
,
1000
0010
1000
0010
0100
0001
0100
0001
1000
0000
0000
0001
0000
0010
0100
1000
,
0100
0010
0001
1000
0001
0000
0010
0100
0010
0000
0100
1000
0001
1000
0000
0000
,
1001
0000
0000
0001
0100
1000
0001
0010
1000
0001
1000
0000
,
0000
0000
0000
1000
0100
0001
1000
0010
0001
1000
0001
0000
,
1000
0100
1000
0001
1000
0100
0000
0010
0001
0000
0001
0100
0001
1000
0001
0010
,
0100
1000
0001
0000
1000
0010
0100
0001
1000
0000
0001
0010
0100
1000
0001
0000
,
0110
0000
0000
0000
;

//--------------- dance-single - ----------------
#NOTES:
     dance-single:
     :
     Challenge:
     18:
     0.902583,1.140336,0.437967,0.024331,1.139525,779,725,54,3,1,0,0.902583,1.140336,0.437967,0.024331,1.139525,779,725,54,3,1,0:
0000
0000
0000
0000
,
0000
0000
0000
0000
,
0000
0000
0000
0000
,
0000
0000
0000
0000
,
0000
0000
0000
0000
,
0000
0000
0000
0000
,
0100
0100
1000
1000
,
0001
0001
0100
0100
,
0001
0000
0000
0000
0000
0000
1000
0000
0000
0000
0000
0000
0001
0000
0000
0000
0000
0000
1000
0000
0000
0000
0000
0000
0001
0000
0000
1000
0000
0000
0001
0000
0000
1000
0000
0000
0001
0000
1000
0000
0001
0000
1000
0000
0001
0000
1000
0000
,
0010
0000
0000
0000
,
0101
0000
0000
1100
0000
0000
0101
0000
0001
0000
1000
0000
0001
0000
0100
0000
,
1010
0000
0000
1000
0100
0000
0010
0000
0001
0000
0010
0000
1000
0000
0010
0000
,
0011
0000
0000
0001
0100
0000
0010
0000
1000
0000
0010
0000
0001
0000
0010
0000
,
1010
0000
0000
1000
0100
0000
0010
0000
0001
0000
0100
0000
1000
0000
0100
0000
,
0101
0000
0000
0001
0100
0000
0010
0000
1000
0000
0001
0000
1000
0010
0100
0001
,
0101
0000
0000
0100
0001
0000
0010
0000
0110
0000
1000
0000
1100
0000
0001
0000
,
1001
0000
0000
0001
1000
0000
0010
0000
0110
0000
0100
0000
0101
0000
1000
0000
,
1001
0000
0000
1000
0001
0000
0010
0000
0110
0000
0100
0000
1001
0000
0010
0000
,
0110
0000
0000
1000
0001
0000
0010
0000
0001
0010
0100
1000
0001
0010
0100
1000
,
0001
0000
0100
0010
0000
0100
0001
0000
1001
0000
0010
0000
1100
0000
0010
0000
,
1001
0000
1000
0010
0000
0100
0010
0000
0101
0000
0010
0000
1100
0000
0010
0000
,
1001
0000
0001
0100
0000
0010
0100
0000
0110
0000
1000
0000
0110
0000
0001
0000
,
1001
0000
0000
1001
0000
0000
1001
0000
0020
0000
0000
0000
0M30
0000
0000
0000
,
0100
0000
0001
0100
0010
0100
0001
0100
0010
0100
1000
0100
0001
0010
0100
1000
,
0001
0100
0001
0100
0001
0000
0100
0010
0100
0010
0100
0000
0001
0000
0010
0000
0100
1000
0100
1000
0100
0000
0010
0000
0001
0000
0000
0000
0010
0000
0000
0000
,
0110
0000
0000
0100
1000
0000
0001
0000
1001
0000
1000
0000
0110
0000
0010
0000
,
1000
0001
0100
1000
0100
0010
1000
0100
0001
0100
1000
0001
0100
0000
0000
0000
,
0110
0000
0000
0000
0000
0000
0001
0100
1000
0000
0100
0010
0000
0010
0100
0000
,
0001
0010
1000
0000
0010
0000
0001
0000
1000
0010
0000
0100
0001
0010
0100
0000
,
0100
0000
1000
0000
0010
0000
0100
0000
0001
1000
0001
1000
0001
0000
0000
0000
1001
0000
0000
0000
0000
0000
1010
0000
0000
0000
0000
0000
0101
0000
0000
0000
,
0001
0000
0100
0000
1000
0000
0100
0001
1000
0000
1000
0000
0001
0000
0001
0000
,
0110
0000
0000
0000
1001
0000
0000
0000
0001
0010
0100
1000
0001
0010
0110
0000
,
0000
0000
1100
1100
0000
1001
0000
0101
0101
0000
0000
0001
1000
0000
0010
0000
,
0110
0000
0000
0000
0100
0000
0010
0000
0000
0000
0000
0000
1000
0000
0000
0000
0002
0000
0000
0000
0000
0000
0000
0000
0013
0000
0000
0000
0100
1000
0100
1000
,
0001
0000
0101
0000
1100
0000
1000
0001
0100
0000
0010
1000
0000
1000
0100
0000
,
0110
0000
0001
1000
0100
0000
0100
1000
0001
0000
0100
0010
0000
0100
0010
0000
,
1000
0000
0000
0000
0000
0000
0011
0000
0000
0000
0000
0000
0110
0000
0000
0000
0000
0000
1100
0000
0000
0000
0000
0000
1000
0000
0000
0010
0000
0000
0000
0000
0000
0100
0000
0000
0010
0000
0000
0000
1000
0000
0000
0000
0001
0000
0000
0000
,
0011
0000
0000
1100
0000
0000
0011
0000
0000
1100
0000
0000
1001
0000
0000
0001
0100
0010
0100
0000
0000
0110
0000
0000
,
0000
0000
1010
0000
0000
0000
0010
0000
0100
0000
0000
0000
0100
0000
0000
0000
0001
0000
0000
0000
0001
0000
0000
0000
0100
0000
0010
0000
1000
0001
1000
0001
,
0010
0000
0100
1000
0001
0100
0001
0100
0110
0000
1000
0001
0000
0000
0110
0000
,
0001
1000
0000
0000
0110
0000
1000
0001
0000
0000
0110
0000
0000
0001
1000
0000
,
0010
0000
0010
0000
0100
0000
0100
0000
0001
1000
0000
1000
0010
0100
0010
1000
,
0100
0000
0000
0010
0000
0000
0100
0000
0000
0001
0000
0000
0100
0000
0000
1000
0000
0000
0010
0000
0000
0100
0000
0000
0001
0000
0010
0000
0100
0000
1000
0000
0001
0000
0010
0000
0100
0000
1000
0000
0001
0000
0010
0000
0100
0000
1000
0000
,
0001
0000
0000
0000
1001
0000
0010
0000
0101
0000
0000
1001
0000
0000
1100
0000
,
0000
0000
0000
0000
1000
0000
0000
0000
0010
0000
0000
0000
0000
0000
0000
0000
0100
0000
0000
0000
0001
0000
1000
0000
0001
0010
0001
0010
0100
0000
0000
0000
,
1000
0000
0001
0100
0010
0000
0100
0001
0010
0000
0100
1000
0000
1000
0001
0000
,
0100
0000
1000
0000
0100
0000
0001
0000
0010
0000
0010
0100
0000
0100
1000
0000
,
1001
0000
0001
0100
1000
0000
0100
0000
0110
0000
0000
1000
0001
0000
0020
0000
,
0100
0000
0001
0000
0130
0000
0100
1000
0001
0010
0000
0010
0100
0000
1000
0000
,
1100
0000
0001
0000
0101
0000
0010
0000
0110
0000
1000
0010
0000
0100
0010
0000
,
0100
0001
0010
1000
0001
0100
1000
0010
0001
0000
0010
0100
0000
0001
1000
0000
,
0000
1100
0011
0101
1010
0000
1001
0000
,
1001
0000
1000
0010
0001
0000
0010
0000
0100
0000
0001
1000
0000
0001
0010
0100
,
1000
0000
0010
0100
0000
1000
0000
0100
0001
0000
0010
0100
0000
0100
1000
0000
,
0001
0000
0100
1000
0000
0100
0000
0001
1000
0000
0001
0010
0000
0010
0100
0000
,
0000
0000
1100
1100
1100
0000
0101
0101
0101
0000
1001
1001
0000
0110
0110
0000
,
0110
0000
0000
0000
1002
0000
0000
0000
0103
0000
0010
1000
0000
1000
0001
0000
,
0010
0000
0100
1000
0000
0001
1000
0000
0001
0100
1000
0000
0100
0000
0010
1000
,
0100
0001
0000
0100
0000
1000
0010
0100
1000
0100
0010
1000
0100
0010
0001
1000
,
0200
0000
0000
0310
,
1001
0000
0000
0000
0001
0000
0010
0000
0100
0000
0000
0000
0010
0000
0100
0000
1000
0000
0000
0000
1100
0000
0000
0000
0100
0000
0000
0000
1000
0100
1000
0001
,
0100
0000
0000
0000
0000
0000
0000
0000
0000
0000
0000
0000
0001
0000
0000
0100
0000
0000
0001
0000
0000
1000
0000
0000
0100
0000
0000
0000
0000
0000
0000
0000
0000
0000
0000
0000
1000
0000
0000
0000
0000
0000
0000
0000
0000
0000
0000
0000
1001
0000
0000
0000
0000
0000
0000
0000
0000
0000
0000
0000
0001
0000
0000
0000
0010
0000
0000
0000
0100
0000
0000
0000
1000
0000
0000
0000
0000
0000
0000
0000
0000
0000
0000
0000
0010
0000
0000
0100
0000
0000
0010
0000
0000
1000
0000
0000
,
0001
0000
0000
0000
0000
0000
0000
0000
0000
0000
0000
0000
0010
0000
0000
0000
0000
0000
0000
0000
0000
0000
0000
0000
0100
0000
0000
0000
0000
0000
0000
0000
1000
0000
0000
0000
0001
0000
0000
0000
1000
0000
0000
0000
0000
0000
0000
0000
0010
0000
0000
0000
0000
0000
0000
0000
0000
0000
0000
0000
0100
0000
0000
0001
0000
0000
1000
0000
0000
0100
0000
0000
0010
0000
0000
0000
0000
0000
0100
0000
0000
0000
0000
0000
1000
0000
0000
0000
0000
0000
0000
0000
0000
0000
0000
0000
,
0001
0000
0000
1000
0000
0000
0010
0000
0000
1000
0000
0000
0001
0000
0000
0000
0100
0000
0010
0000
0100
0000
0000
0000
0001
0000
0000
0000
0000
0000
1000
0000
0100
0000
0010
0000
0100
0000
1000
0000
0001
0000
1000
0000
0000
0010
0000
0000
,
0100
0000
0000
0000
0001
0100
0010
0100
0001
0000
0000
0000
0010
0000
0100
0000
1000
0000
0000
0000
0001
0000
0000
0000
0100
0000
0000
0000
0010
0100
0010
1000
,
0001
0000
0000
0000
0000
0000
0000
0000
0000
0000
0000
0000
0010
0000
0000
0100
0000
0000
0010
0000
0000
0001
0000
0000
1000
0000
0000
0000
0000
0000
0001
0000
0000
0000
0000
0000
0010
0000
0000
0000
0000
0000
0100
0000
0000
0000
0000
0000
1000
0000
0000
0000
0000
0000
0000
0000
0000
0000
0000
0000
0001
0000
0000
0000
0010
0000
0000
0000
0100
0000
0000
0000
1000
0000
0000
0000
0000
0000
0000
0000
0000
0000
0000
0000
0001
0000
0000
0010
0000
0000
0100
0000
0000
0010
0000
0000
,
0001
0000
0000
0000
0000
0000
0000
0000
0000
0000
0000
0000
1000
0000
0000
0000
0000
0000
0000
0000
0000
0000
0000
0000
0010
0000
0000
0000
0000
0000
0000
0000
1000
0000
0000
0000
0001
0000
0000
0000
1000
0000
0000
0000
0000
0000
0000
0000
0100
0000
0000
0000
0000
0000
0000
0000
0000
0000
0000
0000
1000
0000
0000
0001
0000
0000
0100
0000
0000
0010
0000
0000
0100
0000
0000
0000
0000
0000
0001
0000
0000
0000
0000
0000
1000
0000
0000
0000
0000
0000
0010
0000
0000
0000
0000
0000
,
0100
0000
0000
0000
0000
0000
0010
0000
0000
0100
0000
0000
0001
0000
0000
0000
0100
0000
1000
0000
0100
0000
0000
0000
0001
0000
0000
0010
0000
0000
0100
0000
1000
0000
0001
0000
0100
0000
0010
0000
0100
0000
0010
0000
0000
1000
0000
0000
,
0001
0000
0000
0010
0000
0000
0101
0000
1000
0000
0010
0000
1100
0000
0010
0000
1000
0000
0101
0000
1010
0000
0000
0000
,
0000
0000
0000
1100
0001
0010
0101
0010
0001
1100
0011
0000
,
1000
0100
0010
0001
1000
0001
0010
0100
1000
0000
0000
1001
0000
1000
0010
0100
,
0001
1000
0001
0010
0100
0000
0100
1000
0001
0000
1000
0001
0010
0100
0000
0000
,
1001
0000
0000
0011
1000
0100
1010
0100
1000
0011
1100
0000
,
0000
0000
0000
1010
0001
0100
0011
0100
0001
1010
0101
0000
,
0001
0010
1000
0010
0001
1000
0000
0010
0100
0000
0100
1000
0100
0001
1000
0100
,
0001
0100
0010
0000
0100
1000
0010
0100
0001
0000
1000
0100
0010
0001
1000
0000
,
0110
0000
0000
0000
;
