#TITLE:サクリファイス;
#SUBTITLE:;
#ARTIST:まふまふ;
#TITLETRANSLIT:sacrifice;
#SUBTITLETRANSLIT:;
#ARTISTTRANSLIT:mafumafu;
#GENRE:ANIME;
#CREDIT:;
#MUSIC:sacrifice.ogg;
#BANNER:sacrifice.png;
#BACKGROUND:sacrifice-bg.png;
#CDTITLE:;
#SAMPLESTART:48.291;
#SAMPLELENGTH:10.938;
#SELECTABLE:YES;
#OFFSET:0.796;
#BPMS:0.000=192.000;
#STOPS:;
#BGCHANGES:3.000=sacrifice.avi=1.000=0=0=0=StretchNoLoop====,
99999.000=-nosongbg-=1.000=0=0=0=StretchNoLoop====
;
#FGCHANGES:;

//--------------- dance-single - ----------------
#NOTES:
     dance-single:
     :
     Hard:
     13:
     0.832454,0.808941,0.381008,0.067237,0.263344,520,486,34,6,0,0,0.832454,0.808941,0.381008,0.067237,0.263344,520,486,34,6,0,0:
0000
0000
0000
0000
,
0001
1000
0000
0000
0001
0100
0000
0000
0001
0010
0001
0000
1000
0100
1000
0000
,
0000
0000
1000
0000
0100
1000
0000
0000
0100
0010
0000
0000
0100
1000
0100
0000
,
0000
1000
0010
1000
0001
0010
0100
1100
,
0000
1000
0100
1000
0010
0100
0001
0011
,
0000
0010
0001
0100
0010
1000
0100
0010
,
0001
0000
1000
0000
0010
0000
1000
0000
0001
0000
0010
0000
0100
0010
0100
0000
,
0000
1000
0010
0100
0001
0100
0010
1010
,
0000
1000
0001
0010
0100
0010
0001
1000
,
0100
1100
0000
0001
0101
0000
2002
0000
,
0000
0000
0000
0000
3003
0001
0100
0001
,
1000
0000
1000
0100
0001
0100
1000
0001
,
0000
0011
0000
1100
0000
0000
1001
0000
,
1000
0000
0100
0100
0000
0010
0000
0001
,
0000
1000
0000
1000
,
0001
0000
1000
1000
0000
0010
0000
0100
,
0000
0001
1000
0100
,
0010
0000
0001
0010
0001
0010
0100
1000
,
0100
0000
0000
0000
0000
0000
0000
0000
1000
0000
0100
0000
0010
0000
0100
1000
,
0001
0010
0100
0001
0100
1000
0001
0100
,
0010
1000
0010
0001
0010
1000
0100
0010
,
0011
0000
1001
0001
0010
0100
1000
1100
,
0000
0000
1001
0000
1000
0000
0001
0000
1000
0000
0001
0000
0010
0000
0100
1000
,
0100
0010
0001
1000
0010
0100
0001
1000
,
0010
0100
0010
0000
0100
0000
1000
0000
0100
0000
0001
0000
0010
0000
0001
0000
,
0010
0100
1000
1100
0000
1010
0000
1001
,
0000
0001
0100
0001
0100
1000
0100
1000
,
0100
0001
0010
0001
0010
1000
0010
1000
,
0010
0000
0000
0000
0001
0000
1000
0000
0000
0000
0001
0000
0001
0010
0000
0100
,
1000
0000
1000
0010
0000
0100
0001
0000
0010
0100
0000
1000
0001
0000
0010
0001
,
1000
0000
0000
0000
1000
0000
0001
0000
0010
0000
0100
0001
0000
0100
0010
0000
,
0100
1000
0000
0010
1000
0000
0010
0100
0000
0010
0001
0000
0010
0000
1000
0001
,
0010
0000
0010
0100
0000
0100
1000
0000
,
1100
0000
0011
0000
0001
1000
1001
0000
,
1000
0100
0010
0011
0000
0100
1000
1100
,
0000
0010
0100
1001
0000
0001
0010
0100
,
1000
0100
0010
0001
1000
0100
0001
0100
,
1000
0001
0100
1000
0100
0001
0010
0100
,
0110
0010
0100
0010
0110
0100
0010
0110
,
0000
0110
1001
0000
0001
0010
0001
1001
,
0000
0000
0100
0000
1000
0000
0001
0000
0100
0000
0100
0000
0100
0000
0001
1000
,
0000
0000
0100
0000
1000
0000
0001
0000
0100
0000
1000
0000
0100
0000
0001
0010
,
0000
0000
0010
0000
0100
0000
1000
0100
0000
0000
0100
0000
0010
0000
0001
1000
,
0000
0010
0010
0000
1000
0000
0001
0100
,
1000
0100
0001
1000
0100
0001
0100
1000
,
0001
0010
1000
0010
0001
1000
0010
0100
,
0001
0100
0001
1000
0001
0010
0100
0010
,
1000
0000
0001
0000
0100
1000
0100
0000
0010
0001
0010
0000
0100
1000
0100
0000
,
0000
0010
0100
1000
0001
0100
0010
1010
,
0000
1000
0100
0010
0001
1000
0001
0010
,
0100
1000
0001
1000
0010
0100
0001
1000
,
0010
0001
0010
0100
0001
0010
0100
1000
,
0001
0010
0100
1000
0001
1000
0100
0001
,
1000
0010
0100
1000
0001
0100
1000
0100
,
0010
1000
0001
0010
0100
1000
0010
0001
,
1000
0000
0001
0000
0010
0000
1000
0000
0001
0010
0001
0010
0001
0010
0001
0010
,
0001
1000
0001
0000
0011
0000
0010
1100
,
0000
0010
0001
0000
0001
0010
0100
1000
,
0000
0100
0001
0100
1000
0010
0001
0010
,
0000
0010
1010
0000
1000
0010
0100
0001
,
0000
0001
0010
0100
0010
0100
0010
0100
,
0220
0000
0000
0330
2000
0000
0000
3002
,
0000
0000
1003
0000
0010
0000
0100
0000
1000
0100
0000
0000
0001
0010
0100
0000
,
0000
0000
1000
0000
0010
0000
0100
0000
0001
0010
0000
0000
0100
1000
0010
0000
,
0000
0000
0100
0000
0001
0000
0010
0000
1000
0010
0000
0000
0001
0100
0010
0000
,
0000
0001
0010
1000
0100
0001
0100
1000
,
0000
0000
0001
0000
0010
0000
0001
0000
0010
0100
0000
0000
0100
1000
0001
0000
,
0000
0000
1000
0000
0010
0000
1000
0000
0010
0100
0000
0000
0001
0100
0010
1000
,
0010
1000
0000
0001
0100
0010
0110
0000
;

//--------------- dance-single - ----------------
#NOTES:
     dance-single:
     :
     Challenge:
     17:
     1.013353,1.11711,0.224122,0.112061,0.823649,633,613,20,10,0,0,1.013353,1.11711,0.224122,0.112061,0.823649,633,613,20,10,0,0:
0000
0000
0000
0000
,
0001
1000
0010
0000
0100
0001
1000
0000
0100
1000
0100
0010
0100
0010
0001
0000
,
0000
0000
1000
0000
0001
0100
0001
0000
1000
0010
1000
0000
0001
0010
0001
0000
,
0000
0000
1000
0000
0010
0000
0100
0000
0001
0010
0001
0000
0010
0000
0100
0000
,
0000
0000
1000
0000
0100
0000
1000
0000
0010
0100
0010
0000
1000
0000
0001
0000
,
0000
0000
0010
0000
0001
0000
0100
0000
0010
1000
0010
0000
0100
0000
0001
0000
,
0010
0000
0100
1000
0001
0000
0010
0000
0100
1000
0001
1000
0100
1000
0010
0000
,
0000
0000
0100
0001
0010
0000
0100
0000
1000
0010
0100
0000
0001
0000
1000
0000
,
0000
0000
0001
0010
0100
0000
0010
0000
0001
1000
0010
0000
0100
0000
0001
0000
,
0010
0011
0000
0100
1100
0000
2002
0000
,
0000
0000
0000
0000
3003
0001
0100
0001
,
1000
0000
1000
0100
0010
0001
1000
0001
,
0000
0101
0000
1010
0000
0000
1001
0000
,
0001
0000
0000
0000
0010
0000
0010
0000
0000
0000
0001
0000
0000
0000
1000
0100
,
1000
0010
0000
1000
,
0001
0000
0100
0100
0000
0010
0000
1000
,
0000
0001
0010
1000
,
0001
0100
1000
0001
1000
0001
1000
0001
,
1000
0000
0000
0000
0000
0000
0001
0000
0010
0000
0100
1000
0100
0010
0001
1000
,
0100
0010
0100
0010
0001
1000
0001
1000
,
0001
0000
0100
0000
0010
0000
1000
0000
0100
0000
0010
0001
0010
0000
0100
0000
,
1100
0000
0000
0000
1001
0000
0001
0010
0100
0000
0010
0100
1000
0000
0001
0000
,
0000
0000
0001
0000
0100
0001
0010
0000
0100
1000
0001
0100
0001
1000
0010
0100
,
0010
0000
0100
0001
1000
0000
0100
0000
0010
0001
0010
0100
1000
0000
0001
0000
,
1000
0010
0100
0001
1000
0000
0010
0000
0100
0000
0010
1000
0100
0000
0001
0000
,
0100
1000
0010
0101
0000
1010
0000
0102
,
0000
0010
0010
0010
0010
0013
0100
2000
,
0100
0000
0100
0000
0100
0000
3100
0000
0100
0010
0001
0000
0001
0010
0100
0000
,
1000
0000
0000
0000
1000
0000
0001
0000
0000
0000
1000
0000
0100
1000
0010
0000
,
0100
0001
1000
0010
0100
0001
0010
0100
1000
0001
0100
0010
1000
0010
0100
0001
,
1000
0000
0000
0000
1000
0000
0001
0000
1000
0000
0001
0010
0100
0000
0010
0001
,
0100
0010
1000
0100
0010
0001
0010
0100
1000
0010
0100
0001
1000
0100
0010
0001
,
1000
0000
0001
0010
0000
0010
0100
0000
,
1100
0000
0000
0000
0011
0000
0000
0000
0001
0010
0001
0010
0100
0000
0000
0000
,
1000
0000
0100
0010
0100
0000
1000
0000
0000
0000
0001
0000
0100
0001
0100
0000
,
0000
0000
0010
1000
0010
0000
0001
0000
0000
0000
0001
0000
0010
0000
1000
0000
,
0100
0000
0010
0001
0010
0000
0100
0010
0100
0000
1000
0100
1000
0000
0010
0100
,
0010
0000
0100
0001
0100
0000
0010
0100
0010
0000
1000
0100
1000
0000
0001
0200
,
0001
0000
0001
0000
0001
0000
0301
0000
0001
0010
0100
1000
0001
0010
0100
0000
,
0000
0000
1100
0000
1001
0000
0000
0000
0001
0100
0010
0100
0001
0010
0100
0000
,
0000
0000
0100
0000
1000
0000
0001
0010
0100
0000
1000
0000
0100
0000
0010
0001
,
0010
0000
0100
0000
1000
0000
0001
0100
0010
1000
0010
0000
1000
0000
0001
1000
,
0001
0000
0010
0000
0100
0000
1000
0001
1000
0000
0010
0000
0100
0001
0100
0001
,
0100
0000
0010
1000
0010
0000
1000
0100
1000
0000
0001
0010
0001
0000
0010
0000
,
0100
0000
1000
0000
0100
0010
0001
0000
1000
0000
0010
0000
0100
0001
0010
0000
,
0100
0000
1000
0000
0010
0100
0001
0000
1000
0000
0001
0000
0010
0000
0100
1000
,
0001
0000
0100
0001
1000
0000
0100
1000
0010
0000
0100
0001
0010
0000
0100
1000
,
0001
1000
0001
0010
0100
1000
0001
1000
0001
0100
0010
1000
0100
0010
0001
0000
,
0000
0000
0010
0000
0100
0010
0100
0000
1000
0000
0001
0100
0010
0100
0001
0000
,
0000
0000
1000
0000
0100
0000
0010
0001
1000
0001
0100
0000
0010
0000
1000
0000
,
0100
1000
0010
0000
0100
0000
0010
0000
0100
0001
0010
0000
0100
0000
1000
0000
,
0010
0000
0100
0001
0100
0000
0010
1000
0010
0000
0100
0001
0100
0000
0010
0000
,
1000
0000
0001
0010
0100
0000
0100
1000
0010
0000
0010
0100
0001
0100
0010
0100
,
1000
0000
0100
0000
0001
0010
0100
0000
1000
0000
0001
0010
0100
0000
1000
0010
,
0100
0001
0010
1000
0001
0100
1000
0001
,
1000
0000
0010
0000
0100
0000
0001
0000
1000
0100
1000
0100
1000
0100
1000
0100
,
0010
0001
0011
0000
1001
0000
1000
0100
,
0000
0010
0001
0000
0001
0100
1000
0100
,
0000
0100
0001
0010
1000
0010
0001
1000
,
0000
0001
0011
0000
1000
0010
0001
0010
,
1000
0001
0020
0100
0100
0100
0100
0130
,
0220
0000
0000
0330
0002
0000
0000
2003
,
0000
0000
3001
0000
0010
0000
0100
0000
1000
0001
1000
0100
0010
0100
1000
0000
,
0000
0000
0001
0000
1000
0000
0010
0000
0100
0001
1000
0001
0100
0010
1000
0000
,
0000
0000
0001
0000
0010
0000
0100
0000
1000
0100
0010
0100
1000
0100
0010
0000
,
0100
1000
0001
0000
0100
0001
1000
0000
0001
0010
0100
1000
0100
0010
0001
0000
,
0000
0000
0001
0000
0010
0001
0100
0000
0010
1000
0100
0000
0010
0001
1000
0000
,
0000
0000
0010
0000
0100
0001
0010
0000
0100
1000
0010
0000
0100
0001
1000
0000
,
0010
0000
0001
0010
1000
0000
0001
0000
1000
0100
0001
0000
0110
0000
0000
0000
;
