#TITLE:フォニイ;
#SUBTITLE:;
#ARTIST:ツミキ feat. 町田ちま;
#TITLETRANSLIT:phony;
#SUBTITLETRANSLIT:;
#ARTISTTRANSLIT:Tsumiki feat. Chima Machita;
#GENRE:POP;
#CREDIT:;
#MUSIC:phony.ogg;
#BANNER:phony.png;
#BACKGROUND:phony-bg.png;
#CDTITLE:;
#SAMPLESTART:2.498;
#SAMPLELENGTH:15.882;
#SELECTABLE:YES;
#OFFSET:-0.027;
#BPMS:0.000=170.000;
#STOPS:;
#BGCHANGES:3.000=Phony.avi=1.000=0=0=0=StretchNoLoop====,
99999.000=-nosongbg-=1.000=0=0=0=StretchNoLoop====
;
#FGCHANGES:;

//--------------- dance-single - ----------------
#NOTES:
     dance-single:
     :
     Hard:
     13:
     0,0,0,0,0:
0000
0000
0000
0000
,
0000
0000
0000
0000
,
0000
0000
0000
0000
,
0000
0000
0000
0000
,
0000
0000
0000
0000
,
0000
0000
0000
0000
,
0000
0000
0000
0000
,
0000
0000
0000
0000
,
0000
0000
0000
0000
,
1010
0110
0011
0110
,
1100
1001
0101
1001
,
1000
0000
0001
0000
0100
0000
0001
0000
1000
0100
1000
0000
0001
0100
0001
0000
,
0020
0230
2300
3002
,
0103
0000
0010
0000
0010
0000
0000
0000
1010
0000
0000
0101
0000
0000
1010
0000
,
0000
0010
1000
0100
0010
0001
0011
0000
,
1000
0000
0001
0000
1000
0000
0000
0000
0011
0000
0000
1100
0000
0000
0011
0000
,
0000
0010
0100
1000
0001
0101
1100
0000
,
0100
0000
0010
0000
0010
0000
0000
0000
0110
0000
0000
1100
0000
0000
0101
0000
,
0000
0100
0001
1000
0010
0100
0101
0000
,
1100
0000
0000
0000
0110
0000
0000
0000
0011
0000
0000
0110
0000
0000
1001
0000
,
1000
0000
0010
0100
0010
0000
1000
0000
0002
0000
0010
0000
0013
0000
0100
0000
,
1000
0000
1000
0001
0100
0000
0100
0001
,
0010
0200
2300
3002
,
0203
0000
0310
0000
0010
1000
0010
0001
,
1000
0000
0100
0001
0010
0100
1000
0001
,
0011
0000
0000
0000
1000
0000
0010
0000
1010
0000
0000
0100
0000
0000
0101
0000
,
0000
0011
0010
0100
1100
0000
1100
0000
,
0101
0000
0001
0100
1000
0100
0001
1000
,
0101
0000
1001
0001
0010
0100
0010
0001
,
1000
0010
1000
0010
0100
0001
0100
0020
,
0000
0130
0110
0000
1001
0000
1001
1000
,
0100
1000
0100
0010
0001
0010
0001
2000
,
0000
3001
0101
0000
2100
0001
3001
0100
,
0001
0000
0010
0000
1000
0000
0010
0000
0001
0000
0100
0010
0100
0000
2000
0000
,
0000
3100
0110
0000
1002
0000
1003
0100
,
0010
0001
0010
0100
1000
0001
0100
0020
,
0000
0130
0101
0000
1100
0000
1010
0000
,
1001
0000
0000
0000
1000
0000
0100
0000
0001
0000
0100
1000
0100
0000
0001
0000
,
0200
1000
0320
0001
,
0230
0000
1300
0010
0001
0000
0010
1000
,
0000
1000
0100
0010
0002
0100
0103
0000
,
1010
0000
0000
0000
0001
0000
0100
0000
1000
0000
0100
0001
0100
0000
1000
0000
,
0100
1010
0101
0011
,
1100
0000
0001
0010
1000
0000
1000
0010
,
0000
0010
0001
0100
0110
0000
1000
0000
,
0100
0000
0000
0000
0010
0000
0001
0000
1010
0000
0000
0101
0000
0000
0011
0000
,
0000
0000
0001
0000
0010
0000
0100
0000
1000
0000
0001
0100
0001
0000
1000
0000
,
0010
0000
0100
0000
0001
0000
1000
0000
0000
0000
0001
0010
0001
0000
1100
0000
,
0000
0001
0100
1000
0200
0001
0301
0000
,
1001
0000
0000
0000
0001
0000
0100
0000
1010
0000
0000
0110
0000
0000
0101
0000
,
0000
0000
0001
0000
0010
0000
0100
0000
1000
0000
0001
0100
0001
0000
1000
0000
,
0010
0100
0001
0010
0000
0010
0100
1000
,
0000
1000
0010
0100
1001
0000
0001
0000
,
0100
0100
0010
0010
,
1000
1000
1100
1100
,
0101
0101
1001
0001
,
0100
0000
1000
0000
0100
0000
0001
0010
,
0001
0000
0001
0000
0100
0000
0100
0010
,
1000
0100
0010
0000
0011
0000
0011
0000
,
1010
1010
1001
1000
,
0010
0000
0100
0000
0001
0000
1000
0001
,
1000
0000
0010
0000
0100
0001
0100
0001
,
0010
0100
1000
0000
0001
0000
1000
0100
,
0000
0000
0001
0100
0000
0000
1000
0001
,
0000
0000
1001
0000
1000
0001
0100
0001
,
1000
0100
0010
0001
,
1000
0100
0010
0001
1001
0000
0000
0000
,
1010
0000
0101
0000
0001
0100
1000
0100
,
0010
1000
0100
0001
0100
0000
0010
0001
,
0100
0000
0100
1010
0000
0110
0000
1001
,
0000
0001
0010
0000
0010
0100
1000
0010
,
1000
0100
0001
0100
1000
0000
0001
0100
,
1000
0100
0001
0000
0011
0000
1100
0000
,
1001
0000
0001
0100
0010
0000
0000
0100
,
0100
0002
0000
0103
0100
2000
3100
0010
,
0110
0000
1001
0000
1000
0100
0010
0100
,
1000
0001
0100
1000
0100
0000
0101
0011
,
0000
0000
1100
1010
0000
0000
0110
1001
,
0000
0000
0002
0000
1003
0100
0010
0100
,
1100
0000
0101
0001
1001
0000
0110
0100
,
0101
0000
0011
0010
0110
0000
1100
0000
,
1001
0000
0001
1000
0100
0000
0010
0001
,
0010
0100
1000
0001
1000
0010
0001
0010
,
0100
0000
1000
0100
0001
0000
1000
0000
,
0001
0010
0100
0011
,
1100
0000
0000
0000
;

//--------------- dance-single - ----------------
#NOTES:
     dance-single:
     :
     Challenge:
     17:
     0.908802,1.049296,0.609003,0.222204,0.646037,773,699,74,27,0,0,0.908802,1.049296,0.609003,0.222204,0.646037,773,699,74,27,0,0:
0000
0000
0000
0000
,
0000
0000
0000
0000
,
1000
0000
0001
0100
0001
0000
1000
0010
1000
0000
0000
0110
0000
0000
0101
0000
,
0000
0000
0001
0010
0100
0000
1000
0000
0020
0000
0000
0000
0032
0000
0000
0000
,
0013
0000
0010
1000
0100
0000
0010
0100
0010
0000
0001
0000
1000
0000
0010
0000
,
0000
0000
0100
0001
1000
0000
0010
0000
0100
0000
0001
0010
0100
0000
0000
0000
,
0010
0000
0100
1000
0100
0000
0010
0100
0010
0000
0000
0011
0000
0000
1001
0000
,
0000
0000
0001
0100
0010
0000
0100
0000
2000
0000
0000
0000
3200
0000
0000
0000
,
0301
0000
1000
0100
0010
0000
1000
0010
0001
0000
0100
0000
0010
0000
0000
0000
,
0110
1010
0110
0011
,
1001
0101
1001
1100
,
0100
0000
0010
0000
0001
0000
0010
0000
0100
1000
0100
1000
0001
0010
0001
0010
,
0100
1000
0010
0000
0100
0000
0010
1000
0001
0000
0010
0000
0100
1000
0100
1000
,
0010
0000
0100
0000
0001
0000
1000
0000
0100
0000
0000
0100
0000
0000
0110
0000
,
0000
0000
0010
0001
0100
0000
0010
1000
0100
0000
0010
0000
0010
0000
0001
0100
,
0010
0000
0100
0001
0020
0000
0100
0000
0130
0000
1000
0010
0100
0000
0010
1000
,
0100
0010
0100
0010
0100
0000
1000
0000
0001
0000
0101
0000
1010
0000
0000
0000
,
0100
0010
0100
0000
0001
0000
1000
0000
0010
0000
0000
0010
0000
0000
0110
0000
,
0000
0000
0100
0001
0010
0000
0100
1000
0010
0000
0100
0000
0101
0000
0000
0000
,
0011
0000
0010
0100
0001
0000
0100
1000
0010
0000
0000
0100
0000
0000
1001
0000
,
0001
0100
0010
0100
1000
0000
0100
0000
0200
0000
0001
0000
0302
0000
0000
0000
,
0013
0000
0100
1000
0100
0000
0100
0010
0100
0000
0000
1000
0000
0000
1010
0000
,
0000
0000
0010
0100
0010
0000
1000
0000
0001
0000
0100
0000
0100
0000
0100
0000
,
0001
0000
0010
0001
0010
0000
0010
0100
0010
0000
1000
0000
0010
0000
0001
0000
,
0000
0000
0001
0100
0010
0000
0100
0000
0001
0000
0001
0010
0100
0000
1000
0000
,
0011
0000
1000
0100
1000
0000
0010
0000
0101
0000
0000
0010
0000
0000
0110
0000
,
0000
0000
1010
0000
0100
0001
0010
0000
0110
0000
0000
0000
1100
0000
0000
0000
,
0011
0000
0001
0010
0100
0000
1100
0000
1001
0000
0001
0000
0100
0000
0010
0100
,
0010
0000
0100
0000
0001
0000
1000
0000
0001
0010
0001
0010
0100
0010
0001
0100
,
0010
0000
0010
1000
0010
0000
0010
0100
0010
0000
0010
0001
0010
0000
2000
0000
,
0000
0000
3001
0000
0011
0000
0000
0000
0110
0000
0000
0000
1001
0000
1000
0010
,
0100
0000
0100
0001
0100
0000
0100
0010
0100
0000
0100
1000
0100
0000
0002
0000
,
0000
0000
1003
0000
1100
0000
0100
0000
0120
0000
0001
0000
0031
0000
0100
0010
,
0100
0000
0001
0100
0001
0000
0010
0100
0010
0000
0001
0010
0001
0000
2000
0000
,
0000
0000
3001
0000
0011
0000
0000
0000
1002
0000
0000
0000
1003
0000
0100
0010
,
0100
0000
1000
0100
1000
0000
0010
0100
0010
0000
1000
0010
1000
0000
0002
0000
,
0000
1003
1100
0000
0110
0000
0011
0000
,
1100
0000
0000
0000
1000
0000
0010
0000
0100
0000
0100
0001
0010
0000
0100
0000
,
0010
0011
1010
0011
,
1010
0000
0010
0100
0010
0000
0100
0001
,
0000
1000
0100
0010
0002
0100
0103
0000
,
1001
0000
0000
0000
0001
0000
1000
0000
0100
0000
0100
1000
0010
0000
0100
0000
,
0010
0110
1001
0110
,
1001
0000
0001
0100
1000
0000
1000
0100
,
0000
0100
0001
0010
0110
0000
1000
0000
,
0100
0000
0000
0000
0010
0000
0001
0000
1010
0000
0000
0110
0000
0000
0101
0000
,
0000
0000
0000
0001
0000
0000
0100
0000
0000
0010
0000
0000
0100
0000
0000
0001
0010
0001
0010
0000
0000
0100
0000
0000
,
1000
0000
0010
0000
0100
0000
0001
0000
0000
0000
0001
0010
0100
0000
0110
0000
,
0000
0100
1000
0010
0200
0001
0301
0000
,
1001
0000
0000
0000
1000
0000
0100
0000
0011
0000
0000
0110
0000
0000
1100
0000
,
0000
0000
0000
1000
0000
0000
0010
0000
0000
0100
0000
0000
0010
0000
0000
1000
0100
1000
0100
0000
0000
0010
0000
0000
,
0001
0010
1000
0001
0000
0001
0100
1000
,
0000
1100
0110
0011
1001
0000
0001
0000
,
0100
0000
0100
0000
0010
1000
0100
1000
,
0010
0000
0100
0000
0001
0000
0000
0000
2000
3000
0000
0000
2000
3000
0000
0000
,
0020
0030
0000
0000
0020
0030
0000
0000
0200
0300
0001
0000
0000
0000
1000
0000
,
0000
0001
0100
0000
0010
0000
0010
1000
,
0100
0000
0010
0000
0100
1000
0010
1000
,
0100
0000
0001
0000
0100
0000
0000
0000
2000
3000
0000
0000
2000
3000
0000
0000
,
0002
0003
0000
0000
0002
0003
0000
0000
0200
0300
0000
0000
0010
0000
1000
0000
,
0001
0000
0010
0000
0100
0000
1000
0001
,
1000
0000
0001
0000
0100
1000
0100
1000
,
0100
0001
0010
0000
0100
0000
1000
0100
,
1100
0000
0001
0100
0101
0000
1000
0001
,
1001
0000
1001
0000
1000
0010
0100
0010
,
1000
0001
1000
0001
0100
0010
0100
0010
,
1000
0000
0100
0000
0010
0000
0001
0000
1000
0100
1000
0100
0010
0001
0010
0001
,
1000
0000
0000
0000
0001
0100
0001
0000
1000
0100
0010
0100
1000
0010
0100
0000
,
0010
0000
0100
0001
0010
0000
0100
0000
1000
0100
0010
0001
0100
0000
0100
0010
,
1000
0000
1000
0010
0100
0001
0100
1000
0100
0000
0100
0001
1000
0000
0001
0010
,
0100
0000
0010
0000
0100
0000
1000
0100
0010
0100
1000
0100
0010
0001
0100
0010
,
0001
0010
0100
0010
1000
0100
0001
0100
1000
0000
0001
0000
1000
0100
0010
0100
,
1000
0010
0001
0010
1000
0000
0001
0100
0010
0000
0100
0001
0010
0000
0001
0010
,
1000
0000
0010
0000
0001
0000
0100
0000
1000
0100
0010
0001
1000
0000
0100
0001
,
0100
0001
0020
0000
0000
0000
0130
1000
0100
1000
0020
0000
0130
0000
0100
0001
,
1000
0000
0001
0010
0100
0000
0010
0001
1000
0000
0010
0100
0010
1000
0100
0010
,
1000
0001
0100
1000
0010
0000
0100
0001
2000
0000
3001
0000
0011
0000
2100
0000
,
0001
3010
1010
0102
1000
0013
0011
2100
,
3001
0100
0010
0001
0010
0100
0010
0100
1000
0000
0100
0001
0010
0000
0100
0000
,
0011
0000
0010
0001
1000
0000
0001
0100
0010
0100
0001
0010
0100
0010
0001
0010
,
1000
0010
0001
0010
0100
0000
0100
1000
0010
0000
0100
0001
0010
0100
1000
0000
,
1100
0000
0101
0000
0001
0000
1000
0010
0100
0000
0100
0001
0010
1000
0001
0100
,
0010
0000
0010
0001
1000
0000
0001
0100
1000
0000
0100
0000
0001
0000
0010
0000
,
0100
0000
1000
0100
0010
0000
0100
0010
0001
0000
0000
1000
0000
0000
0010
0000
,
0000
0000
0100
0001
1000
0000
0010
0000
0100
0000
0000
0000
1010
0000
0000
0000
,
0101
0000
0000
0000
;
