#TITLE:ネヴァモア;
#SUBTITLE:;
#ARTIST:sasalasa (sasakure.UK × lasah);
#TITLETRANSLIT:nevermore;
#SUBTITLETRANSLIT:;
#ARTISTTRANSLIT:sasalasa (sasakure.UK × lasah);
#GENRE:POP;
#CREDIT:;
#MUSIC:nevermore.ogg;
#BANNER:nevermore.png;
#BACKGROUND:nevermore-bg.png;
#CDTITLE:;
#SAMPLESTART:29.445;
#SAMPLELENGTH:9.290;
#SELECTABLE:YES;
#OFFSET:-0.026;
#BPMS:0.000=155.000;
#STOPS:;
#BGCHANGES:2.000=nevarmore.avi=1.000=0=0=0=StretchNoLoop====,
99999.000=-nosongbg-=1.000=0=0=0=StretchNoLoop====
;
#FGCHANGES:;

//--------------- dance-single - ----------------
#NOTES:
     dance-single:
     :
     Medium:
     12:
     0,0,0,0,0:
0000
0000
0000
0000
,
1000
0000
0000
1000
0000
0000
0001
0000
0000
0001
0000
0000
0100
0000
0000
0100
,
0000
0000
0010
0000
0000
1000
0000
0000
0001
0000
0000
0001
0000
0000
0010
0000
,
0000
0010
0000
0000
0100
0000
1000
0000
0100
0000
0010
0000
0001
0000
1000
0000
,
0010
0000
0000
0010
0000
0000
0100
0000
0000
0100
0000
0000
0001
0000
0000
0001
,
0000
0000
1000
0000
0000
0100
0000
0000
0001
0000
0000
0001
0000
0000
0100
0000
,
0000
0100
0000
0000
1000
0000
0010
0000
0100
0000
0001
0000
0100
0000
0010
0000
,
1000
0000
1000
0100
0000
0100
0010
0000
,
0100
0000
1000
0000
0001
0100
0000
0010
,
1000
0100
0000
0010
0001
0100
0000
0000
,
0110
0000
0100
0001
0000
0001
0010
0000
,
0100
0000
0100
0000
1000
0100
0000
0010
,
0001
0100
0000
0010
1000
0100
0000
0000
,
1010
0000
0100
0001
0000
1000
0100
0000
,
0010
0001
0100
0000
0010
1000
0100
1000
,
0010
0000
0000
0000
0100
0000
0000
0001
0000
0000
0010
0000
0100
0000
0000
0000
,
0110
0000
0100
1000
0000
1000
0001
0000
,
0100
0010
0100
0000
0100
1000
0100
0001
,
1001
0000
0000
0000
0001
0000
0000
0110
0000
0000
1000
0000
0001
0000
0000
0000
,
0011
0000
1100
0000
1000
0100
0001
0100
,
1000
0000
1000
0010
0101
0000
0011
0000
,
1100
0000
0110
1000
0001
0000
1001
0000
,
0101
0100
0010
1000
1100
0100
0010
0001
,
1001
1000
0010
0100
0110
0000
0010
1000
,
0000
1000
0001
0000
0001
0010
0100
1000
,
1100
0000
0011
0000
0001
0100
1000
0100
,
0001
0000
0100
0010
1010
0000
1100
0000
,
0011
0000
0110
0001
1000
0000
0110
0000
,
1001
0000
0000
0001
0000
0000
0100
0000
0010
0000
0000
0000
1010
0000
0000
1000
,
0000
0001
0000
0010
0100
0000
0100
1000
,
0001
0100
0010
0100
1000
0100
0001
0010
,
0100
0010
0001
1000
0001
0100
0010
0100
,
1000
0100
0001
0010
0100
1000
0001
0010
,
0001
1000
0010
0100
0001
0100
1000
0100
,
0001
0010
0100
1000
0010
0100
0010
1000
,
0001
0100
0010
1000
0001
0010
0001
1000
,
0100
0010
0001
1000
0100
0001
0100
1000
,
1010
0000
0000
0110
0000
0000
1010
0000
0000
0101
0000
0000
0011
0000
0000
0110
,
0000
0000
1100
0000
0000
0011
0000
0000
1100
0000
0000
0101
0000
0000
0110
0000
,
0000
1001
0000
0000
0110
0000
0000
0101
0000
0000
1010
0000
0000
0011
0000
0000
,
0110
0000
0000
1010
0000
0000
1001
0000
0000
0110
0000
0000
0101
0000
0000
1001
,
0000
0000
0110
0000
0000
0011
0000
0000
1100
0000
0000
1010
0000
0000
0110
0000
,
0000
1001
0000
0000
0110
0000
0000
0011
0000
0000
1010
0000
0000
1001
0000
0000
,
0010
0000
1000
0100
0000
0100
0010
0000
,
0001
0000
1000
0000
0001
1000
0000
0001
,
0100
0001
0000
1000
0100
1000
0000
0000
,
0001
0000
0010
0100
0000
0100
1000
0000
,
0001
0000
0001
0000
0100
0010
0000
1000
,
0100
1000
0000
0001
0100
0001
0000
0000
,
1010
0000
0101
0000
0001
0010
0100
1000
,
0001
0000
1000
0010
0110
0000
1001
0000
,
0011
0000
1100
1000
0001
0000
0000
0000
,
0011
0000
1000
0001
0101
0000
0001
1000
,
1100
0000
0001
0010
0110
0000
0100
1000
,
0000
1000
0001
0000
1001
0000
0000
0000
,
0001
0000
1000
0100
0000
0010
0001
0000
,
0100
0000
1000
0100
0001
0000
0010
0100
,
0000
1000
0001
0000
1001
0000
0000
0000
,
0100
0000
0000
0010
0000
0000
0001
0000
1000
0000
0000
0000
0110
0000
0000
1001
,
0000
0110
0000
0010
1000
0000
0001
0010
,
0100
1000
0001
0010
0100
1000
0001
0100
,
1010
0000
0101
0000
0001
0010
1000
0010
,
0001
0000
0001
1000
1100
0001
0101
1000
,
1100
0001
0101
0100
1001
0000
1001
0000
,
1010
0010
0100
0001
0011
0010
0100
1000
,
1001
0001
0100
0010
0110
0000
0100
0001
,
0000
0001
1000
0000
0100
0000
0001
0100
,
1100
0000
1001
0000
1000
0010
0001
0010
,
1000
0000
0010
0100
0101
0001
1100
1000
,
0101
0001
1010
1000
0110
0000
0110
0000
,
1001
0000
0000
0001
0000
0000
0010
0000
0110
0000
0000
0000
1100
0000
0000
0010
,
0000
0001
0000
0001
1000
0000
1000
0010
,
0001
0010
0001
0010
1000
0100
0001
0100
,
0110
0000
0010
0001
0000
0001
1000
0000
,
1000
0010
0100
0000
0010
0000
0100
0001
,
0000
0001
1000
0000
1100
0000
0101
0000
,
1001
0000
0001
0100
0000
0100
0010
0000
,
1000
0100
0010
0000
0001
0000
1000
0010
,
0000
0100
0001
0000
0101
0000
1001
0000
;

//--------------- dance-single - ----------------
#NOTES:
     dance-single:
     :
     Hard:
     15:
     0,0,0,0,0:
0000
0000
0000
0000
,
1000
0000
0000
1000
0010
0000
0100
0000
0000
0100
0000
0000
0001
0000
0000
0001
,
0010
0000
0100
0000
0000
0100
1000
0000
0001
0000
0000
0001
1000
0000
0010
0000
,
0000
0010
0000
0000
0100
0000
0001
0000
1000
0100
1000
0100
0010
0000
0001
0000
,
1000
0000
0000
1000
0010
0000
0100
0000
0000
0100
0000
0000
0001
0000
0000
0001
,
1000
0000
0100
0000
0000
0100
0001
0000
0100
0000
0000
1000
0010
0000
0100
0000
,
0001
1000
0001
1000
0100
0000
0010
0000
0010
0000
0100
1000
0001
0000
0100
0000
,
0110
0010
1000
1010
0000
1010
1000
0001
,
0011
0000
0011
0010
0100
1100
0000
1100
,
1000
0000
0101
0000
0000
0000
0101
0000
0001
0100
0010
0000
0010
0100
0001
0000
,
0011
0010
0100
1100
0000
1100
1000
0010
,
0110
0000
0110
0100
0001
1001
0000
0101
,
0001
0000
1010
0000
0000
0000
1010
0000
1000
0010
0100
0000
0100
0010
1000
0000
,
1010
0000
0000
0010
0100
0000
0001
0000
0010
0000
0100
1000
0100
0000
1000
0000
,
0001
0000
0100
0001
0100
0000
1000
0000
0100
0000
0001
0010
0001
0000
0100
0000
,
0110
0000
0000
0000
0101
0000
0000
1010
0000
0000
1000
0000
1100
0000
0000
0000
,
0011
0000
0010
0000
0100
1000
0100
0000
0010
0000
0100
0001
0100
0000
1000
0000
,
0010
0000
0100
0010
0100
0000
1000
0000
0100
0000
0001
0010
0100
0000
0010
0000
,
0110
0000
0000
0100
1000
0000
0000
1010
0000
0000
0100
0000
0101
0000
0000
0000
,
1001
0000
0000
1000
0100
0000
0001
0000
0100
0000
0100
1000
0001
0000
0100
0000
,
1010
0000
0000
0000
1000
0000
0010
0000
0110
0000
0100
0001
0100
0000
0100
0010
,
0100
0000
0100
1000
0100
0000
0001
0000
1001
0000
0000
0000
1001
0000
0000
0000
,
0011
0000
0100
1000
0010
0000
0101
0000
1010
0000
0100
0001
0010
0000
1100
0000
,
0011
0000
0100
1000
0001
0000
0110
0000
1001
0000
0000
0001
0100
0000
0010
0000
,
0000
0000
1000
0000
0100
0000
0001
0000
0100
0010
0001
0010
0100
1000
0001
0010
,
0100
0000
0000
0100
1000
0000
0001
0000
0100
0000
1000
0100
0010
0000
0100
0000
,
1001
0000
0000
0000
0100
0000
0110
0000
0010
1000
0010
0000
0010
0100
0010
0000
,
0010
0001
0010
0000
1000
0000
0001
0000
1001
0000
0000
0000
0011
0000
0000
0000
,
1100
0000
0000
1000
0100
0000
0001
0000
0100
0000
1000
0010
0100
0000
0000
0100
,
0001
0011
0000
0110
1000
0000
0110
0001
,
1000
0000
0001
0000
0010
0000
0100
0000
1000
0100
1000
0000
0001
0100
0001
0100
,
0001
0010
0100
1000
0100
0000
0010
0000
0001
0100
0001
0000
1000
0000
0100
0010
,
0100
0000
1000
0000
0001
0100
0001
0010
0100
0000
1000
0001
1000
0000
0010
0000
,
0100
0001
0100
0000
0010
0000
0100
1000
0100
0000
0001
0000
1000
0100
0010
0001
,
1000
0000
0001
0100
0010
0000
1000
0000
0001
0010
0100
0000
1000
0000
0001
1000
,
0100
0000
0010
0000
0001
0100
0010
1000
0001
0000
0010
0100
1000
0000
0001
0000
,
0100
0001
0010
0000
0100
0000
1000
0100
0010
0000
0001
0010
0100
1000
0010
0100
,
0001
0000
0001
0010
0000
0010
0100
0000
0100
1000
0000
1000
0001
0000
0001
0100
,
0000
0100
1000
0000
1000
0100
0001
0010
1000
0000
1000
0001
0000
0001
0100
0000
,
0100
1000
0000
1000
0010
0000
0010
0100
0000
0100
1000
0000
1000
0100
0001
0010
,
0100
0000
0100
1000
0000
1000
0001
0000
0001
0100
0000
0100
0010
0000
0010
1000
,
0000
1000
0100
0000
0100
0001
1000
0010
0001
0000
0001
0100
0000
0100
0010
0000
,
0010
1000
0000
1000
0100
0000
0100
0001
0000
0001
1000
0010
0001
0100
0010
0100
,
0010
1000
0001
1000
0000
0001
0010
0100
,
1000
0000
0001
0100
0010
1000
0000
0001
,
1000
0001
0000
1000
0001
1000
0000
0000
,
0001
0100
0010
1000
0000
0001
0010
0100
,
1000
0000
0001
0100
1000
0100
0000
0010
,
0100
0010
0000
0100
0010
0100
0000
0000
,
0101
0000
1010
0000
0010
1000
0100
0010
,
0011
0000
0001
1000
0010
0010
0100
0100
,
0001
0001
1000
0100
0010
0000
0000
0000
,
0011
0100
1000
0001
0101
0010
1000
0001
,
1100
0010
0001
1000
1001
0000
0001
0100
,
0000
1000
0100
0000
1001
0000
0000
0000
,
0001
0100
1000
0100
0001
0010
0001
1000
,
0100
0000
0010
0001
1000
0010
0100
0010
,
0001
0010
1000
0100
0001
0000
0110
0000
,
0100
0000
0000
0010
0000
0000
0001
0000
1000
0000
0000
0000
0110
0000
0000
1001
,
0000
0110
0000
0010
1000
0000
0001
0010
,
0100
1000
0100
1000
0100
0010
0001
0000
1000
0010
1000
0010
0100
0000
0001
0000
,
1001
0000
0000
1000
0100
0000
0010
0000
0001
0000
1000
0010
0100
0000
0001
0000
,
0101
0000
0000
0000
0001
0000
0100
0000
1000
0000
0100
0001
0010
0000
0010
0100
,
1000
0000
1000
0010
0001
0000
0010
0000
1001
0000
0000
0000
1001
0000
0000
0000
,
1100
0000
0010
0001
0100
0000
1010
0000
0101
0000
0010
1000
0100
0000
0011
0000
,
1100
0000
0010
0001
1000
0000
0110
0000
1001
0000
0000
0001
0100
0000
0010
0000
,
0100
0000
1000
0000
0100
0000
0001
0010
0100
1000
0001
0010
0001
1000
0100
0010
,
0001
0000
0000
0010
0100
0000
1000
0000
0001
0000
0100
0010
0100
0000
0001
0000
,
0011
0000
0000
0000
0010
0000
0110
0000
0100
0000
0100
1000
0010
0000
0010
0100
,
0001
0000
0001
0010
1000
0000
0010
0000
0110
0000
0000
0000
1100
0000
0000
0000
,
0011
0000
0000
0001
0100
0000
0010
0000
1010
0000
0000
0000
1010
0000
0000
1000
,
0100
0000
0010
0000
0000
0000
0010
0000
0011
0000
0000
0000
0001
0100
0010
0000
,
1000
0100
0010
0000
0001
0010
0100
0000
1000
0100
0010
0001
1000
0010
0100
0000
,
0110
0010
1000
0100
0001
0100
0010
0100
,
1000
0010
0100
0010
0001
0010
1000
0001
,
0010
0000
0001
0000
1100
0000
0000
0000
1000
0100
0001
0000
0001
0100
0010
0000
,
0110
0010
0001
0100
1000
0100
0010
0100
,
0001
0010
0100
0010
1000
0010
0001
1000
,
0010
0000
1000
0000
0101
0000
0000
0000
0001
0100
1000
0000
1000
0100
0010
0000
;

//--------------- dance-single - ----------------
#NOTES:
     dance-single:
     :
     Challenge:
     18:
     0.719062,0.540802,0,0,0,624,624,0,0,0,0,0.719062,0.540802,0,0,0,624,624,0,0,0,0:
0000
0000
0000
0000
,
1001
0000
0000
0001
0010
0000
1100
0000
1000
0010
0000
0010
0100
0000
0000
0001
,
1000
0000
0011
0000
0100
1000
0010
0000
0110
0000
0000
0100
0001
0000
1010
0000
,
0100
0000
0000
0001
0000
0000
0000
0000
0000
1000
0000
0000
0100
0000
0000
0010
0000
0000
0001
0000
0000
0000
0000
0000
0001
0000
0000
0010
0000
0000
0100
0000
0000
1000
0000
0000
0001
0000
0100
0000
0010
0000
2000
0000
0000
0000
0000
0000
,
3010
0000
0000
1000
0100
0000
0011
0000
0001
0010
0000
0010
0100
0000
0000
1000
,
0001
0000
1001
0000
0100
0001
0010
0000
0110
0000
0000
0100
1000
0000
0101
0000
,
0001
0100
0010
0100
0001
0000
0011
0000
1100
0000
0010
0100
0001
0000
1001
0000
,
1000
0010
0100
0000
0100
0001
0010
0100
0010
0001
0100
0000
0110
0000
0010
1000
,
0100
0000
0110
0000
0010
0001
0100
0010
0001
0000
0010
0000
1000
0000
0110
0000
,
0101
0000
0000
1010
0000
0000
0000
0000
0000
0110
0000
0000
0001
0010
0100
1000
0000
0000
1000
0010
0100
0001
0000
0000
,
0101
0000
0100
0010
1000
0000
0100
0000
0010
0001
1000
0000
0001
0100
0010
0100
,
1000
0000
0001
0010
0100
0000
0001
0000
0010
0100
1000
0000
0010
0000
0110
0000
,
1010
0000
0000
0101
0000
0000
0000
0000
0000
0110
0000
0000
0010
1000
0100
0010
0000
0000
0100
1000
0010
0100
0000
0000
,
1001
0000
0000
0001
0010
0000
0100
0000
1000
0010
1000
0100
0001
0100
1000
0010
,
0100
0000
1000
0100
0001
0000
1000
0100
0010
0000
1000
0010
0100
1000
0010
0001
,
0010
0000
0000
0000
0000
0000
0100
0000
0000
0001
0000
0000
1000
0000
0000
0000
0000
0000
1001
0000
0000
0000
0000
0000
0001
0000
0010
0000
0100
0000
1000
0000
0000
0000
0000
0000
1000
0000
0010
0000
0100
0000
0001
0000
0000
0000
0000
0000
,
1001
0000
1000
0100
0001
0100
0010
0100
1000
0010
0100
0000
1000
0100
0010
1000
,
0001
0000
0010
0001
0100
0010
1000
0000
0001
0010
1000
0010
0100
0000
1000
0000
,
0010
0000
0000
0000
0000
0000
0000
0000
0000
0010
0000
0000
0100
0000
0000
0000
0000
0000
1001
0000
0000
0000
0000
0000
1000
0000
0010
0000
0100
0000
0001
0000
0000
0000
0000
0000
0001
0000
0010
0000
0100
0000
1000
0000
0000
0000
0000
0000
,
1001
0000
1000
0100
0010
0000
0110
0000
0010
0001
0100
0001
0010
0001
0100
0001
,
0010
0000
0100
0000
1100
0000
0101
0000
0001
0010
0100
0010
0001
0010
0100
1000
,
0100
0010
0100
1000
0100
0010
0001
1000
0010
0000
0000
0100
0001
0000
1000
0000
,
0001
0010
0100
0010
0001
0010
1000
0010
0001
0100
0010
0100
0001
0100
1000
0100
,
0001
0010
1000
0001
0100
1000
0001
0010
0100
0000
0000
0100
1000
0000
0010
0000
,
0001
0000
1000
0000
0100
0000
0001
0000
0010
1000
0001
0100
1000
0010
0001
1000
,
0100
0000
0001
0010
0100
0000
0010
0000
0100
1000
0010
1000
0100
1000
0010
1000
,
0100
0000
0010
0000
0011
0000
1100
0000
1000
0100
0010
0100
1000
0100
0010
0001
,
0010
0100
0010
0001
0010
0100
1000
0010
0100
0000
0010
0000
1000
0000
0001
0000
,
0010
0000
0000
0010
0100
0000
1000
0000
0010
0000
0100
0001
0010
0000
0000
0010
,
0100
1100
0000
1010
0100
0000
0110
0001
,
1000
0000
0000
0000
0001
0000
0000
0000
0010
0000
0000
0000
0100
0000
0000
0000
1000
0000
0100
0000
1000
0000
0000
0000
0001
0100
0001
0100
0001
0000
1000
0000
,
0100
0000
0010
0000
0100
0000
1000
0000
0000
0001
0000
0000
0010
0000
0000
0100
0000
0000
1000
0000
0000
0001
0000
0000
0100
0000
0000
0010
0000
0000
1000
0000
0000
0001
0000
0000
0100
0000
0000
0001
0000
0000
1000
0000
0000
0100
0000
0000
,
0010
0000
0000
0001
0000
0000
0010
0000
0000
0100
0000
0000
1000
0000
0100
0000
0010
0000
0001
0000
0000
1000
0000
0000
0100
0000
0000
1000
0000
0000
0010
0000
0000
0100
0000
0000
0001
0000
0000
0100
0000
0000
0010
0000
0000
1000
0000
0000
,
0001
0000
0000
0100
0000
0000
0001
0000
0000
0010
0000
0000
0100
0000
0000
1000
0000
0000
0001
0000
0000
0100
0000
0000
0001
0000
0000
1000
0000
0000
0001
0000
0010
0000
0100
0000
1000
0000
0000
0010
0000
0000
0100
0000
0000
0010
0000
0000
,
1000
0000
0000
0001
0000
0000
0100
0000
0001
0000
1000
0000
0010
0000
0000
0100
0000
0000
0001
0000
0000
0010
0000
0000
0100
0000
0000
1000
0000
0000
0100
0000
0000
0010
0000
0000
0100
0000
0000
1000
0000
0000
0001
0000
0000
0100
0000
0000
,
0010
0000
0000
0100
0000
0000
0001
0000
0000
0010
0000
0000
0001
0000
1000
0000
0100
0000
0010
0000
0000
0001
0000
0000
1000
0000
0000
0010
0000
0000
0100
0000
0000
0001
0000
0000
1000
0000
0000
0100
0000
0000
0010
0000
0000
0100
0000
0000
,
1000
0000
0000
0001
0000
0000
0010
0000
0000
0100
0000
0000
0010
0000
0000
0100
0000
0000
1000
0000
0000
0010
0000
0000
0100
0000
0000
0010
0000
0000
1000
0000
0100
0000
0010
0000
0001
0000
0000
1000
0000
0000
0010
0000
0000
0100
0000
0000
,
0001
0000
0000
1000
0000
0000
0001
0000
0100
0000
0001
0000
0100
0000
0000
1000
0000
0000
0100
0000
0000
0001
0000
0000
1000
0000
0000
0010
0000
0000
0100
0000
0000
0010
0000
0000
0001
0000
0000
0010
0000
0000
1000
0000
0000
0100
0000
0000
,
0010
0000
0000
0100
0000
0000
0001
0000
0000
0100
0000
0000
1000
0000
0010
0000
1000
0000
0010
0000
0000
0100
0000
0000
0010
0000
0000
1000
0000
0000
0100
0000
0000
0010
0000
0000
0001
0000
0000
0010
0000
0000
1000
0000
0000
0010
0000
0000
,
1000
0000
0000
0001
0000
0000
0100
0000
0000
1000
0000
0000
0010
0000
0000
0001
0000
0000
0010
0000
0000
0100
0000
0000
0001
0000
0000
1000
0000
0000
0100
0000
0010
0000
0100
0000
0010
0000
0000
0001
0000
0000
1000
0000
0000
0010
0000
0000
,
0100
0000
0000
1000
0000
0000
0100
0000
0001
0000
0100
0000
0001
0000
0000
0010
0000
0000
0100
0000
0000
1000
0000
0000
0010
0000
0000
0100
0000
0000
1000
0000
0000
0001
0000
0000
0010
0000
0000
0100
0000
0000
1000
0000
0000
0100
0000
0000
,
0001
0000
0000
1000
0000
0000
0100
0000
0000
0010
0000
0000
0001
0000
0100
0000
0001
0000
0100
0000
0000
0010
0000
0000
1000
0000
0000
0001
0000
0000
1000
0000
0000
0100
0000
0000
0010
0000
0000
0001
0000
0000
0100
0000
0000
0010
0000
0000
,
0001
0000
0000
1000
0000
0000
0100
0000
0000
0010
0000
0000
0001
0000
0000
0010
0000
0000
1000
0000
0000
0100
0000
0000
0010
0000
0000
0001
0000
0000
1000
0000
0100
0000
0010
0000
0001
0000
0000
0010
0000
0000
0100
0000
0000
0010
0000
0000
,
0100
0010
0100
0010
0000
0010
0001
1000
,
0001
0000
0100
1000
0100
0001
0000
1000
,
0100
1000
0000
0001
0100
0001
0000
0000
,
0010
0100
0010
0100
0000
0100
1000
0001
,
1000
0000
0010
0001
0010
1000
0000
0001
,
0010
0001
0000
1000
0010
1000
0000
0000
,
1010
0000
0101
0000
0001
1000
0100
0010
,
0110
0000
0100
1000
1100
0001
0101
1000
,
1010
0001
0011
1000
1001
0000
1001
0000
,
1010
0100
0001
0010
1100
0010
0001
1000
,
0101
1000
0001
0100
1001
0000
0010
1010
,
0000
0100
0101
0000
1001
0000
0000
0000
,
0011
0001
0100
1000
0100
0010
1000
0100
,
0110
0000
1001
1000
0011
0100
1100
0010
,
1010
0100
0101
0001
1001
0000
1001
0100
,
0101
0000
0000
0011
0000
0000
1100
0000
0010
0000
1000
0000
0110
0000
0000
1001
,
0000
0110
0000
0010
1000
0100
0010
1000
,
0010
0001
0100
1000
0100
0001
0010
0000
0100
1000
0010
0001
0010
0000
0110
0000
,
1001
0000
0010
1000
0100
0000
0011
0000
0001
1000
0010
0100
0001
0010
0100
1000
,
0001
0000
0100
0000
1000
0000
0100
0000
0001
0100
0100
1000
0010
0100
0100
0010
,
0001
0100
0100
1000
0100
0010
0001
1000
0001
0000
0000
0000
1001
0000
1000
0000
,
0100
0100
0010
0010
0001
1000
0100
0001
1000
1000
0010
0010
0100
1000
0001
0100
,
0010
0010
1000
1000
0001
0100
0010
1000
0001
0000
0000
0001
0100
0000
1000
0000
,
0100
0001
0010
0000
0100
0000
1000
0100
0010
0100
1000
0100
0010
0001
1000
0100
,
0001
0000
1000
0010
0100
0000
1000
0000
0001
0100
0010
0100
0001
1000
0100
0010
,
1000
0000
0010
0000
0001
0000
1000
0000
0001
0100
0100
1000
0001
0100
0100
0010
,
0001
0100
0100
1000
0010
0100
1000
0100
0001
0000
1000
0000
0100
0000
0010
0000
,
0011
0000
0000
0100
1000
0000
0010
0000
0100
0001
0010
0000
0100
0000
0000
0100
,
1000
0000
0001
0000
0100
0010
0100
0000
0001
0000
0000
0000
0001
0000
0010
0000
,
0100
1000
0001
0010
1000
0000
0001
0100
1000
0010
0100
0001
1000
0000
0001
0000
,
0101
0000
0100
0000
0010
0000
1000
0000
0001
0010
1000
0000
0001
0000
0100
0000
,
1000
0000
0010
0000
0100
0001
0010
0001
0100
0000
1000
0000
0100
0000
0001
0000
,
1000
0000
0000
0100
0000
0000
0011
0000
0000
0000
0000
0000
0001
0010
0100
1000
0000
0000
1000
0010
0100
0001
0000
0000
,
0011
0000
0010
0100
1000
0000
0010
0000
0001
0000
1000
0000
0100
0000
0001
0010
,
1000
0000
0001
0000
0100
0000
0010
0000
0001
0000
1000
0010
0001
1000
0100
0010
,
1000
0000
0000
0100
0000
0000
0010
0000
0000
0001
0000
0000
1000
0000
0000
0000
0000
0000
0000
0000
0000
0000
0000
0000
1000
0000
0010
0000
0100
0000
0001
0000
0000
0000
0000
0000
0001
0000
0010
0000
0100
0000
1000
0000
0000
0000
0000
0000
;
